  0
SECTION
  2
HEADER
  9
$ACADVER
  1
AC1015
  9
$ACADMAINTVER
 70
     6
  9
$DWGCODEPAGE
  3
ANSI_1252
  9
$INSBASE
 10
0.0
 20
0.0
 30
0.0
  9
$EXTMIN
 10
0.4979648902455836
 20
0.1240234748972853
 30
-0.0015258207003583
  9
$EXTMAX
 10
20.50408936660446
 20
14.62597659815332
 30
0.0000000349246037
  9
$LIMMIN
 10
0.0
 20
0.0
  9
$LIMMAX
 10
21.0
 20
16.0
  9
$ORTHOMODE
 70
     0
  9
$REGENMODE
 70
     1
  9
$FILLMODE
 70
     1
  9
$QTEXTMODE
 70
     0
  9
$MIRRTEXT
 70
     1
  9
$LTSCALE
 40
1.0
  9
$ATTMODE
 70
     1
  9
$TEXTSIZE
 40
0.2
  9
$TRACEWID
 40
0.05
  9
$TEXTSTYLE
  7
Standard
  9
$CLAYER
  8
stereotext
  9
$CELTYPE
  6
ByLayer
  9
$CECOLOR
 62
   256
  9
$CELTSCALE
 40
1.0
  9
$DISPSILH
 70
     0
  9
$DIMSCALE
 40
1.0
  9
$DIMASZ
 40
0.18
  9
$DIMEXO
 40
0.0625
  9
$DIMDLI
 40
0.38
  9
$DIMRND
 40
0.0
  9
$DIMDLE
 40
0.0
  9
$DIMEXE
 40
0.18
  9
$DIMTP
 40
0.001
  9
$DIMTM
 40
0.001
  9
$DIMTXT
 40
0.18
  9
$DIMCEN
 40
0.09
  9
$DIMTSZ
 40
0.0
  9
$DIMTOL
 70
     0
  9
$DIMLIM
 70
     0
  9
$DIMTIH
 70
     1
  9
$DIMTOH
 70
     1
  9
$DIMSE1
 70
     0
  9
$DIMSE2
 70
     0
  9
$DIMTAD
 70
     0
  9
$DIMZIN
 70
     0
  9
$DIMBLK
  1

  9
$DIMASO
 70
     1
  9
$DIMSHO
 70
     1
  9
$DIMPOST
  1

  9
$DIMAPOST
  1
mm
  9
$DIMALT
 70
     0
  9
$DIMALTD
 70
     2
  9
$DIMALTF
 40
25.4
  9
$DIMLFAC
 40
1.0
  9
$DIMTOFL
 70
     0
  9
$DIMTVP
 40
0.0
  9
$DIMTIX
 70
     0
  9
$DIMSOXD
 70
     0
  9
$DIMSAH
 70
     0
  9
$DIMBLK1
  1

  9
$DIMBLK2
  1

  9
$DIMSTYLE
  2
SU1
  9
$DIMCLRD
 70
     0
  9
$DIMCLRE
 70
     0
  9
$DIMCLRT
 70
     0
  9
$DIMTFAC
 40
1.0
  9
$DIMGAP
 40
0.09
  9
$DIMJUST
 70
     0
  9
$DIMSD1
 70
     0
  9
$DIMSD2
 70
     0
  9
$DIMTOLJ
 70
     1
  9
$DIMTZIN
 70
     0
  9
$DIMALTZ
 70
     0
  9
$DIMALTTZ
 70
     0
  9
$DIMUPT
 70
     1
  9
$DIMDEC
 70
     3
  9
$DIMTDEC
 70
     3
  9
$DIMALTU
 70
     2
  9
$DIMALTTD
 70
     2
  9
$DIMTXSTY
  7
Standard
  9
$DIMAUNIT
 70
     0
  9
$DIMADEC
 70
     0
  9
$DIMALTRND
 40
0.0
  9
$DIMAZIN
 70
     0
  9
$DIMDSEP
 70
    46
  9
$DIMATFIT
 70
     0
  9
$DIMFRAC
 70
     0
  9
$DIMLDRBLK
  1

  9
$DIMLUNIT
 70
     2
  9
$DIMLWD
 70
    -2
  9
$DIMLWE
 70
    -2
  9
$DIMTMOVE
 70
     0
  9
$LUNITS
 70
     2
  9
$LUPREC
 70
     4
  9
$SKETCHINC
 40
0.1
  9
$FILLETRAD
 40
0.03937
  9
$AUNITS
 70
     0
  9
$AUPREC
 70
     0
  9
$MENU
  1
.
  9
$ELEVATION
 40
0.0
  9
$PELEVATION
 40
0.0
  9
$THICKNESS
 40
0.0
  9
$LIMCHECK
 70
     0
  9
$CHAMFERA
 40
0.5
  9
$CHAMFERB
 40
0.5
  9
$CHAMFERC
 40
1.0
  9
$CHAMFERD
 40
0.0
  9
$SKPOLY
 70
     0
  9
$TDCREATE
 40
2452678.346259213
  9
$TDUCREATE
 40
2452678.679592546
  9
$TDUPDATE
 40
2453020.371918217
  9
$TDUUPDATE
 40
2453020.705251550
  9
$TDINDWG
 40
1.3525224074
  9
$TDUSRTIMER
 40
1.3525224074
  9
$USRTIMER
 70
     1
  9
$ANGBASE
 50
0.0
  9
$ANGDIR
 70
     0
  9
$PDMODE
 70
     0
  9
$PDSIZE
 40
0.0
  9
$PLINEWID
 40
0.0
  9
$SPLFRAME
 70
     0
  9
$SPLINETYPE
 70
     6
  9
$SPLINESEGS
 70
     8
  9
$HANDSEED
  5
F0C
  9
$SURFTAB1
 70
     6
  9
$SURFTAB2
 70
     6
  9
$SURFTYPE
 70
     6
  9
$SURFU
 70
     6
  9
$SURFV
 70
     6
  9
$UCSBASE
  2

  9
$UCSNAME
  2

  9
$UCSORG
 10
0.0
 20
0.0
 30
0.0
  9
$UCSXDIR
 10
1.0
 20
0.0
 30
0.0
  9
$UCSYDIR
 10
0.0
 20
1.0
 30
0.0
  9
$UCSORTHOREF
  2

  9
$UCSORTHOVIEW
 70
     0
  9
$UCSORGTOP
 10
0.0
 20
0.0
 30
0.0
  9
$UCSORGBOTTOM
 10
0.0
 20
0.0
 30
0.0
  9
$UCSORGLEFT
 10
0.0
 20
0.0
 30
0.0
  9
$UCSORGRIGHT
 10
0.0
 20
0.0
 30
0.0
  9
$UCSORGFRONT
 10
0.0
 20
0.0
 30
0.0
  9
$UCSORGBACK
 10
0.0
 20
0.0
 30
0.0
  9
$PUCSBASE
  2

  9
$PUCSNAME
  2

  9
$PUCSORG
 10
0.0
 20
0.0
 30
0.0
  9
$PUCSXDIR
 10
1.0
 20
0.0
 30
0.0
  9
$PUCSYDIR
 10
0.0
 20
1.0
 30
0.0
  9
$PUCSORTHOREF
  2

  9
$PUCSORTHOVIEW
 70
     0
  9
$PUCSORGTOP
 10
0.0
 20
0.0
 30
0.0
  9
$PUCSORGBOTTOM
 10
0.0
 20
0.0
 30
0.0
  9
$PUCSORGLEFT
 10
0.0
 20
0.0
 30
0.0
  9
$PUCSORGRIGHT
 10
0.0
 20
0.0
 30
0.0
  9
$PUCSORGFRONT
 10
0.0
 20
0.0
 30
0.0
  9
$PUCSORGBACK
 10
0.0
 20
0.0
 30
0.0
  9
$USERI1
 70
     0
  9
$USERI2
 70
     0
  9
$USERI3
 70
     0
  9
$USERI4
 70
     0
  9
$USERI5
 70
     0
  9
$USERR1
 40
0.0
  9
$USERR2
 40
0.0
  9
$USERR3
 40
0.0
  9
$USERR4
 40
0.0
  9
$USERR5
 40
0.0
  9
$WORLDVIEW
 70
     1
  9
$SHADEDGE
 70
     3
  9
$SHADEDIF
 70
    70
  9
$TILEMODE
 70
     1
  9
$MAXACTVP
 70
    64
  9
$PINSBASE
 10
0.0
 20
0.0
 30
0.0
  9
$PLIMCHECK
 70
     0
  9
$PEXTMIN
 10
1.000000000000000E+20
 20
1.000000000000000E+20
 30
1.000000000000000E+20
  9
$PEXTMAX
 10
-1.000000000000000E+20
 20
-1.000000000000000E+20
 30
-1.000000000000000E+20
  9
$PLIMMIN
 10
0.0
 20
0.0
  9
$PLIMMAX
 10
12.0
 20
9.0
  9
$UNITMODE
 70
     0
  9
$VISRETAIN
 70
     1
  9
$PLINEGEN
 70
     0
  9
$PSLTSCALE
 70
     1
  9
$TREEDEPTH
 70
  3020
  9
$CMLSTYLE
  2
Standard
  9
$CMLJUST
 70
     0
  9
$CMLSCALE
 40
1.0
  9
$PROXYGRAPHICS
 70
     1
  9
$MEASUREMENT
 70
     0
  9
$CELWEIGHT
370
    -1
  9
$ENDCAPS
280
     0
  9
$JOINSTYLE
280
     0
  9
$LWDISPLAY
290
     0
  9
$INSUNITS
 70
     1
  9
$HYPERLINKBASE
  1

  9
$STYLESHEET
  1

  9
$XEDIT
290
     1
  9
$CEPSNTYPE
380
     0
  9
$PSTYLEMODE
290
     1
  9
$FINGERPRINTGUID
  2
{84F348B1-6C28-472A-8775-23F9BDEC3A00}
  9
$VERSIONGUID
  2
{E87C3682-7FB5-4BF3-89F0-5F56DB3E36B2}
  9
$EXTNAMES
290
     1
  9
$PSVPSCALE
 40
0.0
  9
$OLESTARTUP
290
     0
  0
ENDSEC
  0
SECTION
  2
CLASSES
  0
CLASS
  1
ACDBDICTIONARYWDFLT
  2
AcDbDictionaryWithDefault
  3
AutoCAD 2000
 90
        0
280
     0
281
     0
  0
CLASS
  1
ACDBPLACEHOLDER
  2
AcDbPlaceHolder
  3
AutoCAD 2000
 90
        0
280
     0
281
     0
  0
CLASS
  1
LAYOUT
  2
AcDbLayout
  3
AutoCAD 2000
 90
        0
280
     0
281
     0
  0
CLASS
  1
PLOTSETTINGS
  2
AcDbPlotSettings
  3
AutoCAD 2000
 90
        0
280
     0
281
     0
  0
ENDSEC
  0
SECTION
  2
TABLES
  0
TABLE
  2
VPORT
  5
8
330
0
100
AcDbSymbolTable
 70
     4
  0
VPORT
  5
F0B
330
8
100
AcDbSymbolTableRecord
100
AcDbViewportTableRecord
  2
*Active
 70
     0
 10
0.0
 20
0.0
 11
1.0
 21
1.0
 12
10.50102712842502
 22
7.375000036525308
 13
0.0
 23
0.0
 14
0.5
 24
0.5
 15
0.5
 25
0.5
 16
0.0
 26
0.0
 36
1.0
 17
0.0
 27
0.0
 37
0.0
 40
14.59344809564251
 41
1.629473684210526
 42
50.0
 43
0.0
 44
0.0
 50
0.0
 51
0.0
 71
     0
 72
   100
 73
     1
 74
     3
 75
     0
 76
     0
 77
     0
 78
     0
281
     0
 65
     1
110
0.0
120
0.0
130
0.0
111
1.0
121
0.0
131
0.0
112
0.0
122
1.0
132
0.0
 79
     0
146
0.0
  0
ENDTAB
  0
TABLE
  2
LTYPE
  5
5
330
0
100
AcDbSymbolTable
 70
     3
  0
LTYPE
  5
14
330
5
100
AcDbSymbolTableRecord
100
AcDbLinetypeTableRecord
  2
ByBlock
 70
     0
  3

 72
    65
 73
     0
 40
0.0
  0
LTYPE
  5
15
330
5
100
AcDbSymbolTableRecord
100
AcDbLinetypeTableRecord
  2
ByLayer
 70
     0
  3

 72
    65
 73
     0
 40
0.0
  0
LTYPE
  5
16
330
5
100
AcDbSymbolTableRecord
100
AcDbLinetypeTableRecord
  2
Continuous
 70
     0
  3
Solid line
 72
    65
 73
     0
 40
0.0
  0
LTYPE
  5
3B
330
5
100
AcDbSymbolTableRecord
100
AcDbLinetypeTableRecord
  2
CENTER2
 70
     0
  3
Center (.5x) ___ _ ___ _ ___ _ ___ _ ___ _ ___
 72
    65
 73
     4
 40
1.125
 49
0.75
 74
     0
 49
-0.125
 74
     0
 49
0.125
 74
     0
 49
-0.125
 74
     0
  0
LTYPE
  5
153
330
5
100
AcDbSymbolTableRecord
100
AcDbLinetypeTableRecord
  2
CENTER
 70
     0
  3
____ _ ____ _ ____ _ ____ _ ____ _ ____ _ ____ 
 72
    65
 73
     4
 40
2.0
 49
1.25
 74
     0
 49
-0.25
 74
     0
 49
0.25
 74
     0
 49
-0.25
 74
     0
  0
ENDTAB
  0
TABLE
  2
LAYER
  5
2
330
0
100
AcDbSymbolTable
 70
    18
  0
LAYER
  5
10
330
2
100
AcDbSymbolTableRecord
100
AcDbLayerTableRecord
  2
0
 70
     0
 62
     7
  6
Continuous
370
    -3
390
F
  0
LAYER
  5
3C
330
2
100
AcDbSymbolTableRecord
100
AcDbLayerTableRecord
  2
hybrid
 70
     0
 62
     1
  6
Continuous
370
    -3
390
F
  0
LAYER
  5
3D
330
2
100
AcDbSymbolTableRecord
100
AcDbLayerTableRecord
  2
clamp
 70
     0
 62
     5
  6
Continuous
370
    -3
390
F
  0
LAYER
  5
3E
330
2
100
AcDbSymbolTableRecord
100
AcDbLayerTableRecord
  2
dim
 70
     0
 62
     3
  6
Continuous
370
    -3
390
F
  0
LAYER
  5
3F
330
2
100
AcDbSymbolTableRecord
100
AcDbLayerTableRecord
  2
center
 70
     0
 62
     1
  6
CENTER2
370
    -3
390
F
  0
LAYER
  5
61
330
2
100
AcDbSymbolTableRecord
100
AcDbLayerTableRecord
  2
flex
 70
     0
 62
     6
  6
Continuous
370
    -3
390
F
  0
LAYER
  5
93
330
2
100
AcDbSymbolTableRecord
100
AcDbLayerTableRecord
  2
strainrelief
 70
     0
 62
     4
  6
Continuous
370
    -3
390
F
  0
LAYER
  5
154
330
2
100
AcDbSymbolTableRecord
100
AcDbLayerTableRecord
  2
TEXT
 70
     0
 62
     7
  6
Continuous
370
    -3
390
F
  0
LAYER
  5
155
330
2
100
AcDbSymbolTableRecord
100
AcDbLayerTableRecord
  2
BORDER
 70
     0
 62
     8
  6
Continuous
370
    -3
390
F
  0
LAYER
  5
156
330
2
100
AcDbSymbolTableRecord
100
AcDbLayerTableRecord
  2
Title Block
 70
     0
 62
     7
  6
Continuous
370
    -3
390
F
  0
LAYER
  5
1BB
330
2
100
AcDbSymbolTableRecord
100
AcDbLayerTableRecord
  2
Defpoints
 70
     0
 62
     7
  6
Continuous
290
     0
370
    -3
390
F
  0
LAYER
  5
38C
330
2
100
AcDbSymbolTableRecord
100
AcDbLayerTableRecord
  2
clampdim
 70
     0
 62
     3
  6
Continuous
370
    -3
390
F
  0
LAYER
  5
497
330
2
100
AcDbSymbolTableRecord
100
AcDbLayerTableRecord
  2
mod-01
 70
     0
 62
     7
  6
Continuous
370
    -3
390
F
  0
LAYER
  5
4BD
330
2
100
AcDbSymbolTableRecord
100
AcDbLayerTableRecord
  2
clamp-1
 70
     0
 62
     5
  6
Continuous
370
    -3
390
F
  0
LAYER
  5
8FD
330
2
100
AcDbSymbolTableRecord
100
AcDbLayerTableRecord
  2
stereohybrid
 70
     1
 62
     2
  6
Continuous
370
    -3
390
F
  0
LAYER
  5
921
330
2
100
AcDbSymbolTableRecord
100
AcDbLayerTableRecord
  2
stereopa
 70
     1
 62
     1
  6
Continuous
370
    -3
390
F
  0
LAYER
  5
966
330
2
100
AcDbSymbolTableRecord
100
AcDbLayerTableRecord
  2
stereodim
 70
     0
 62
     3
  6
Continuous
370
    -3
390
F
  0
LAYER
  5
B57
330
2
100
AcDbSymbolTableRecord
100
AcDbLayerTableRecord
  2
stereotext
 70
     0
 62
     7
  6
Continuous
370
    -3
390
F
  0
ENDTAB
  0
TABLE
  2
STYLE
  5
3
330
0
100
AcDbSymbolTable
 70
     4
  0
STYLE
  5
11
330
3
100
AcDbSymbolTableRecord
100
AcDbTextStyleTableRecord
  2
Standard
 70
     0
 40
0.0
 41
1.0
 50
0.0
 71
     0
 42
0.2
  3
txt
  4

  0
STYLE
  5
3A
330
3
100
AcDbSymbolTableRecord
100
AcDbTextStyleTableRecord
  2

 70
     1
 40
0.0
 41
1.0
 50
0.0
 71
     0
 42
0.2
  3
ltypeshp.shx
  4

  0
STYLE
  5
157
330
3
100
AcDbSymbolTableRecord
100
AcDbTextStyleTableRecord
  2
ADESK2
 70
     0
 40
0.0
 41
1.0
 50
0.0
 71
     0
 42
0.065
  3
romans
  4

  0
STYLE
  5
158
330
3
100
AcDbSymbolTableRecord
100
AcDbTextStyleTableRecord
  2
Roman
 70
     0
 40
0.0
 41
1.0
 50
0.0
 71
     0
 42
0.25
  3
romans
  4

  0
ENDTAB
  0
TABLE
  2
VIEW
  5
6
330
0
100
AcDbSymbolTable
 70
     0
  0
ENDTAB
  0
TABLE
  2
UCS
  5
7
330
0
100
AcDbSymbolTable
 70
     0
  0
ENDTAB
  0
TABLE
  2
APPID
  5
9
330
0
100
AcDbSymbolTable
 70
     1
  0
APPID
  5
12
330
9
100
AcDbSymbolTableRecord
100
AcDbRegAppTableRecord
  2
ACAD
 70
     0
  0
ENDTAB
  0
TABLE
  2
DIMSTYLE
  5
A
330
0
100
AcDbSymbolTable
 70
     2
100
AcDbDimStyleTable
 71
     2
340
159
340
27
  0
DIMSTYLE
105
27
330
A
100
AcDbSymbolTableRecord
100
AcDbDimStyleTableRecord
  2
Standard
 70
     0
340
11
  0
DIMSTYLE
105
159
102
{ACAD_REACTORS
330
985
330
993
330
9A1
330
9AF
330
9BD
330
9CB
330
9D9
330
9E7
330
9F5
330
A03
330
A11
330
A29
330
A37
330
A45
330
A70
330
A7F
330
A8D
330
A9B
330
AA9
330
AB7
330
AC5
330
AD3
330
AE1
330
AEF
330
AFD
330
B0B
330
B1B
330
B27
330
B33
330
B3F
330
8AC
330
89E
330
873
330
77D
330
763
330
6F1
330
6E3
330
6D5
330
6C7
330
6B9
330
6AB
330
69D
330
68F
330
602
330
592
330
584
330
40E
330
3FF
330
3F0
330
76F
330
865
330
857
330
849
330
83B
330
7F0
330
7E2
330
61E
330
7B8
330
656
330
610
330
7AA
330
78E
330
41C
330
3B8
330
3AA
330
3E2
330
3D4
330
3C6
330
39B
330
701
330
88F
102
}
330
A
100
AcDbSymbolTableRecord
100
AcDbDimStyleTableRecord
  2
SU1
 70
     0
  4
mm
 47
0.001
 48
0.001
271
     3
272
     3
288
     1
289
     0
340
11
  0
ENDTAB
  0
TABLE
  2
BLOCK_RECORD
  5
1
330
0
100
AcDbSymbolTable
 70
    81
  0
BLOCK_RECORD
  5
1F
330
1
100
AcDbSymbolTableRecord
100
AcDbBlockTableRecord
  2
*Model_Space
340
22
  0
BLOCK_RECORD
  5
1B
330
1
100
AcDbSymbolTableRecord
100
AcDbBlockTableRecord
  2
*Paper_Space
340
1E
  0
BLOCK_RECORD
  5
23
330
1
100
AcDbSymbolTableRecord
100
AcDbBlockTableRecord
  2
*Paper_Space0
340
26
  0
BLOCK_RECORD
  5
9E
330
1
100
AcDbSymbolTableRecord
100
AcDbBlockTableRecord
  2
strainrelief
340
0
310
2800000020000000200000000100080000000000000400000000000000000000000000000000000000000000000080000080000000808000800000008000800080800000C0C0C000C0DCC000F0CAA6000020400000206000002080000020A0000020C0000020E00000400000004020000040400000406000004080000040A0
310
000040C0000040E00000600000006020000060400000606000006080000060A0000060C0000060E00000800000008020000080400000806000008080000080A0000080C0000080E00000A0000000A0200000A0400000A0600000A0800000A0A00000A0C00000A0E00000C0000000C0200000C0400000C0600000C0800000C0
310
A00000C0C00000C0E00000E0000000E0200000E0400000E0600000E0800000E0A00000E0C00000E0E00040000000400020004000400040006000400080004000A0004000C0004000E00040200000402020004020400040206000402080004020A0004020C0004020E000404000004040200040404000404060004040800040
310
40A0004040C0004040E00040600000406020004060400040606000406080004060A0004060C0004060E00040800000408020004080400040806000408080004080A0004080C0004080E00040A0000040A0200040A0400040A0600040A0800040A0A00040A0C00040A0E00040C0000040C0200040C0400040C0600040C08000
310
40C0A00040C0C00040C0E00040E0000040E0200040E0400040E0600040E0800040E0A00040E0C00040E0E00080000000800020008000400080006000800080008000A0008000C0008000E00080200000802020008020400080206000802080008020A0008020C0008020E00080400000804020008040400080406000804080
310
008040A0008040C0008040E00080600000806020008060400080606000806080008060A0008060C0008060E00080800000808020008080400080806000808080008080A0008080C0008080E00080A0000080A0200080A0400080A0600080A0800080A0A00080A0C00080A0E00080C0000080C0200080C0400080C0600080C0
310
800080C0A00080C0C00080C0E00080E0000080E0200080E0400080E0600080E0800080E0A00080E0C00080E0E000C0000000C0002000C0004000C0006000C0008000C000A000C000C000C000E000C0200000C0202000C0204000C0206000C0208000C020A000C020C000C020E000C0400000C0402000C0404000C0406000C0
310
408000C040A000C040C000C040E000C0600000C0602000C0604000C0606000C0608000C060A000C060C000C060E000C0800000C0802000C0804000C0806000C0808000C080A000C080C000C080E000C0A00000C0A02000C0A04000C0A06000C0A08000C0A0A000C0A0C000C0A0E000C0C00000C0C02000C0C04000C0C06000
310
C0C08000C0C0A000F0FBFF00A4A0A000808080000000FF0000FF000000FFFF00FF000000FF00FF00FFFF0000FFFFFF0000000000000000000000000000000000000000000000000000000000000000000000000000000000000000000000000000000000000000000000000000000000000000000000000000000000000000
310
00000000000000000000000000000000000000000000000000000000000000000000000000000000000000000000000000000000000000000000000000000000000000000000000000000000000000000000000000000000000000000000000000000000000000000000000000000000000000000000000000000000000000
310
00000000000000000000000000000000000000000000000000000000000000000000000000000000000000000000000000000000000000000000000000000000000000000000000000000000000000000000000000000000000000000000000000000000000000000000000000000000000000000000000000000000000000
310
000000000000000000000000000000000000000000000000000000000000000000000000000000000000000000000000000000000000000000000000000000000000000000000000000000000000000000000000FEFEFEFEFEFEFEFEFEFEFEFEFEFEFEFEFEFEFEFEFEFEFEFEFEFEFEFEFEFE0000FE00FEFEFE000000000000
310
0000000000000000000000000000FEFE0000FE0000FE00FEFEFEFE000000000000000000000000000000000000FE00FEFE00FE0000FEFEFEFEFEFE000000000000000000000000000000000000FEFEFEFEFEFE0000FE00FEFEFE0000000000000000000000000000000000000000FEFE0000FE0000FEFEFEFEFEFEFEFEFEFE
310
FEFEFEFEFEFEFEFEFEFEFEFEFEFEFEFEFEFEFEFE0000000000000000000000000000000000000000000000000000000000000000000000000000000000000000000000000000000000000000000000000000000000000000000000000000000000000000000000000000000000000000000000000000000000000000000000
310
00000000000000000000000000000000000000000000000000000000000000000000000000000000000000000000000000000000000000000000000000000000000000000000000000000000000000000000000000000000000000000000000000000000000000000000000000000000000000000000000000000000000000
310
00000000000000000000000000000000000000000000000000000000000000000000000000000000000000000000000000000000000000000000000000000000000000000000000000000000000000000000000000000000000000000000000000000000000000000000000000000000000000000000000000000000000000
310
0000000000000000000000000000000000000000000000000000000000000000000000000000000000000000000000000000000000000000
102
{BLKREFS
331
BC
331
BD
102
}
1001
ACAD
1000
DesignCenter Data
1002
{
1070
     1
1070
     1
1002
}
  0
BLOCK_RECORD
  5
F2
330
1
100
AcDbSymbolTableRecord
100
AcDbBlockTableRecord
  2
clamp
340
0
310
2800000020000000200000000100080000000000000400000000000000000000000000000000000000000000000080000080000000808000800000008000800080800000C0C0C000C0DCC000F0CAA6000020400000206000002080000020A0000020C0000020E00000400000004020000040400000406000004080000040A0
310
000040C0000040E00000600000006020000060400000606000006080000060A0000060C0000060E00000800000008020000080400000806000008080000080A0000080C0000080E00000A0000000A0200000A0400000A0600000A0800000A0A00000A0C00000A0E00000C0000000C0200000C0400000C0600000C0800000C0
310
A00000C0C00000C0E00000E0000000E0200000E0400000E0600000E0800000E0A00000E0C00000E0E00040000000400020004000400040006000400080004000A0004000C0004000E00040200000402020004020400040206000402080004020A0004020C0004020E000404000004040200040404000404060004040800040
310
40A0004040C0004040E00040600000406020004060400040606000406080004060A0004060C0004060E00040800000408020004080400040806000408080004080A0004080C0004080E00040A0000040A0200040A0400040A0600040A0800040A0A00040A0C00040A0E00040C0000040C0200040C0400040C0600040C08000
310
40C0A00040C0C00040C0E00040E0000040E0200040E0400040E0600040E0800040E0A00040E0C00040E0E00080000000800020008000400080006000800080008000A0008000C0008000E00080200000802020008020400080206000802080008020A0008020C0008020E00080400000804020008040400080406000804080
310
008040A0008040C0008040E00080600000806020008060400080606000806080008060A0008060C0008060E00080800000808020008080400080806000808080008080A0008080C0008080E00080A0000080A0200080A0400080A0600080A0800080A0A00080A0C00080A0E00080C0000080C0200080C0400080C0600080C0
310
800080C0A00080C0C00080C0E00080E0000080E0200080E0400080E0600080E0800080E0A00080E0C00080E0E000C0000000C0002000C0004000C0006000C0008000C000A000C000C000C000E000C0200000C0202000C0204000C0206000C0208000C020A000C020C000C020E000C0400000C0402000C0404000C0406000C0
310
408000C040A000C040C000C040E000C0600000C0602000C0604000C0606000C0608000C060A000C060C000C060E000C0800000C0802000C0804000C0806000C0808000C080A000C080C000C080E000C0A00000C0A02000C0A04000C0A06000C0A08000C0A0A000C0A0C000C0A0E000C0C00000C0C02000C0C04000C0C06000
310
C0C08000C0C0A000F0FBFF00A4A0A000808080000000FF0000FF000000FFFF00FF000000FF00FF00FFFF0000FFFFFF000000000000000000000000000000000000000000000000000000000000000000000000000000FCFCFCFCFCFCFCFCFCFCFCFCFCFCFCFCFCFCFCFC000000000000000000000000FC0000000000000000
310
00000000000000000000FC000000000000000000000000FC000000000000000000000000000000000000FC000000000000000000000000FC0000000000000000FCFCFCFCFCFC00000000FC000000000000000000000000FC00000000000000FCFC00000000FCFC000000FC000000000000000000000000FC00000000000000
310
FC000000000000FC000000FC000000000000000000000000FC00000000000000FC000000000000FC000000FC000000000000000000000000FC0000000000000000FCFCFCFCFCFC00000000FC000000000000000000000000FC000000000000000000000000000000000000FC000000000000000000000000FC000000000000
310
000000000000000000000000FC000000000000000000000000FC000000000000000000000000000000000000FC000000000000000000000000FC000000000000000000000000000000000000FC000000000000000000000000FC000000000000000000000000000000000000FC000000000000000000000000FC0000000000
310
00000000000000000000000000FC000000000000000000000000FC000000000000000000000000000000000000FC000000000000000000000000FC000000000000000000000000000000000000FC000000000000000000000000FC000000000000000000000000000000000000FC000000000000000000000000FC00000000
310
0000000000000000000000000000FC000000000000000000000000FC000000000000000000000000000000000000FC000000000000000000000000FC000000000000000000000000000000000000FC000000000000000000000000FC000000000000000000000000000000000000FC000000000000000000000000FC000000
310
000000000000000000000000000000FC000000000000000000000000FC0000000000000000FCFCFCFCFCFC00000000FC000000000000000000000000FC00000000000000FC000000000000FC000000FC000000000000000000000000FC00000000000000FC000000000000FC000000FC000000000000000000000000FC0000
310
0000000000FCFC00000000FCFC000000FC000000000000000000000000FC0000000000000000FCFCFCFCFCFC00000000FC000000000000000000000000FC000000000000000000000000000000000000FC000000000000000000000000FC000000000000000000000000000000000000FC000000000000000000000000FCFC
310
FCFCFCFCFCFCFCFCFCFCFCFCFCFCFCFCFCFC0000000000000000000000000000000000000000000000000000000000000000000000000000
102
{BLKREFS
331
101
331
104
331
105
102
}
1001
ACAD
1000
DesignCenter Data
1002
{
1070
     1
1070
     1
1002
}
  0
BLOCK_RECORD
  5
106
330
1
100
AcDbSymbolTableRecord
100
AcDbBlockTableRecord
  2
ANSI C title block.dwg
340
0
1001
ACAD
1000
DesignCenter Data
1002
{
1070
     1
1070
     1
1002
}
  0
BLOCK_RECORD
  5
15B
330
1
100
AcDbSymbolTableRecord
100
AcDbBlockTableRecord
  2
c-border
340
0
  0
BLOCK_RECORD
  5
39C
330
1
100
AcDbSymbolTableRecord
100
AcDbBlockTableRecord
  2
*D5
340
0
  0
BLOCK_RECORD
  5
3AB
330
1
100
AcDbSymbolTableRecord
100
AcDbBlockTableRecord
  2
*D6
340
0
  0
BLOCK_RECORD
  5
3B9
330
1
100
AcDbSymbolTableRecord
100
AcDbBlockTableRecord
  2
*D7
340
0
  0
BLOCK_RECORD
  5
3C7
330
1
100
AcDbSymbolTableRecord
100
AcDbBlockTableRecord
  2
*D8
340
0
  0
BLOCK_RECORD
  5
3D5
330
1
100
AcDbSymbolTableRecord
100
AcDbBlockTableRecord
  2
*D9
340
0
  0
BLOCK_RECORD
  5
3E3
330
1
100
AcDbSymbolTableRecord
100
AcDbBlockTableRecord
  2
*D10
340
0
  0
BLOCK_RECORD
  5
3F1
330
1
100
AcDbSymbolTableRecord
100
AcDbBlockTableRecord
  2
*D11
340
0
  0
BLOCK_RECORD
  5
400
330
1
100
AcDbSymbolTableRecord
100
AcDbBlockTableRecord
  2
*D12
340
0
  0
BLOCK_RECORD
  5
40F
330
1
100
AcDbSymbolTableRecord
100
AcDbBlockTableRecord
  2
*D13
340
0
  0
BLOCK_RECORD
  5
41D
330
1
100
AcDbSymbolTableRecord
100
AcDbBlockTableRecord
  2
*D14
340
0
  0
BLOCK_RECORD
  5
585
330
1
100
AcDbSymbolTableRecord
100
AcDbBlockTableRecord
  2
*D15
340
0
  0
BLOCK_RECORD
  5
593
330
1
100
AcDbSymbolTableRecord
100
AcDbBlockTableRecord
  2
*D16
340
0
  0
BLOCK_RECORD
  5
603
330
1
100
AcDbSymbolTableRecord
100
AcDbBlockTableRecord
  2
*D17
340
0
  0
BLOCK_RECORD
  5
611
330
1
100
AcDbSymbolTableRecord
100
AcDbBlockTableRecord
  2
*D18
340
0
  0
BLOCK_RECORD
  5
61F
330
1
100
AcDbSymbolTableRecord
100
AcDbBlockTableRecord
  2
*D19
340
0
  0
BLOCK_RECORD
  5
657
330
1
100
AcDbSymbolTableRecord
100
AcDbBlockTableRecord
  2
*D20
340
0
  0
BLOCK_RECORD
  5
690
330
1
100
AcDbSymbolTableRecord
100
AcDbBlockTableRecord
  2
*D21
340
0
  0
BLOCK_RECORD
  5
69E
330
1
100
AcDbSymbolTableRecord
100
AcDbBlockTableRecord
  2
*D22
340
0
  0
BLOCK_RECORD
  5
6AC
330
1
100
AcDbSymbolTableRecord
100
AcDbBlockTableRecord
  2
*D23
340
0
  0
BLOCK_RECORD
  5
6BA
330
1
100
AcDbSymbolTableRecord
100
AcDbBlockTableRecord
  2
*D24
340
0
  0
BLOCK_RECORD
  5
6C8
330
1
100
AcDbSymbolTableRecord
100
AcDbBlockTableRecord
  2
*D25
340
0
  0
BLOCK_RECORD
  5
6D6
330
1
100
AcDbSymbolTableRecord
100
AcDbBlockTableRecord
  2
*D26
340
0
  0
BLOCK_RECORD
  5
6E4
330
1
100
AcDbSymbolTableRecord
100
AcDbBlockTableRecord
  2
*D27
340
0
  0
BLOCK_RECORD
  5
6F2
330
1
100
AcDbSymbolTableRecord
100
AcDbBlockTableRecord
  2
*D28
340
0
  0
BLOCK_RECORD
  5
702
330
1
100
AcDbSymbolTableRecord
100
AcDbBlockTableRecord
  2
*D29
340
0
  0
BLOCK_RECORD
  5
764
330
1
100
AcDbSymbolTableRecord
100
AcDbBlockTableRecord
  2
*D30
340
0
  0
BLOCK_RECORD
  5
770
330
1
100
AcDbSymbolTableRecord
100
AcDbBlockTableRecord
  2
*D31
340
0
  0
BLOCK_RECORD
  5
77E
330
1
100
AcDbSymbolTableRecord
100
AcDbBlockTableRecord
  2
*D32
340
0
  0
BLOCK_RECORD
  5
78F
330
1
100
AcDbSymbolTableRecord
100
AcDbBlockTableRecord
  2
*D33
340
0
  0
BLOCK_RECORD
  5
7AB
330
1
100
AcDbSymbolTableRecord
100
AcDbBlockTableRecord
  2
*D34
340
0
  0
BLOCK_RECORD
  5
7B9
330
1
100
AcDbSymbolTableRecord
100
AcDbBlockTableRecord
  2
*D35
340
0
  0
BLOCK_RECORD
  5
7E3
330
1
100
AcDbSymbolTableRecord
100
AcDbBlockTableRecord
  2
*D36
340
0
  0
BLOCK_RECORD
  5
7F1
330
1
100
AcDbSymbolTableRecord
100
AcDbBlockTableRecord
  2
*D37
340
0
  0
BLOCK_RECORD
  5
83C
330
1
100
AcDbSymbolTableRecord
100
AcDbBlockTableRecord
  2
*D38
340
0
  0
BLOCK_RECORD
  5
84A
330
1
100
AcDbSymbolTableRecord
100
AcDbBlockTableRecord
  2
*D39
340
0
  0
BLOCK_RECORD
  5
858
330
1
100
AcDbSymbolTableRecord
100
AcDbBlockTableRecord
  2
*D40
340
0
  0
BLOCK_RECORD
  5
866
330
1
100
AcDbSymbolTableRecord
100
AcDbBlockTableRecord
  2
*D41
340
0
  0
BLOCK_RECORD
  5
874
330
1
100
AcDbSymbolTableRecord
100
AcDbBlockTableRecord
  2
*D42
340
0
  0
BLOCK_RECORD
  5
890
330
1
100
AcDbSymbolTableRecord
100
AcDbBlockTableRecord
  2
*D43
340
0
  0
BLOCK_RECORD
  5
89F
330
1
100
AcDbSymbolTableRecord
100
AcDbBlockTableRecord
  2
*D44
340
0
  0
BLOCK_RECORD
  5
8AD
330
1
100
AcDbSymbolTableRecord
100
AcDbBlockTableRecord
  2
*D45
340
0
  0
BLOCK_RECORD
  5
90F
330
1
100
AcDbSymbolTableRecord
100
AcDbBlockTableRecord
  2
stereohybrid
340
0
310
2800000020000000200000000100080000000000000400000000000000000000000000000000000000000000000080000080000000808000800000008000800080800000C0C0C000C0DCC000F0CAA6000020400000206000002080000020A0000020C0000020E00000400000004020000040400000406000004080000040A0
310
000040C0000040E00000600000006020000060400000606000006080000060A0000060C0000060E00000800000008020000080400000806000008080000080A0000080C0000080E00000A0000000A0200000A0400000A0600000A0800000A0A00000A0C00000A0E00000C0000000C0200000C0400000C0600000C0800000C0
310
A00000C0C00000C0E00000E0000000E0200000E0400000E0600000E0800000E0A00000E0C00000E0E00040000000400020004000400040006000400080004000A0004000C0004000E00040200000402020004020400040206000402080004020A0004020C0004020E000404000004040200040404000404060004040800040
310
40A0004040C0004040E00040600000406020004060400040606000406080004060A0004060C0004060E00040800000408020004080400040806000408080004080A0004080C0004080E00040A0000040A0200040A0400040A0600040A0800040A0A00040A0C00040A0E00040C0000040C0200040C0400040C0600040C08000
310
40C0A00040C0C00040C0E00040E0000040E0200040E0400040E0600040E0800040E0A00040E0C00040E0E00080000000800020008000400080006000800080008000A0008000C0008000E00080200000802020008020400080206000802080008020A0008020C0008020E00080400000804020008040400080406000804080
310
008040A0008040C0008040E00080600000806020008060400080606000806080008060A0008060C0008060E00080800000808020008080400080806000808080008080A0008080C0008080E00080A0000080A0200080A0400080A0600080A0800080A0A00080A0C00080A0E00080C0000080C0200080C0400080C0600080C0
310
800080C0A00080C0C00080C0E00080E0000080E0200080E0400080E0600080E0800080E0A00080E0C00080E0E000C0000000C0002000C0004000C0006000C0008000C000A000C000C000C000E000C0200000C0202000C0204000C0206000C0208000C020A000C020C000C020E000C0400000C0402000C0404000C0406000C0
310
408000C040A000C040C000C040E000C0600000C0602000C0604000C0606000C0608000C060A000C060C000C060E000C0800000C0802000C0804000C0806000C0808000C080A000C080C000C080E000C0A00000C0A02000C0A04000C0A06000C0A08000C0A0A000C0A0C000C0A0E000C0C00000C0C02000C0C04000C0C06000
310
C0C08000C0C0A000F0FBFF00A4A0A000808080000000FF0000FF000000FFFF00FF000000FF00FF00FFFF0000FFFFFF0000000000000000000000000000000000000000000000000000000000000000000000000000000000000000000000000000000000000000000000000000000000000000000000000000000000000000
310
00000000000000000000000000000000000000000000000000000000000000000000000000000000000000000000000000000000000000000000000000000000000000000000000000000000000000000000000000000000000000000000000000000000000000000000000000000000000000000000000000000000000000
310
00000000000000000000000000000000000000000000000000000000000000000000000000000000000000000000000000000000FBFBFBFBFBFBFBFBFBFBFBFBFBFBFBFBFBFBFBFBFBFBFBFBFB000000000000FB0000FBFB0000000000000000000000000000000000FBFB00FB000000000000FB0000FBFB00000000000000
310
00000000000000000000FBFB00FB000000000000FB000000000000000000000000000000000000000000000000FB000000000000FB000000000000000000000000000000000000000000000000FB000000000000FB000000000000000000000000000000000000000000000000FB000000000000FB00000000000000000000
310
0000000000000000000000000000FB000000000000FB000000000000000000000000000000000000000000000000FB000000000000FB000000000000000000000000000000000000000000000000FB000000000000FB000000000000000000000000000000000000000000000000FBFBFBFBFB0000FB000000000000000000
310
00000000000000000000000000000000000000FB0000FB00000000000000000000000000000000000000000000000000000000FB0000FBFBFBFBFBFB0000000000000000000000000000000000000000000000FB0000000000000000FBFBFBFBFBFBFBFBFB0000000000000000000000000000FB0000000000000000000000
310
000000000000FBFBFBFBFBFBFBFBFB0000000000FB0000000000000000000000000000000000000000000000000000FBFBFBFBFB000000000000000000000000000000000000000000000000000000000000000000000000000000000000000000000000000000000000000000000000000000000000000000000000000000
310
00000000000000000000000000000000000000000000000000000000000000000000000000000000000000000000000000000000000000000000000000000000000000000000000000000000000000000000000000000000000000000000000000000000000000000000000000000000000000000000000000000000000000
310
0000000000000000000000000000000000000000000000000000000000000000000000000000000000000000000000000000000000000000
102
{BLKREFS
331
920
102
}
1001
ACAD
1000
DesignCenter Data
1002
{
1070
     1
1070
     1
1002
}
  0
BLOCK_RECORD
  5
942
330
1
100
AcDbSymbolTableRecord
100
AcDbBlockTableRecord
  2
stereopa
340
0
310
2800000020000000200000000100080000000000000400000000000000000000000000000000000000000000000080000080000000808000800000008000800080800000C0C0C000C0DCC000F0CAA6000020400000206000002080000020A0000020C0000020E00000400000004020000040400000406000004080000040A0
310
000040C0000040E00000600000006020000060400000606000006080000060A0000060C0000060E00000800000008020000080400000806000008080000080A0000080C0000080E00000A0000000A0200000A0400000A0600000A0800000A0A00000A0C00000A0E00000C0000000C0200000C0400000C0600000C0800000C0
310
A00000C0C00000C0E00000E0000000E0200000E0400000E0600000E0800000E0A00000E0C00000E0E00040000000400020004000400040006000400080004000A0004000C0004000E00040200000402020004020400040206000402080004020A0004020C0004020E000404000004040200040404000404060004040800040
310
40A0004040C0004040E00040600000406020004060400040606000406080004060A0004060C0004060E00040800000408020004080400040806000408080004080A0004080C0004080E00040A0000040A0200040A0400040A0600040A0800040A0A00040A0C00040A0E00040C0000040C0200040C0400040C0600040C08000
310
40C0A00040C0C00040C0E00040E0000040E0200040E0400040E0600040E0800040E0A00040E0C00040E0E00080000000800020008000400080006000800080008000A0008000C0008000E00080200000802020008020400080206000802080008020A0008020C0008020E00080400000804020008040400080406000804080
310
008040A0008040C0008040E00080600000806020008060400080606000806080008060A0008060C0008060E00080800000808020008080400080806000808080008080A0008080C0008080E00080A0000080A0200080A0400080A0600080A0800080A0A00080A0C00080A0E00080C0000080C0200080C0400080C0600080C0
310
800080C0A00080C0C00080C0E00080E0000080E0200080E0400080E0600080E0800080E0A00080E0C00080E0E000C0000000C0002000C0004000C0006000C0008000C000A000C000C000C000E000C0200000C0202000C0204000C0206000C0208000C020A000C020C000C020E000C0400000C0402000C0404000C0406000C0
310
408000C040A000C040C000C040E000C0600000C0602000C0604000C0606000C0608000C060A000C060C000C060E000C0800000C0802000C0804000C0806000C0808000C080A000C080C000C080E000C0A00000C0A02000C0A04000C0A06000C0A08000C0A0A000C0A0C000C0A0E000C0C00000C0C02000C0C04000C0C06000
310
C0C08000C0C0A000F0FBFF00A4A0A000808080000000FF0000FF000000FFFF00FF000000FF00FF00FFFF0000FFFFFF0000000000000000000000000000000000000000000000000000000000000000000000000000000000000000000000000000000000000000000000000000000000000000000000000000000000000000
310
00000000000000000000000000000000000000000000000000000000000000000000000000000000000000000000000000000000000000000000000000000000000000000000000000000000000000000000000000000000000000000000000000000000000000000000000000000000000000000000000000000000000000
310
00000000000000000000000000000000000000000000000000000000000000000000000000000000000000000000000000000000000000000000000000000000000000000000000000000000000000000000000000000000000000000000000000000000000000000000000000000000000000000000000000000000000000
310
000000000000000000000000000000000000000000000000000000000000000000000000000000000000000000000000000000000000000000000000000000000000000000000000000000000000000000000000F9F9F9F9F9F9F9F9000000000000000000000000000000000000000000000000F900000000000000F9F9F9
310
F9F9F9F9F9F9F9F9F9F9F900000000000000000000F9000000000000000000000000000000000000000000F9F9F9F9F9F9F9F90000F900000000000000000000000000000000000000000000000000000000F90000F90000000000000000F900000000000000000000000000000000F90000F90000F9F9F9F9F9F9F9F9F9F9
310
F9F9F9F9F9F9F9F9F9F9F9F9F9F9F9F9F9F9F9F90000000000000000000000000000000000000000000000000000000000000000000000000000000000000000000000000000000000000000000000000000000000000000000000000000000000000000000000000000000000000000000000000000000000000000000000
310
00000000000000000000000000000000000000000000000000000000000000000000000000000000000000000000000000000000000000000000000000000000000000000000000000000000000000000000000000000000000000000000000000000000000000000000000000000000000000000000000000000000000000
310
00000000000000000000000000000000000000000000000000000000000000000000000000000000000000000000000000000000000000000000000000000000000000000000000000000000000000000000000000000000000000000000000000000000000000000000000000000000000000000000000000000000000000
310
0000000000000000000000000000000000000000000000000000000000000000000000000000000000000000000000000000000000000000
102
{BLKREFS
331
94D
102
}
1001
ACAD
1000
DesignCenter Data
1002
{
1070
     1
1070
     1
1002
}
  0
BLOCK_RECORD
  5
986
330
1
100
AcDbSymbolTableRecord
100
AcDbBlockTableRecord
  2
*D49
340
0
  0
BLOCK_RECORD
  5
994
330
1
100
AcDbSymbolTableRecord
100
AcDbBlockTableRecord
  2
*D50
340
0
  0
BLOCK_RECORD
  5
9A2
330
1
100
AcDbSymbolTableRecord
100
AcDbBlockTableRecord
  2
*D51
340
0
  0
BLOCK_RECORD
  5
9B0
330
1
100
AcDbSymbolTableRecord
100
AcDbBlockTableRecord
  2
*D52
340
0
  0
BLOCK_RECORD
  5
9BE
330
1
100
AcDbSymbolTableRecord
100
AcDbBlockTableRecord
  2
*D53
340
0
  0
BLOCK_RECORD
  5
9CC
330
1
100
AcDbSymbolTableRecord
100
AcDbBlockTableRecord
  2
*D54
340
0
  0
BLOCK_RECORD
  5
9DA
330
1
100
AcDbSymbolTableRecord
100
AcDbBlockTableRecord
  2
*D55
340
0
  0
BLOCK_RECORD
  5
9E8
330
1
100
AcDbSymbolTableRecord
100
AcDbBlockTableRecord
  2
*D56
340
0
  0
BLOCK_RECORD
  5
9F6
330
1
100
AcDbSymbolTableRecord
100
AcDbBlockTableRecord
  2
*D57
340
0
  0
BLOCK_RECORD
  5
A04
330
1
100
AcDbSymbolTableRecord
100
AcDbBlockTableRecord
  2
*D58
340
0
  0
BLOCK_RECORD
  5
A12
330
1
100
AcDbSymbolTableRecord
100
AcDbBlockTableRecord
  2
*D59
340
0
  0
BLOCK_RECORD
  5
A2A
330
1
100
AcDbSymbolTableRecord
100
AcDbBlockTableRecord
  2
*D60
340
0
  0
BLOCK_RECORD
  5
A38
330
1
100
AcDbSymbolTableRecord
100
AcDbBlockTableRecord
  2
*D61
340
0
  0
BLOCK_RECORD
  5
A46
330
1
100
AcDbSymbolTableRecord
100
AcDbBlockTableRecord
  2
*D62
340
0
  0
BLOCK_RECORD
  5
A71
330
1
100
AcDbSymbolTableRecord
100
AcDbBlockTableRecord
  2
*D65
340
0
  0
BLOCK_RECORD
  5
A80
330
1
100
AcDbSymbolTableRecord
100
AcDbBlockTableRecord
  2
*D66
340
0
  0
BLOCK_RECORD
  5
A8E
330
1
100
AcDbSymbolTableRecord
100
AcDbBlockTableRecord
  2
*D67
340
0
  0
BLOCK_RECORD
  5
A9C
330
1
100
AcDbSymbolTableRecord
100
AcDbBlockTableRecord
  2
*D68
340
0
  0
BLOCK_RECORD
  5
AAA
330
1
100
AcDbSymbolTableRecord
100
AcDbBlockTableRecord
  2
*D69
340
0
  0
BLOCK_RECORD
  5
AB8
330
1
100
AcDbSymbolTableRecord
100
AcDbBlockTableRecord
  2
*D70
340
0
  0
BLOCK_RECORD
  5
AC6
330
1
100
AcDbSymbolTableRecord
100
AcDbBlockTableRecord
  2
*D71
340
0
  0
BLOCK_RECORD
  5
AD4
330
1
100
AcDbSymbolTableRecord
100
AcDbBlockTableRecord
  2
*D72
340
0
  0
BLOCK_RECORD
  5
AE2
330
1
100
AcDbSymbolTableRecord
100
AcDbBlockTableRecord
  2
*D73
340
0
  0
BLOCK_RECORD
  5
AF0
330
1
100
AcDbSymbolTableRecord
100
AcDbBlockTableRecord
  2
*D74
340
0
  0
BLOCK_RECORD
  5
AFE
330
1
100
AcDbSymbolTableRecord
100
AcDbBlockTableRecord
  2
*D75
340
0
  0
BLOCK_RECORD
  5
B0C
330
1
100
AcDbSymbolTableRecord
100
AcDbBlockTableRecord
  2
*D76
340
0
  0
BLOCK_RECORD
  5
B1C
330
1
100
AcDbSymbolTableRecord
100
AcDbBlockTableRecord
  2
*D77
340
0
  0
BLOCK_RECORD
  5
B28
330
1
100
AcDbSymbolTableRecord
100
AcDbBlockTableRecord
  2
*D78
340
0
  0
BLOCK_RECORD
  5
B34
330
1
100
AcDbSymbolTableRecord
100
AcDbBlockTableRecord
  2
*D79
340
0
  0
BLOCK_RECORD
  5
B40
330
1
100
AcDbSymbolTableRecord
100
AcDbBlockTableRecord
  2
*D80
340
0
  0
ENDTAB
  0
ENDSEC
  0
SECTION
  2
BLOCKS
  0
BLOCK
  5
20
330
1F
100
AcDbEntity
  8
0
100
AcDbBlockBegin
  2
*Model_Space
 70
     0
 10
0.0
 20
0.0
 30
0.0
  3
*Model_Space
  1

  0
ENDBLK
  5
21
330
1F
100
AcDbEntity
  8
0
100
AcDbBlockEnd
  0
BLOCK
  5
1C
330
1B
100
AcDbEntity
 67
     1
  8
0
100
AcDbBlockBegin
  2
*Paper_Space
 70
     0
 10
0.0
 20
0.0
 30
0.0
  3
*Paper_Space
  1

  0
ENDBLK
  5
1D
330
1B
100
AcDbEntity
 67
     1
  8
0
100
AcDbBlockEnd
  0
BLOCK
  5
24
330
23
100
AcDbEntity
  8
0
100
AcDbBlockBegin
  2
*Paper_Space0
 70
     0
 10
0.0
 20
0.0
 30
0.0
  3
*Paper_Space0
  1

  0
ENDBLK
  5
25
330
23
100
AcDbEntity
  8
0
100
AcDbBlockEnd
  0
BLOCK
  5
9F
330
9E
100
AcDbEntity
  8
0
100
AcDbBlockBegin
  2
strainrelief
 70
     0
 10
0.0
 20
0.0
 30
0.0
  3
strainrelief
  1

  0
LINE
  5
B2
330
9E
100
AcDbEntity
  8
strainrelief
100
AcDbLine
 10
8.5
 20
5.0
 30
0.0
 11
9.75
 21
5.0
 31
0.0
  0
LINE
  5
B3
330
9E
100
AcDbEntity
  8
strainrelief
100
AcDbLine
 10
9.75
 20
5.25
 30
0.0
 11
8.5
 21
5.25
 31
0.0
  0
LINE
  5
B4
330
9E
100
AcDbEntity
  8
strainrelief
100
AcDbLine
 10
8.5
 20
5.25
 30
0.0
 11
8.5
 21
5.0
 31
0.0
  0
LINE
  5
B5
330
9E
100
AcDbEntity
  8
strainrelief
100
AcDbLine
 10
8.632899999999999
 20
5.035
 30
0.0
 11
8.632899999999999
 21
5.214999999999999
 31
0.0
  0
CIRCLE
  5
B6
330
9E
100
AcDbEntity
  8
strainrelief
100
AcDbCircle
 10
8.632899999999999
 20
5.125
 30
0.0
 40
0.0625
  0
LINE
  5
B7
330
9E
100
AcDbEntity
  8
strainrelief
100
AcDbLine
 10
8.542899999999999
 20
5.125
 30
0.0
 11
8.722899999999999
 21
5.125
 31
0.0
  0
LINE
  5
B8
330
9E
100
AcDbEntity
  8
strainrelief
100
AcDbLine
 10
9.6171
 20
5.035
 30
0.0
 11
9.6171
 21
5.214999999999999
 31
0.0
  0
CIRCLE
  5
B9
330
9E
100
AcDbEntity
  8
strainrelief
100
AcDbCircle
 10
9.6171
 20
5.125
 30
0.0
 40
0.0625
  0
LINE
  5
BA
330
9E
100
AcDbEntity
  8
strainrelief
100
AcDbLine
 10
9.5271
 20
5.125
 30
0.0
 11
9.7071
 21
5.125
 31
0.0
  0
LINE
  5
BB
330
9E
100
AcDbEntity
  8
strainrelief
100
AcDbLine
 10
9.75
 20
5.0
 30
0.0
 11
9.75
 21
5.25
 31
0.0
  0
ENDBLK
  5
A0
330
9E
100
AcDbEntity
  8
0
100
AcDbBlockEnd
  0
BLOCK
  5
F3
330
F2
100
AcDbEntity
  8
0
100
AcDbBlockBegin
  2
clamp
 70
     0
 10
0.0
 20
0.0
 30
0.0
  3
clamp
  1

  0
LINE
  5
F5
330
F2
100
AcDbEntity
  8
clamp
100
AcDbLine
 10
6.8745
 20
3.116
 30
0.0
 11
6.874500000000001
 21
4.053000000000001
 31
0.0
  0
LINE
  5
F6
330
F2
100
AcDbEntity
  8
clamp
100
AcDbLine
 10
6.250499999999999
 20
3.116
 30
0.0
 11
6.250499999999997
 21
4.053
 31
0.0
  0
LINE
  5
F7
330
F2
100
AcDbEntity
  8
clamp
100
AcDbLine
 10
6.250499999999999
 20
3.116
 30
0.0
 11
6.8745
 21
3.116
 31
0.0
  0
ARC
  5
F8
330
F2
100
AcDbEntity
  8
clamp
100
AcDbCircle
 10
6.6875
 20
3.272
 30
0.0
 40
0.0625
100
AcDbArc
 50
270.0
 51
90.0
  0
ARC
  5
F9
330
F2
100
AcDbEntity
  8
clamp
100
AcDbCircle
 10
6.5625
 20
3.272
 30
0.0
 40
0.0625
100
AcDbArc
 50
90.0
 51
270.0
  0
LINE
  5
FA
330
F2
100
AcDbEntity
  8
clamp
100
AcDbLine
 10
6.6875
 20
3.2095
 30
0.0
 11
6.5625
 21
3.2095
 31
0.0
  0
LINE
  5
FB
330
F2
100
AcDbEntity
  8
clamp
100
AcDbLine
 10
6.6875
 20
3.3345
 30
0.0
 11
6.5625
 21
3.3345
 31
0.0
  0
LINE
  5
FC
330
F2
100
AcDbEntity
  8
clamp
100
AcDbLine
 10
6.250499999999997
 20
4.053
 30
0.0
 11
6.8745
 21
4.053000000000001
 31
0.0
  0
ARC
  5
FD
330
F2
100
AcDbEntity
  8
clamp
100
AcDbCircle
 10
6.6875
 20
3.897
 30
0.0
 40
0.0625
100
AcDbArc
 50
270.0
 51
90.0
  0
LINE
  5
FE
330
F2
100
AcDbEntity
  8
clamp
100
AcDbLine
 10
6.6875
 20
3.9595
 30
0.0
 11
6.5625
 21
3.9595
 31
0.0
  0
LINE
  5
FF
330
F2
100
AcDbEntity
  8
clamp
100
AcDbLine
 10
6.5625
 20
3.8345
 30
0.0
 11
6.6875
 21
3.8345
 31
0.0
  0
ARC
  5
100
330
F2
100
AcDbEntity
  8
clamp
100
AcDbCircle
 10
6.5625
 20
3.897
 30
0.0
 40
0.0625
100
AcDbArc
 50
90.0
 51
270.0
  0
ENDBLK
  5
F4
330
F2
100
AcDbEntity
  8
0
100
AcDbBlockEnd
  0
BLOCK
  5
151
330
106
100
AcDbEntity
  8
0
100
AcDbBlockBegin
  2
ANSI C title block.dwg
 70
     2
 10
0.0
 20
0.0
 30
0.0
  3
ANSI C title block.dwg
  1

  0
LINE
  5
107
330
106
100
AcDbEntity
  8
Title Block
100
AcDbLine
 10
0.0
 20
0.0
 30
0.0
 11
21.0
 21
0.0
 31
0.0
  0
LINE
  5
108
330
106
100
AcDbEntity
  8
Title Block
100
AcDbLine
 10
21.0
 20
16.0
 30
0.0
 11
0.0
 21
16.0
 31
0.0
  0
LINE
  5
109
330
106
100
AcDbEntity
  8
Title Block
100
AcDbLine
 10
0.5
 20
0.75
 30
0.0
 11
20.5
 21
0.75
 31
0.0
  0
LINE
  5
10A
330
106
100
AcDbEntity
  8
Title Block
100
AcDbLine
 10
20.5
 20
15.25
 30
0.0
 11
0.5
 21
15.25
 31
0.0
  0
SOLID
  5
10B
330
106
100
AcDbEntity
  8
Title Block
100
AcDbTrace
 10
10.34999999999999
 20
0.6000000000000001
 30
0.0
 11
10.65
 21
0.6000000000000001
 31
0.0
 12
10.5
 22
0.75
 32
0.0
 13
10.5
 23
0.75
 33
0.0
  0
SOLID
  5
10C
330
106
100
AcDbEntity
  8
Title Block
100
AcDbTrace
 10
10.34999999999999
 20
15.4
 30
0.0
 11
10.65
 21
15.4
 31
0.0
 12
10.5
 22
15.25
 32
0.0
 13
10.5
 23
15.25
 33
0.0
  0
LINE
  5
10D
330
106
100
AcDbEntity
  8
Title Block
100
AcDbLine
 10
0.0
 20
16.0
 30
0.0
 11
0.0
 21
0.0
 31
0.0
  0
LINE
  5
10E
330
106
100
AcDbEntity
  8
Title Block
100
AcDbLine
 10
0.5
 20
15.25
 30
0.0
 11
0.5
 21
0.75
 31
0.0
  0
SOLID
  5
10F
330
106
100
AcDbEntity
  8
Title Block
100
AcDbTrace
 10
0.3499999999999943
 20
7.849999999999999
 30
0.0
 11
0.3499999999999943
 21
8.15
 31
0.0
 12
0.5
 22
8.0
 32
0.0
 13
0.5
 23
8.0
 33
0.0
  0
TEXT
  5
110
330
106
100
AcDbEntity
  8
Title Block
100
AcDbText
 10
0.1428571428571428
 20
2.0
 30
0.0
 40
0.25
  1
A
  7
Roman
 72
     1
 11
0.25
 21
2.125
 31
0.0
100
AcDbText
 73
     2
  0
ATTDEF
  5
111
330
106
100
AcDbEntity
  8
0
 62
     0
100
AcDbText
 10
-0.05
 20
0.0
 30
0.0
 40
0.15
  1

 50
90.0
  7
Roman
100
AcDbAttributeDefinition
  3
Author:
  2
USER
 70
     8
  0
TEXT
  5
112
330
106
100
AcDbEntity
  8
Title Block
100
AcDbText
 10
2.625
 20
0.375
 30
0.0
 40
0.25
  1
4
  7
Roman
 72
     1
 11
2.75
 21
0.5
 31
0.0
100
AcDbText
 73
     2
  0
TEXT
  5
113
330
106
100
AcDbEntity
  8
Title Block
100
AcDbText
 10
0.119047619047619
 20
6.0
 30
0.0
 40
0.25
  1
B
  7
Roman
 72
     1
 11
0.25
 21
6.125
 31
0.0
100
AcDbText
 73
     2
  0
LINE
  5
114
330
106
100
AcDbEntity
  8
Title Block
100
AcDbLine
 10
0.125
 20
4.0
 30
0.0
 11
0.5
 21
4.0
 31
0.0
  0
ATTDEF
  5
115
330
106
100
AcDbEntity
  8
0
 62
     0
100
AcDbText
 10
-0.05
 20
3.0
 30
0.0
 40
0.15
  1

 50
90.0
  7
Roman
100
AcDbAttributeDefinition
  3
Revision date:
  2
REVDATE
 70
     8
  0
ATTDEF
  5
116
330
106
100
AcDbEntity
  8
0
 62
     0
100
AcDbText
 10
-0.05
 20
6.0
 30
0.0
 40
0.15
  1

 50
90.0
  7
Roman
100
AcDbAttributeDefinition
  3
File name:
  2
FNAME
 70
     8
  0
LINE
  5
117
330
106
100
AcDbEntity
  8
Title Block
100
AcDbLine
 10
5.249999999999996
 20
0.375
 30
0.0
 11
5.249999999999996
 21
0.75
 31
0.0
  0
TEXT
  5
118
330
106
100
AcDbEntity
  8
Title Block
100
AcDbText
 10
7.880952380952381
 20
0.375
 30
0.0
 40
0.25
  1
3
  7
Roman
 72
     1
 11
8.0
 21
0.5
 31
0.0
100
AcDbText
 73
     2
  0
LWPOLYLINE
  5
119
330
106
100
AcDbEntity
  8
Title Block
100
AcDbPolyline
 90
        2
 70
     0
 43
0.02
 10
10.5
 20
0.5
 10
10.5
 20
0.6000000000000001
  0
LINE
  5
11A
330
106
100
AcDbEntity
  8
Title Block
100
AcDbLine
 10
0.125
 20
12.0
 30
0.0
 11
0.5
 21
12.0
 31
0.0
  0
TEXT
  5
11B
330
106
100
AcDbEntity
  8
Title Block
100
AcDbText
 10
0.125
 20
9.75
 30
0.0
 40
0.25
  1
C
  7
Roman
 72
     1
 11
0.25
 21
9.875
 31
0.0
100
AcDbText
 73
     2
  0
LWPOLYLINE
  5
11C
330
106
100
AcDbEntity
  8
Title Block
100
AcDbPolyline
 90
        2
 70
     0
 43
0.02
 10
0.25
 20
8.0
 10
0.3499999999999943
 20
8.0
  0
TEXT
  5
11D
330
106
100
AcDbEntity
  8
Title Block
100
AcDbText
 10
0.1190476190476191
 20
13.75
 30
0.0
 40
0.25
  1
D
  7
Roman
 72
     1
 11
0.25
 21
13.875
 31
0.0
100
AcDbText
 73
     2
  0
TEXT
  5
11E
330
106
100
AcDbEntity
  8
Title Block
100
AcDbText
 10
2.625
 20
15.375
 30
0.0
 40
0.25
  1
4
  7
Roman
 72
     1
 11
2.75
 21
15.5
 31
0.0
100
AcDbText
 73
     2
  0
LINE
  5
11F
330
106
100
AcDbEntity
  8
Title Block
100
AcDbLine
 10
5.249999999999996
 20
15.25
 30
0.0
 11
5.249999999999996
 21
15.625
 31
0.0
  0
TEXT
  5
120
330
106
100
AcDbEntity
  8
Title Block
100
AcDbText
 10
7.880952380952381
 20
15.375
 30
0.0
 40
0.25
  1
3
  7
Roman
 72
     1
 11
8.0
 21
15.5
 31
0.0
100
AcDbText
 73
     2
  0
LWPOLYLINE
  5
121
330
106
100
AcDbEntity
  8
Title Block
100
AcDbPolyline
 90
        2
 70
     0
 43
0.02
 10
10.5
 20
15.5
 10
10.5
 20
15.4
  0
LINE
  5
122
330
106
100
AcDbEntity
  8
Title Block
100
AcDbLine
 10
21.0
 20
0.0
 30
0.0
 11
21.0
 21
16.0
 31
0.0
  0
LINE
  5
123
330
106
100
AcDbEntity
  8
Title Block
100
AcDbLine
 10
20.5
 20
0.75
 30
0.0
 11
20.5
 21
15.25
 31
0.0
  0
SOLID
  5
124
330
106
100
AcDbEntity
  8
Title Block
100
AcDbTrace
 10
20.65
 20
7.849999999999999
 30
0.0
 11
20.65
 21
8.15
 31
0.0
 12
20.5
 22
8.0
 32
0.0
 13
20.5
 23
8.0
 33
0.0
  0
LINE
  5
125
330
106
100
AcDbEntity
  8
Title Block
100
AcDbLine
 10
14.25
 20
2.5
 30
0.0
 11
20.5
 21
2.5
 31
0.0
  0
LINE
  5
126
330
106
100
AcDbEntity
  8
Title Block
100
AcDbLine
 10
14.25
 20
1.379999999999999
 30
0.0
 11
20.5
 21
1.379999999999999
 31
0.0
  0
LINE
  5
127
330
106
100
AcDbEntity
  8
Title Block
100
AcDbLine
 10
16.25
 20
1.0
 30
0.0
 11
20.5
 21
1.0
 31
0.0
  0
LINE
  5
128
330
106
100
AcDbEntity
  8
Title Block
100
AcDbLine
 10
16.25
 20
2.0
 30
0.0
 11
20.5
 21
2.0
 31
0.0
  0
TEXT
  5
129
330
106
100
AcDbEntity
  8
Title Block
100
AcDbText
 10
12.88095238095238
 20
0.375
 30
0.0
 40
0.25
  1
2
  7
Roman
 72
     1
 11
13.0
 21
0.5
 31
0.0
100
AcDbText
 73
     2
  0
LINE
  5
12A
330
106
100
AcDbEntity
  8
Title Block
100
AcDbLine
 10
14.25
 20
1.064999999999999
 30
0.0
 11
16.25
 21
1.064999999999999
 31
0.0
  0
LINE
  5
12B
330
106
100
AcDbEntity
  8
Title Block
100
AcDbLine
 10
14.25
 20
0.75
 30
0.0
 11
14.25
 21
2.5
 31
0.0
  0
LINE
  5
12C
330
106
100
AcDbEntity
  8
Title Block
100
AcDbLine
 10
15.75
 20
0.375
 30
0.0
 11
15.75
 21
0.75
 31
0.0
  0
LINE
  5
12D
330
106
100
AcDbEntity
  8
Title Block
100
AcDbLine
 10
16.25
 20
0.75
 30
0.0
 11
16.25
 21
2.5
 31
0.0
  0
LINE
  5
12E
330
106
100
AcDbEntity
  8
Title Block
100
AcDbLine
 10
16.62999999999999
 20
1.0
 30
0.0
 11
16.62999999999999
 21
1.379999999999999
 31
0.0
  0
TEXT
  5
12F
330
106
100
AcDbEntity
  8
Title Block
100
AcDbText
 10
16.3023
 20
0.8425
 30
0.0
 40
0.065
  1
SCALE
  7
Roman
100
AcDbText
  0
LINE
  5
130
330
106
100
AcDbEntity
  8
Title Block
100
AcDbLine
 10
17.25
 20
0.75
 30
0.0
 11
17.25
 21
1.0
 31
0.0
  0
TEXT
  5
131
330
106
100
AcDbEntity
  8
Title Block
100
AcDbText
 10
16.3379
 20
1.2659
 30
0.0
 40
0.065
  1
SIZE
  7
Roman
100
AcDbText
  0
TEXT
  5
132
330
106
100
AcDbEntity
  8
Title Block
100
AcDbText
 10
16.69889999999999
 20
1.2659
 30
0.0
 40
0.065
  1
FSCM NO.
  7
Roman
100
AcDbText
  0
LINE
  5
133
330
106
100
AcDbEntity
  8
Title Block
100
AcDbLine
 10
17.75
 20
1.0
 30
0.0
 11
17.75
 21
1.379999999999999
 31
0.0
  0
TEXT
  5
134
330
106
100
AcDbEntity
  8
Title Block
100
AcDbText
 10
18.14880952380952
 20
0.375
 30
0.0
 40
0.25
  1
1
  7
Roman
 72
     1
 11
18.25
 21
0.5
 31
0.0
100
AcDbText
 73
     2
  0
LINE
  5
135
330
106
100
AcDbEntity
  8
Title Block
100
AcDbLine
 10
18.75
 20
0.75
 30
0.0
 11
18.75
 21
1.0
 31
0.0
  0
TEXT
  5
136
330
106
100
AcDbEntity
  8
Title Block
100
AcDbText
 10
18.8028
 20
0.8425
 30
0.0
 40
0.065
  1
SHEET
  7
Roman
100
AcDbText
  0
TEXT
  5
137
330
106
100
AcDbEntity
  8
Title Block
100
AcDbText
 10
17.82099999999999
 20
1.2659
 30
0.0
 40
0.065
  1
DWG NO.
  7
Roman
100
AcDbText
  0
LINE
  5
138
330
106
100
AcDbEntity
  8
Title Block
100
AcDbLine
 10
20.12
 20
1.0
 30
0.0
 11
20.12
 21
1.379999999999999
 31
0.0
  0
TEXT
  5
139
330
106
100
AcDbEntity
  8
Title Block
100
AcDbText
 10
20.2005
 20
1.2659
 30
0.0
 40
0.065
  1
REV
  7
Roman
100
AcDbText
  0
TEXT
  5
13A
330
106
100
AcDbEntity
  8
Title Block
100
AcDbText
 10
20.64285714285714
 20
2.0
 30
0.0
 40
0.25
  1
A
  7
Roman
 72
     1
 11
20.75
 21
2.125
 31
0.0
100
AcDbText
 73
     2
  0
LINE
  5
13B
330
106
100
AcDbEntity
  8
Title Block
100
AcDbLine
 10
20.5
 20
4.0
 30
0.0
 11
20.87499999999999
 21
4.0
 31
0.0
  0
TEXT
  5
13C
330
106
100
AcDbEntity
  8
Title Block
100
AcDbText
 10
20.61904761904762
 20
6.0
 30
0.0
 40
0.25
  1
B
  7
Roman
 72
     1
 11
20.75
 21
6.125
 31
0.0
100
AcDbText
 73
     2
  0
LINE
  5
13D
330
106
100
AcDbEntity
  8
Title Block
100
AcDbLine
 10
15.0
 20
15.0
 30
0.0
 11
20.5
 21
15.0
 31
0.0
  0
LINE
  5
13E
330
106
100
AcDbEntity
  8
Title Block
100
AcDbLine
 10
15.0
 20
14.75
 30
0.0
 11
20.5
 21
14.75
 31
0.0
  0
TEXT
  5
13F
330
106
100
AcDbEntity
  8
Title Block
100
AcDbText
 10
12.88095238095238
 20
15.375
 30
0.0
 40
0.25
  1
2
  7
Roman
 72
     1
 11
13.0
 21
15.5
 31
0.0
100
AcDbText
 73
     2
  0
LINE
  5
140
330
106
100
AcDbEntity
  8
Title Block
100
AcDbLine
 10
15.0
 20
15.25
 30
0.0
 11
15.0
 21
14.2027
 31
0.0
  0
LINE
  5
141
330
106
100
AcDbEntity
  8
Title Block
100
AcDbLine
 10
15.75
 20
15.25
 30
0.0
 11
15.75
 21
15.625
 31
0.0
  0
TEXT
  5
142
330
106
100
AcDbEntity
  8
Title Block
100
AcDbText
 10
15.10869999999999
 20
14.84029999999999
 30
0.0
 40
0.065
  1
ZONE
  7
Roman
100
AcDbText
  0
LINE
  5
143
330
106
100
AcDbEntity
  8
Title Block
100
AcDbLine
 10
15.5
 20
14.75
 30
0.0
 11
15.5
 21
15.0
 31
0.0
  0
TEXT
  5
144
330
106
100
AcDbEntity
  8
Title Block
100
AcDbText
 10
15.5801
 20
14.84029999999999
 30
0.0
 40
0.065
  1
REV
  7
Roman
100
AcDbText
  0
LINE
  5
145
330
106
100
AcDbEntity
  8
Title Block
100
AcDbLine
 10
15.87999999999999
 20
14.75
 30
0.0
 11
15.87999999999999
 21
15.0
 31
0.0
  0
TEXT
  5
146
330
106
100
AcDbEntity
  8
Title Block
100
AcDbText
 10
16.882
 20
14.84029999999999
 30
0.0
 40
0.065
  1
DESCRIPTION
  7
Roman
100
AcDbText
  0
LWPOLYLINE
  5
147
330
106
100
AcDbEntity
  8
Title Block
100
AcDbPolyline
 90
        2
 70
     0
 43
0.02
 10
20.75
 20
8.0
 10
20.65
 20
8.0
  0
TEXT
  5
148
330
106
100
AcDbEntity
  8
Title Block
100
AcDbText
 10
20.625
 20
9.75
 30
0.0
 40
0.25
  1
C
  7
Roman
 72
     1
 11
20.75
 21
9.875
 31
0.0
100
AcDbText
 73
     2
  0
LINE
  5
149
330
106
100
AcDbEntity
  8
Title Block
100
AcDbLine
 10
20.5
 20
12.0
 30
0.0
 11
20.87499999999999
 21
12.0
 31
0.0
  0
TEXT
  5
14A
330
106
100
AcDbEntity
  8
Title Block
100
AcDbText
 10
17.7102
 20
15.0825
 30
0.0
 40
0.065
  1
REVISIONS
  7
Roman
100
AcDbText
  0
TEXT
  5
14B
330
106
100
AcDbEntity
  8
Title Block
100
AcDbText
 10
18.14880952380952
 20
15.375
 30
0.0
 40
0.25
  1
1
  7
Roman
 72
     1
 11
18.25
 21
15.5
 31
0.0
100
AcDbText
 73
     2
  0
LINE
  5
14C
330
106
100
AcDbEntity
  8
Title Block
100
AcDbLine
 10
18.62
 20
14.75
 30
0.0
 11
18.62
 21
15.0
 31
0.0
  0
TEXT
  5
14D
330
106
100
AcDbEntity
  8
Title Block
100
AcDbText
 10
18.94769999999999
 20
14.84029999999999
 30
0.0
 40
0.065
  1
DATE
  7
Roman
100
AcDbText
  0
TEXT
  5
14E
330
106
100
AcDbEntity
  8
Title Block
100
AcDbText
 10
20.61904761904762
 20
13.75
 30
0.0
 40
0.25
  1
D
  7
Roman
 72
     1
 11
20.75
 21
13.875
 31
0.0
100
AcDbText
 73
     2
  0
TEXT
  5
14F
330
106
100
AcDbEntity
  8
Title Block
100
AcDbText
 10
19.7414
 20
14.84029999999999
 30
0.0
 40
0.065
  1
APPROVED
  7
Roman
100
AcDbText
  0
LINE
  5
150
330
106
100
AcDbEntity
  8
Title Block
100
AcDbLine
 10
19.5
 20
14.75
 30
0.0
 11
19.5
 21
15.0
 31
0.0
  0
ENDBLK
  5
152
330
106
100
AcDbEntity
  8
0
100
AcDbBlockEnd
  0
BLOCK
  5
1A3
330
15B
100
AcDbEntity
  8
0
100
AcDbBlockBegin
  2
c-border
 70
     2
 10
0.0
 20
0.0
 30
0.0
  3
c-border
  1

  0
ATTDEF
  5
15C
330
15B
100
AcDbEntity
  8
TEXT
100
AcDbText
 10
15.75549999999999
 20
0.8301
 30
0.0
 40
0.06
  1

100
AcDbAttributeDefinition
  3
Enter the Date
  2
DATE
 70
     0
  0
ATTDEF
  5
15D
330
15B
100
AcDbEntity
  8
TEXT
100
AcDbText
 10
14.7352
 20
0.8425
 30
0.0
 40
0.12
  1
S. KYRE
100
AcDbAttributeDefinition
  3
Enter Your Name
  2
NAME
 70
     0
  0
ATTDEF
  5
15E
330
15B
100
AcDbEntity
  8
TEXT
100
AcDbText
 10
16.6768
 20
0.1811
 30
0.0
 40
0.12
  1

100
AcDbAttributeDefinition
  3
Enter Drawing Scale
  2
SCALE
 70
     0
  0
ATTDEF
  5
15F
330
15B
100
AcDbEntity
  8
TEXT
100
AcDbText
 10
18.5257
 20
0.4778000000000001
 30
0.0
 40
0.12
  1

100
AcDbAttributeDefinition
  3
Enter Drawing Name
  2
NAME
 70
     0
  0
ATTDEF
  5
160
330
15B
100
AcDbEntity
  8
TEXT
100
AcDbText
 10
16.67611983004387
 20
0.4604688822214698
 30
0.0
 40
0.12
  1

100
AcDbAttributeDefinition
  3
Enter Drawing Directory
  2
DIRECTORY
 70
     0
  0
LINE
  5
161
330
15B
100
AcDbEntity
  8
TEXT
100
AcDbLine
 10
0.5
 20
14.125
 30
0.0
 11
3.0625
 21
14.125
 31
0.0
  0
LINE
  5
162
330
15B
100
AcDbEntity
  8
TEXT
100
AcDbLine
 10
3.0625
 20
14.125
 30
0.0
 11
3.0625
 21
14.625
 31
0.0
  0
CIRCLE
  5
163
330
15B
100
AcDbEntity
  8
TEXT
100
AcDbCircle
 10
1.177871382375997
 20
14.36146089745938
 30
0.0
 40
0.1875
  0
CIRCLE
  5
164
330
15B
100
AcDbEntity
  8
TEXT
100
AcDbCircle
 10
1.177871382375997
 20
14.36146089745938
 30
0.0
 40
0.09375
  0
LINE
  5
165
330
15B
100
AcDbEntity
  8
TEXT
  6
CENTER
100
AcDbLine
 10
0.9439511930482353
 20
14.36146089745938
 30
0.0
 11
2.396621382375997
 21
14.36146089745938
 31
0.0
  0
LINE
  5
166
330
15B
100
AcDbEntity
  8
TEXT
  6
CENTER
100
AcDbLine
 10
1.177871382375997
 20
14.13277903195262
 30
0.0
 11
1.177871382375997
 21
14.60065584518079
 31
0.0
  0
LINE
  5
167
330
15B
100
AcDbEntity
  8
TEXT
100
AcDbLine
 10
1.646621382375997
 20
14.45521089745938
 30
0.0
 11
2.131263037562575
 21
14.54896089745938
 31
0.0
  0
LINE
  5
168
330
15B
100
AcDbEntity
  8
TEXT
100
AcDbLine
 10
1.646621382375997
 20
14.26771089745938
 30
0.0
 11
2.131263037562575
 21
14.17396089745938
 31
0.0
  0
LINE
  5
169
330
15B
100
AcDbEntity
  8
TEXT
100
AcDbLine
 10
1.646621382375997
 20
14.26771089745938
 30
0.0
 11
1.646621382375997
 21
14.45521089745938
 31
0.0
  0
LINE
  5
16A
330
15B
100
AcDbEntity
  8
TEXT
100
AcDbLine
 10
2.131263037562575
 20
14.54896089745938
 30
0.0
 11
2.131263037562575
 21
14.17396089745938
 31
0.0
  0
TEXT
  5
16B
330
15B
100
AcDbEntity
  8
TEXT
100
AcDbText
 10
0.6875
 20
13.93982759025163
 30
0.0
 40
0.1
  1
THIRD ANGLE PROJECTION
100
AcDbText
  0
LINE
  5
16C
330
15B
100
AcDbEntity
  8
TEXT
100
AcDbLine
 10
3.0625
 20
14.125
 30
0.0
 11
3.0625
 21
13.875
 31
0.0
  0
LINE
  5
16D
330
15B
100
AcDbEntity
  8
TEXT
100
AcDbLine
 10
3.0625
 20
13.875
 30
0.0
 11
0.5
 21
13.875
 31
0.0
  0
TEXT
  5
16E
330
15B
100
AcDbEntity
  8
TEXT
100
AcDbText
 10
15.40791980373655
 20
1.361504946102674
 30
0.0
 40
0.065
  1
  %%P 0.5%%D
  7
ADESK2
100
AcDbText
  0
TEXT
  5
16F
330
15B
100
AcDbEntity
  8
TEXT
100
AcDbText
 10
15.40791980373655
 20
1.466742946102673
 30
0.0
 40
0.065
  1
ANGULAR
  7
ADESK2
100
AcDbText
  0
TEXT
  5
170
330
15B
100
AcDbEntity
  8
TEXT
100
AcDbText
 10
14.61466004183179
 20
1.153743946102673
 30
0.0
 40
0.065
  1
DO NOT SCALE DRAWING
  7
ADESK2
 72
     1
 11
15.22906480373655
 21
1.153743946102673
 31
0.0
100
AcDbText
  0
TEXT
  5
171
330
15B
100
AcDbEntity
  8
TEXT
100
AcDbText
 10
14.54402280373655
 20
1.256266946102674
 30
0.0
 40
0.065
  1
.XXX %%P .005
  7
ADESK2
100
AcDbText
  0
TEXT
  5
172
330
15B
100
AcDbEntity
  8
TEXT
100
AcDbText
 10
14.54402280373655
 20
1.361504946102674
 30
0.0
 40
0.065
  1
.XX  %%P .05
  7
ADESK2
100
AcDbText
  0
TEXT
  5
173
330
15B
100
AcDbEntity
  8
TEXT
100
AcDbText
 10
14.54402280373655
 20
1.466742946102673
 30
0.0
 40
0.065
  1
DECIMALS
  7
ADESK2
100
AcDbText
  0
TEXT
  5
174
330
15B
100
AcDbEntity
  8
TEXT
100
AcDbText
 10
14.93037432754608
 20
1.574612946102674
 30
0.0
 40
0.065
  1
TOLERANCES
  7
ADESK2
 72
     1
 11
15.22906480373655
 21
1.574612946102674
 31
0.0
100
AcDbText
  0
TEXT
  5
175
330
15B
100
AcDbEntity
  8
TEXT
100
AcDbText
 10
14.53263623230798
 20
1.679850946102674
 30
0.0
 40
0.065
  1
DIMENSIONS ARE IN INCHES
  7
ADESK2
 72
     1
 11
15.22906480373655
 21
1.679850946102674
 31
0.0
100
AcDbText
  0
TEXT
  5
176
330
15B
100
AcDbEntity
  8
TEXT
100
AcDbText
 10
14.45835051802227
 20
1.785088946102673
 30
0.0
 40
0.065
  1
UNLESS OTHERWISE SPECIFIED:
  7
ADESK2
 72
     1
 11
15.22906480373655
 21
1.785088946102673
 31
0.0
100
AcDbText
  0
TEXT
  5
177
330
15B
100
AcDbEntity
  8
BORDER
100
AcDbText
 10
16.91660791890448
 20
1.575566135628289
 30
0.0
 40
0.15
  1
HIGH ENERGY PHYSICS
100
AcDbText
  0
LINE
  5
178
330
15B
100
AcDbEntity
  8
BORDER
100
AcDbLine
 10
0.5
 20
14.625
 30
0.0
 11
20.5
 21
14.625
 31
0.0
  0
TEXT
  5
179
330
15B
100
AcDbEntity
  8
TEXT
100
AcDbText
 10
16.68013672017864
 20
0.6653543307085397
 30
0.0
 40
0.075
  1
DIRECTORY
100
AcDbText
  0
TEXT
  5
17A
330
15B
100
AcDbEntity
  8
BORDER
100
AcDbText
 10
16.36770410286771
 20
0.4519624000487056
 30
0.0
 40
0.15
  1
C
100
AcDbText
  0
LINE
  5
17B
330
15B
100
AcDbEntity
  8
BORDER
100
AcDbLine
 10
0.5
 20
0.125
 30
0.0
 11
20.5
 21
0.125
 31
0.0
  0
LINE
  5
17C
330
15B
100
AcDbEntity
  8
BORDER
100
AcDbLine
 10
0.5
 20
14.625
 30
0.0
 11
0.5
 21
0.125
 31
0.0
  0
LINE
  5
17D
330
15B
100
AcDbEntity
  8
BORDER
100
AcDbLine
 10
20.5
 20
0.125
 30
0.0
 11
20.5
 21
14.625
 31
0.0
  0
LINE
  5
17E
330
15B
100
AcDbEntity
  8
BORDER
100
AcDbLine
 10
14.22802457150521
 20
2.324146981627205
 30
0.0
 11
20.5008624282001
 21
2.324146981627205
 31
0.0
  0
TEXT
  5
17F
330
15B
100
AcDbEntity
  8
BORDER
100
AcDbText
 10
14.40702930573621
 20
2.049227858145542
 30
0.0
 40
0.15
  1
UNIVERSITY OF CALIFORNIA @ SANTA BARBARA
100
AcDbText
  0
TEXT
  5
180
330
15B
100
AcDbEntity
  8
TEXT
100
AcDbText
 10
14.29737480373655
 20
0.9799639461026732
 30
0.0
 40
0.065
  1
DRAWN
  7
ADESK2
100
AcDbText
  0
LINE
  5
181
330
15B
100
AcDbEntity
  8
BORDER
100
AcDbLine
 10
14.22906480373655
 20
0.125
 30
0.0
 11
14.22906480373655
 21
2.324146981627205
 31
0.0
  0
LINE
  5
182
330
15B
100
AcDbEntity
  8
BORDER
100
AcDbLine
 10
14.22906480373655
 20
1.901500946102673
 30
0.0
 11
20.50086242820011
 21
1.901500946102673
 31
0.0
  0
LINE
  5
183
330
15B
100
AcDbEntity
  8
TEXT
100
AcDbLine
 10
14.22906480373655
 20
0.4665009461026735
 30
0.0
 11
16.22906480373655
 21
0.4665009461026735
 31
0.0
  0
LINE
  5
184
330
15B
100
AcDbEntity
  8
TEXT
100
AcDbLine
 10
14.22906480373655
 20
0.781500946102673
 30
0.0
 11
20.50086242820011
 21
0.781500946102673
 31
0.0
  0
LINE
  5
185
330
15B
100
AcDbEntity
  8
TEXT
100
AcDbLine
 10
16.22906480373655
 20
0.401500946102674
 30
0.0
 11
20.50086242820011
 21
0.401500946102674
 31
0.0
  0
LINE
  5
186
330
15B
100
AcDbEntity
  8
BORDER
100
AcDbLine
 10
16.22906480373655
 20
1.401500946102673
 30
0.0
 11
20.50086242820011
 21
1.401500946102673
 31
0.0
  0
LINE
  5
187
330
15B
100
AcDbEntity
  8
BORDER
100
AcDbLine
 10
16.22906480373655
 20
0.125
 30
0.0
 11
16.22906480373655
 21
1.901500946102673
 31
0.0
  0
LINE
  5
188
330
15B
100
AcDbEntity
  8
TEXT
100
AcDbLine
 10
17.22906480373656
 20
0.125
 30
0.0
 11
17.22906480373656
 21
0.401500946102674
 31
0.0
  0
LINE
  5
189
330
15B
100
AcDbEntity
  8
TEXT
100
AcDbLine
 10
18.72906480373655
 20
0.125
 30
0.0
 11
18.72906480373655
 21
0.401500946102674
 31
0.0
  0
LINE
  5
18A
330
15B
100
AcDbEntity
  8
TEXT
100
AcDbLine
 10
16.60906480373655
 20
0.401500946102674
 30
0.0
 11
16.60906480373655
 21
0.781500946102673
 31
0.0
  0
LINE
  5
18B
330
15B
100
AcDbEntity
  8
TEXT
100
AcDbLine
 10
17.72906480373656
 20
0.401500946102674
 30
0.0
 11
17.72906480373656
 21
0.781500946102673
 31
0.0
  0
LINE
  5
18C
330
15B
100
AcDbEntity
  8
TEXT
100
AcDbLine
 10
20.09906480373655
 20
0.401500946102674
 30
0.0
 11
20.09906480373655
 21
0.781500946102673
 31
0.0
  0
TEXT
  5
18D
330
15B
100
AcDbEntity
  8
TEXT
100
AcDbText
 10
16.28136480373655
 20
0.2440009461026733
 30
0.0
 40
0.065
  1
SCALE
  7
ADESK2
100
AcDbText
  0
TEXT
  5
18E
330
15B
100
AcDbEntity
  8
TEXT
100
AcDbText
 10
18.78186480373655
 20
0.2440009461026733
 30
0.0
 40
0.065
  1
SHEET
  7
ADESK2
100
AcDbText
  0
TEXT
  5
18F
330
15B
100
AcDbEntity
  8
TEXT
100
AcDbText
 10
16.31696480373655
 20
0.6674009461026725
 30
0.0
 40
0.065
  1
SIZE
  7
ADESK2
100
AcDbText
  0
TEXT
  5
190
330
15B
100
AcDbEntity
  8
TEXT
100
AcDbText
 10
17.80006480373655
 20
0.6674009461026725
 30
0.0
 40
0.065
  1
DWG NO.
  7
ADESK2
100
AcDbText
  0
TEXT
  5
191
330
15B
100
AcDbEntity
  8
TEXT
100
AcDbText
 10
20.17956480373655
 20
0.6674009461026725
 30
0.0
 40
0.065
  1
REV
  7
ADESK2
100
AcDbText
  0
LINE
  5
192
330
15B
100
AcDbEntity
  8
TEXT
100
AcDbLine
 10
15.44569368889233
 20
14.2687954598962
 30
0.0
 11
20.5
 21
14.26879545989621
 31
0.0
  0
LINE
  5
193
330
15B
100
AcDbEntity
  8
TEXT
100
AcDbLine
 10
15.44569368889233
 20
14.0187954598962
 30
0.0
 11
20.5
 21
14.0187954598962
 31
0.0
  0
LINE
  5
194
330
15B
100
AcDbEntity
  8
TEXT
100
AcDbLine
 10
15.44569368889233
 20
14.57885940600617
 30
0.0
 11
15.44569368889233
 21
14.0187954598962
 31
0.0
  0
LINE
  5
195
330
15B
100
AcDbEntity
  8
TEXT
100
AcDbLine
 10
15.83594611112369
 20
14.0187954598962
 30
0.0
 11
15.83594611112369
 21
14.2687954598962
 31
0.0
  0
LINE
  5
196
330
15B
100
AcDbEntity
  8
TEXT
100
AcDbLine
 10
18.57594611112369
 20
14.0187954598962
 30
0.0
 11
18.57594611112369
 21
14.2687954598962
 31
0.0
  0
LINE
  5
197
330
15B
100
AcDbEntity
  8
TEXT
100
AcDbLine
 10
19.45594611112369
 20
14.0187954598962
 30
0.0
 11
19.45594611112369
 21
14.2687954598962
 31
0.0
  0
TEXT
  5
198
330
15B
100
AcDbEntity
  8
TEXT
100
AcDbText
 10
17.66614611112369
 20
14.3512954598962
 30
0.0
 40
0.065
  1
REVISIONS
  7
ADESK2
100
AcDbText
  0
TEXT
  5
199
330
15B
100
AcDbEntity
  8
TEXT
100
AcDbText
 10
15.53604611112369
 20
14.1090954598962
 30
0.0
 40
0.065
  1
REV
  7
ADESK2
100
AcDbText
  0
TEXT
  5
19A
330
15B
100
AcDbEntity
  8
TEXT
100
AcDbText
 10
16.83794611112369
 20
14.1090954598962
 30
0.0
 40
0.065
  1
DESCRIPTION
  7
ADESK2
100
AcDbText
  0
TEXT
  5
19B
330
15B
100
AcDbEntity
  8
TEXT
100
AcDbText
 10
18.90364611112369
 20
14.1090954598962
 30
0.0
 40
0.065
  1
DATE
  7
ADESK2
100
AcDbText
  0
TEXT
  5
19C
330
15B
100
AcDbEntity
  8
TEXT
100
AcDbText
 10
19.69734611112369
 20
14.1090954598962
 30
0.0
 40
0.065
  1
APPROVED
  7
ADESK2
100
AcDbText
  0
LINE
  5
19D
330
15B
100
AcDbEntity
  8
TEXT
100
AcDbLine
 10
14.22906480373655
 20
1.091500946102673
 30
0.0
 11
16.22906480373655
 21
1.091500946102673
 31
0.0
  0
TEXT
  5
19E
330
15B
100
AcDbEntity
  8
TEXT
100
AcDbText
 10
14.30906480373655
 20
0.6715009461026736
 30
0.0
 40
0.065
  1
CHECKED
  7
ADESK2
100
AcDbText
  0
TEXT
  5
19F
330
15B
100
AcDbEntity
  8
TEXT
100
AcDbText
 10
14.30906480373655
 20
0.3565009461026722
 30
0.0
 40
0.065
  1
DESIGN
  7
ADESK2
100
AcDbText
  0
LINE
  5
1A0
330
15B
100
AcDbEntity
  8
TEXT
100
AcDbLine
 10
15.72904880373655
 20
1.091500946102673
 30
0.0
 11
15.72904880373655
 21
0.125
 31
0.0
  0
TEXT
  5
1A1
330
15B
100
AcDbEntity
  8
TEXT
100
AcDbText
 10
15.85246780373655
 20
0.9749509461026732
 30
0.0
 40
0.065
  1
DATE
  7
ADESK2
100
AcDbText
  0
TEXT
  5
1A2
330
15B
100
AcDbEntity
  8
TEXT
100
AcDbText
 10
19.61203580373655
 20
0.2443769461026726
 30
0.0
 40
0.065
  1
OF
  7
ADESK2
100
AcDbText
  0
ENDBLK
  5
1A4
330
15B
100
AcDbEntity
  8
0
100
AcDbBlockEnd
  0
BLOCK
  5
3A8
330
39C
100
AcDbEntity
  8
0
100
AcDbBlockBegin
  2
*D5
 70
     1
 10
0.0
 20
0.0
 30
0.0
  3
*D5
  1

  0
LINE
  5
4EA
330
39C
100
AcDbEntity
  8
clampdim
 62
     0
370
    -2
100
AcDbLine
 10
17.28879638069964
 20
10.88614308302042
 30
0.0
 11
17.75759249620466
 21
10.88614308302042
 31
0.0
  0
LINE
  5
4EB
330
39C
100
AcDbEntity
  8
clampdim
 62
     0
370
    -2
100
AcDbLine
 10
17.38579638069964
 20
11.04214308302043
 30
0.0
 11
17.75759249620466
 21
11.04214308302043
 31
0.0
  0
LINE
  5
4EC
330
39C
100
AcDbEntity
  8
clampdim
 62
     0
370
    -2
100
AcDbLine
 10
17.57759249620466
 20
10.70614308302043
 30
0.0
 11
17.57759249620466
 21
10.52614308302043
 31
0.0
  0
LINE
  5
4ED
330
39C
100
AcDbEntity
  8
clampdim
 62
     0
370
    -2
100
AcDbLine
 10
17.57759249620466
 20
11.22214308302043
 30
0.0
 11
17.57759249620466
 21
11.85845695423802
 31
0.0
  0
LINE
  5
4EE
330
39C
100
AcDbEntity
  8
clampdim
 62
     0
370
    -2
100
AcDbLine
 10
17.57759249620466
 20
11.85845695423802
 30
0.0
 11
17.75759249620466
 21
11.85845695423802
 31
0.0
  0
SOLID
  5
4EF
330
39C
100
AcDbEntity
  8
clampdim
 62
     0
100
AcDbTrace
 10
17.54759249620466
 20
10.70614308302043
 30
0.0
 11
17.60759249620466
 21
10.70614308302043
 31
0.0
 12
17.57759249620466
 22
10.88614308302042
 32
0.0
 13
17.57759249620466
 23
10.88614308302042
 33
0.0
  0
SOLID
  5
4F0
330
39C
100
AcDbEntity
  8
clampdim
 62
     0
100
AcDbTrace
 10
17.54759249620466
 20
11.22214308302043
 30
0.0
 11
17.60759249620466
 21
11.22214308302043
 31
0.0
 12
17.57759249620466
 22
11.04214308302043
 32
0.0
 13
17.57759249620466
 23
11.04214308302043
 33
0.0
  0
MTEXT
  5
4F1
330
39C
100
AcDbEntity
  8
clampdim
 62
     0
100
AcDbMText
 10
18.16259249620466
 20
11.85845695423803
 30
0.0
 40
0.18
 41
0.0
 71
     5
 72
     1
  1
\A1;0.156
 73
     1
 44
1.0
  0
POINT
  5
4F2
330
39C
100
AcDbEntity
  8
Defpoints
 62
     0
100
AcDbPoint
 10
17.22629638069964
 20
10.88614308302042
 30
0.0
  0
POINT
  5
4F3
330
39C
100
AcDbEntity
  8
Defpoints
 62
     0
100
AcDbPoint
 10
17.32329638069964
 20
11.04214308302043
 30
0.0
  0
POINT
  5
4F4
330
39C
100
AcDbEntity
  8
Defpoints
 62
     0
100
AcDbPoint
 10
17.57759249620466
 20
11.04214308302043
 30
0.0
  0
ENDBLK
  5
3A9
330
39C
100
AcDbEntity
  8
0
100
AcDbBlockEnd
  0
BLOCK
  5
3B6
330
3AB
100
AcDbEntity
  8
0
100
AcDbBlockBegin
  2
*D6
 70
     1
 10
0.0
 20
0.0
 30
0.0
  3
*D6
  1

  0
LINE
  5
4F5
330
3AB
100
AcDbEntity
  8
clampdim
 62
     0
370
    -2
100
AcDbLine
 10
17.38579638069964
 20
11.04214308302043
 30
0.0
 11
18.3276533224831
 21
11.04214308302043
 31
0.0
  0
LINE
  5
4F6
330
3AB
100
AcDbEntity
  8
clampdim
 62
     0
370
    -2
100
AcDbLine
 10
17.28879638069964
 20
10.26114308302042
 30
0.0
 11
18.3276533224831
 21
10.26114308302042
 31
0.0
  0
LINE
  5
4F7
330
3AB
100
AcDbEntity
  8
clampdim
 62
     0
370
    -2
100
AcDbLine
 10
18.1476533224831
 20
10.86214308302043
 30
0.0
 11
18.1476533224831
 21
10.8065687078598
 31
0.0
  0
LINE
  5
4F8
330
3AB
100
AcDbEntity
  8
clampdim
 62
     0
370
    -2
100
AcDbLine
 10
18.1476533224831
 20
10.44114308302042
 30
0.0
 11
18.1476533224831
 21
10.4465687078598
 31
0.0
  0
SOLID
  5
4F9
330
3AB
100
AcDbEntity
  8
clampdim
 62
     0
100
AcDbTrace
 10
18.1176533224831
 20
10.86214308302043
 30
0.0
 11
18.1776533224831
 21
10.86214308302043
 31
0.0
 12
18.1476533224831
 22
11.04214308302043
 32
0.0
 13
18.1476533224831
 23
11.04214308302043
 33
0.0
  0
SOLID
  5
4FA
330
3AB
100
AcDbEntity
  8
clampdim
 62
     0
100
AcDbTrace
 10
18.1176533224831
 20
10.44114308302042
 30
0.0
 11
18.1776533224831
 21
10.44114308302042
 31
0.0
 12
18.1476533224831
 22
10.26114308302042
 32
0.0
 13
18.1476533224831
 23
10.26114308302042
 33
0.0
  0
MTEXT
  5
4FB
330
3AB
100
AcDbEntity
  8
clampdim
 62
     0
100
AcDbMText
 10
18.1476533224831
 20
10.62656870785981
 30
0.0
 40
0.18
 41
0.0
 71
     5
 72
     1
  1
\A1;0.781
 73
     1
 44
1.0
  0
POINT
  5
4FC
330
3AB
100
AcDbEntity
  8
Defpoints
 62
     0
100
AcDbPoint
 10
17.32329638069964
 20
11.04214308302043
 30
0.0
  0
POINT
  5
4FD
330
3AB
100
AcDbEntity
  8
Defpoints
 62
     0
100
AcDbPoint
 10
17.22629638069964
 20
10.26114308302042
 30
0.0
  0
POINT
  5
4FE
330
3AB
100
AcDbEntity
  8
Defpoints
 62
     0
100
AcDbPoint
 10
18.1476533224831
 20
10.26114308302042
 30
0.0
  0
ENDBLK
  5
3B7
330
3AB
100
AcDbEntity
  8
0
100
AcDbBlockEnd
  0
BLOCK
  5
3C4
330
3B9
100
AcDbEntity
  8
0
100
AcDbBlockBegin
  2
*D7
 70
     1
 10
0.0
 20
0.0
 30
0.0
  3
*D7
  1

  0
LINE
  5
4FF
330
3B9
100
AcDbEntity
  8
clampdim
 62
     0
370
    -2
100
AcDbLine
 10
17.38579638069964
 20
11.04214308302043
 30
0.0
 11
19.21653460271916
 21
11.04214308302043
 31
0.0
  0
LINE
  5
500
330
3B9
100
AcDbEntity
  8
clampdim
 62
     0
370
    -2
100
AcDbLine
 10
17.38579638069964
 20
10.10514308302043
 30
0.0
 11
19.21653460271916
 21
10.10514308302043
 31
0.0
  0
LINE
  5
501
330
3B9
100
AcDbEntity
  8
clampdim
 62
     0
370
    -2
100
AcDbLine
 10
19.03653460271916
 20
10.86214308302043
 30
0.0
 11
19.03653460271916
 21
10.78417074315727
 31
0.0
  0
LINE
  5
502
330
3B9
100
AcDbEntity
  8
clampdim
 62
     0
370
    -2
100
AcDbLine
 10
19.03653460271916
 20
10.28514308302043
 30
0.0
 11
19.03653460271916
 21
10.42417074315727
 31
0.0
  0
SOLID
  5
503
330
3B9
100
AcDbEntity
  8
clampdim
 62
     0
100
AcDbTrace
 10
19.00653460271916
 20
10.86214308302043
 30
0.0
 11
19.06653460271916
 21
10.86214308302043
 31
0.0
 12
19.03653460271916
 22
11.04214308302043
 32
0.0
 13
19.03653460271916
 23
11.04214308302043
 33
0.0
  0
SOLID
  5
504
330
3B9
100
AcDbEntity
  8
clampdim
 62
     0
100
AcDbTrace
 10
19.00653460271916
 20
10.28514308302043
 30
0.0
 11
19.06653460271916
 21
10.28514308302043
 31
0.0
 12
19.03653460271916
 22
10.10514308302043
 32
0.0
 13
19.03653460271916
 23
10.10514308302043
 33
0.0
  0
MTEXT
  5
505
330
3B9
100
AcDbEntity
  8
clampdim
 62
     0
100
AcDbMText
 10
19.03653460271916
 20
10.60417074315727
 30
0.0
 40
0.18
 41
0.0
 71
     5
 72
     1
  1
\A1;0.937
 73
     1
 44
1.0
  0
POINT
  5
506
330
3B9
100
AcDbEntity
  8
Defpoints
 62
     0
100
AcDbPoint
 10
17.32329638069964
 20
11.04214308302043
 30
0.0
  0
POINT
  5
507
330
3B9
100
AcDbEntity
  8
Defpoints
 62
     0
100
AcDbPoint
 10
17.32329638069964
 20
10.10514308302043
 30
0.0
  0
POINT
  5
508
330
3B9
100
AcDbEntity
  8
Defpoints
 62
     0
100
AcDbPoint
 10
19.03653460271916
 20
10.10514308302043
 30
0.0
  0
ENDBLK
  5
3C5
330
3B9
100
AcDbEntity
  8
0
100
AcDbBlockEnd
  0
BLOCK
  5
3D2
330
3C7
100
AcDbEntity
  8
0
100
AcDbBlockBegin
  2
*D8
 70
     1
 10
0.0
 20
0.0
 30
0.0
  3
*D8
  1

  0
LINE
  5
509
330
3C7
100
AcDbEntity
  8
clampdim
 62
     0
370
    -2
100
AcDbLine
 10
17.13629638069964
 20
10.10864308302042
 30
0.0
 11
17.13629638069964
 21
8.856312988693282
 31
0.0
  0
LINE
  5
50A
330
3C7
100
AcDbEntity
  8
clampdim
 62
     0
370
    -2
100
AcDbLine
 10
17.32329638069964
 20
10.04264308302043
 30
0.0
 11
17.32329638069964
 21
8.856312988693282
 31
0.0
  0
LINE
  5
50B
330
3C7
100
AcDbEntity
  8
clampdim
 62
     0
370
    -2
100
AcDbLine
 10
16.95629638069964
 20
9.036312988693282
 30
0.0
 11
16.77629638069964
 21
9.036312988693282
 31
0.0
  0
LINE
  5
50C
330
3C7
100
AcDbEntity
  8
clampdim
 62
     0
370
    -2
100
AcDbLine
 10
17.50329638069964
 20
9.036312988693282
 30
0.0
 11
17.68329638069964
 21
9.036312988693282
 31
0.0
  0
SOLID
  5
50D
330
3C7
100
AcDbEntity
  8
clampdim
 62
     0
100
AcDbTrace
 10
16.95629638069964
 20
9.066312988693281
 30
0.0
 11
16.95629638069964
 21
9.006312988693283
 31
0.0
 12
17.13629638069964
 22
9.036312988693282
 32
0.0
 13
17.13629638069964
 23
9.036312988693282
 33
0.0
  0
SOLID
  5
50E
330
3C7
100
AcDbEntity
  8
clampdim
 62
     0
100
AcDbTrace
 10
17.50329638069964
 20
9.066312988693281
 30
0.0
 11
17.50329638069964
 21
9.006312988693283
 31
0.0
 12
17.32329638069964
 22
9.036312988693282
 32
0.0
 13
17.32329638069964
 23
9.036312988693282
 33
0.0
  0
MTEXT
  5
50F
330
3C7
100
AcDbEntity
  8
clampdim
 62
     0
100
AcDbMText
 10
18.08829638069964
 20
9.036312988693282
 30
0.0
 40
0.18
 41
0.0
 71
     5
 72
     1
  1
\A1;0.187
 73
     1
 44
1.0
  0
POINT
  5
510
330
3C7
100
AcDbEntity
  8
Defpoints
 62
     0
100
AcDbPoint
 10
17.13629638069964
 20
10.17114308302043
 30
0.0
  0
POINT
  5
511
330
3C7
100
AcDbEntity
  8
Defpoints
 62
     0
100
AcDbPoint
 10
17.32329638069964
 20
10.10514308302042
 30
0.0
  0
POINT
  5
512
330
3C7
100
AcDbEntity
  8
Defpoints
 62
     0
100
AcDbPoint
 10
17.32329638069964
 20
9.036312988693282
 30
0.0
  0
ENDBLK
  5
3D3
330
3C7
100
AcDbEntity
  8
0
100
AcDbBlockEnd
  0
BLOCK
  5
3E0
330
3D5
100
AcDbEntity
  8
0
100
AcDbBlockBegin
  2
*D9
 70
     1
 10
0.0
 20
0.0
 30
0.0
  3
*D9
  1

  0
LINE
  5
513
330
3D5
100
AcDbEntity
  8
clampdim
 62
     0
370
    -2
100
AcDbLine
 10
17.01129638069964
 20
10.10864308302042
 30
0.0
 11
17.01129638069964
 21
9.207214498279263
 31
0.0
  0
LINE
  5
514
330
3D5
100
AcDbEntity
  8
clampdim
 62
     0
370
    -2
100
AcDbLine
 10
17.32329638069964
 20
10.04264308302043
 30
0.0
 11
17.32329638069964
 21
9.207214498279263
 31
0.0
  0
LINE
  5
515
330
3D5
100
AcDbEntity
  8
clampdim
 62
     0
370
    -2
100
AcDbLine
 10
16.83129638069964
 20
9.387214498279263
 30
0.0
 11
16.65129638069964
 21
9.387214498279263
 31
0.0
  0
LINE
  5
516
330
3D5
100
AcDbEntity
  8
clampdim
 62
     0
370
    -2
100
AcDbLine
 10
17.50329638069964
 20
9.387214498279263
 30
0.0
 11
17.68329638069964
 21
9.387214498279263
 31
0.0
  0
SOLID
  5
517
330
3D5
100
AcDbEntity
  8
clampdim
 62
     0
100
AcDbTrace
 10
16.83129638069964
 20
9.417214498279262
 30
0.0
 11
16.83129638069964
 21
9.357214498279263
 31
0.0
 12
17.01129638069964
 22
9.387214498279263
 32
0.0
 13
17.01129638069964
 23
9.387214498279263
 33
0.0
  0
SOLID
  5
518
330
3D5
100
AcDbEntity
  8
clampdim
 62
     0
100
AcDbTrace
 10
17.50329638069964
 20
9.417214498279262
 30
0.0
 11
17.50329638069964
 21
9.357214498279263
 31
0.0
 12
17.32329638069964
 22
9.387214498279263
 32
0.0
 13
17.32329638069964
 23
9.387214498279263
 33
0.0
  0
MTEXT
  5
519
330
3D5
100
AcDbEntity
  8
clampdim
 62
     0
100
AcDbMText
 10
18.08829638069964
 20
9.387214498279263
 30
0.0
 40
0.18
 41
0.0
 71
     5
 72
     1
  1
\A1;0.312
 73
     1
 44
1.0
  0
POINT
  5
51A
330
3D5
100
AcDbEntity
  8
Defpoints
 62
     0
100
AcDbPoint
 10
17.01129638069964
 20
10.17114308302043
 30
0.0
  0
POINT
  5
51B
330
3D5
100
AcDbEntity
  8
Defpoints
 62
     0
100
AcDbPoint
 10
17.32329638069964
 20
10.10514308302042
 30
0.0
  0
POINT
  5
51C
330
3D5
100
AcDbEntity
  8
Defpoints
 62
     0
100
AcDbPoint
 10
17.32329638069964
 20
9.387214498279263
 30
0.0
  0
ENDBLK
  5
3E1
330
3D5
100
AcDbEntity
  8
0
100
AcDbBlockEnd
  0
BLOCK
  5
3EE
330
3E3
100
AcDbEntity
  8
0
100
AcDbBlockBegin
  2
*D10
 70
     1
 10
0.0
 20
0.0
 30
0.0
  3
*D10
  1

  0
LINE
  5
51D
330
3E3
100
AcDbEntity
  8
clampdim
 62
     0
370
    -2
100
AcDbLine
 10
16.69929638069964
 20
10.04264308302043
 30
0.0
 11
16.69929638069964
 21
9.595445936520214
 31
0.0
  0
LINE
  5
51E
330
3E3
100
AcDbEntity
  8
clampdim
 62
     0
370
    -2
100
AcDbLine
 10
17.32329638069964
 20
10.04264308302043
 30
0.0
 11
17.32329638069964
 21
9.595445936520214
 31
0.0
  0
LINE
  5
51F
330
3E3
100
AcDbEntity
  8
clampdim
 62
     0
370
    -2
100
AcDbLine
 10
16.51929638069964
 20
9.775445936520213
 30
0.0
 11
16.33929638069964
 21
9.775445936520213
 31
0.0
  0
LINE
  5
520
330
3E3
100
AcDbEntity
  8
clampdim
 62
     0
370
    -2
100
AcDbLine
 10
17.50329638069964
 20
9.775445936520213
 30
0.0
 11
17.68329638069964
 21
9.775445936520213
 31
0.0
  0
SOLID
  5
521
330
3E3
100
AcDbEntity
  8
clampdim
 62
     0
100
AcDbTrace
 10
16.51929638069964
 20
9.805445936520213
 30
0.0
 11
16.51929638069964
 21
9.745445936520214
 31
0.0
 12
16.69929638069964
 22
9.775445936520213
 32
0.0
 13
16.69929638069964
 23
9.775445936520213
 33
0.0
  0
SOLID
  5
522
330
3E3
100
AcDbEntity
  8
clampdim
 62
     0
100
AcDbTrace
 10
17.50329638069964
 20
9.805445936520213
 30
0.0
 11
17.50329638069964
 21
9.745445936520214
 31
0.0
 12
17.32329638069964
 22
9.775445936520213
 32
0.0
 13
17.32329638069964
 23
9.775445936520213
 33
0.0
  0
MTEXT
  5
523
330
3E3
100
AcDbEntity
  8
clampdim
 62
     0
100
AcDbMText
 10
18.11829638069964
 20
9.775445936520213
 30
0.0
 40
0.18
 41
0.0
 71
     5
 72
     1
  1
\A1;0.624
 73
     1
 44
1.0
  0
POINT
  5
524
330
3E3
100
AcDbEntity
  8
Defpoints
 62
     0
100
AcDbPoint
 10
16.69929638069964
 20
10.10514308302042
 30
0.0
  0
POINT
  5
525
330
3E3
100
AcDbEntity
  8
Defpoints
 62
     0
100
AcDbPoint
 10
17.32329638069964
 20
10.10514308302042
 30
0.0
  0
POINT
  5
526
330
3E3
100
AcDbEntity
  8
Defpoints
 62
     0
100
AcDbPoint
 10
17.32329638069964
 20
9.775445936520213
 30
0.0
  0
ENDBLK
  5
3EF
330
3E3
100
AcDbEntity
  8
0
100
AcDbBlockEnd
  0
BLOCK
  5
3FD
330
3F1
100
AcDbEntity
  8
0
100
AcDbBlockBegin
  2
*D11
 70
     1
 10
0.0
 20
0.0
 30
0.0
  3
*D11
  1

  0
LINE
  5
527
330
3F1
100
AcDbEntity
  8
clampdim
 62
     0
370
    -2
100
AcDbLine
 10
17.38579638069964
 20
8.349441971021519
 30
0.0
 11
18.9004398480548
 21
8.349441971021519
 31
0.0
  0
LINE
  5
528
330
3F1
100
AcDbEntity
  8
clampdim
 62
     0
370
    -2
100
AcDbLine
 10
17.38579638069964
 20
8.224441971021519
 30
0.0
 11
18.9004398480548
 21
8.224441971021519
 31
0.0
  0
LINE
  5
529
330
3F1
100
AcDbEntity
  8
clampdim
 62
     0
370
    -2
100
AcDbLine
 10
18.72043984805479
 20
8.04444197102152
 30
0.0
 11
18.72043984805479
 21
7.864441971021518
 31
0.0
  0
LINE
  5
52A
330
3F1
100
AcDbEntity
  8
clampdim
 62
     0
370
    -2
100
AcDbLine
 10
18.72043984805479
 20
8.529441971021519
 30
0.0
 11
18.72043984805479
 21
8.78246933866753
 31
0.0
  0
LINE
  5
52B
330
3F1
100
AcDbEntity
  8
clampdim
 62
     0
370
    -2
100
AcDbLine
 10
18.72043984805479
 20
8.78246933866753
 30
0.0
 11
18.9004398480548
 21
8.78246933866753
 31
0.0
  0
SOLID
  5
52C
330
3F1
100
AcDbEntity
  8
clampdim
 62
     0
100
AcDbTrace
 10
18.69043984805479
 20
8.04444197102152
 30
0.0
 11
18.75043984805479
 21
8.04444197102152
 31
0.0
 12
18.72043984805479
 22
8.224441971021519
 32
0.0
 13
18.72043984805479
 23
8.224441971021519
 33
0.0
  0
SOLID
  5
52D
330
3F1
100
AcDbEntity
  8
clampdim
 62
     0
100
AcDbTrace
 10
18.69043984805479
 20
8.529441971021519
 30
0.0
 11
18.75043984805479
 21
8.529441971021519
 31
0.0
 12
18.72043984805479
 22
8.349441971021519
 32
0.0
 13
18.72043984805479
 23
8.349441971021519
 33
0.0
  0
MTEXT
  5
52E
330
3F1
100
AcDbEntity
  8
clampdim
 62
     0
100
AcDbMText
 10
19.30543984805479
 20
8.782469338667532
 30
0.0
 40
0.18
 41
0.0
 71
     5
 72
     1
  1
\A1;0.125
 73
     1
 44
1.0
  0
POINT
  5
52F
330
3F1
100
AcDbEntity
  8
Defpoints
 62
     0
100
AcDbPoint
 10
17.32329638069964
 20
8.349441971021519
 30
0.0
  0
POINT
  5
530
330
3F1
100
AcDbEntity
  8
Defpoints
 62
     0
100
AcDbPoint
 10
17.32329638069964
 20
8.224441971021519
 30
0.0
  0
POINT
  5
531
330
3F1
100
AcDbEntity
  8
Defpoints
 62
     0
100
AcDbPoint
 10
18.72043984805479
 20
8.224441971021519
 30
0.0
  0
ENDBLK
  5
3FE
330
3F1
100
AcDbEntity
  8
0
100
AcDbBlockEnd
  0
BLOCK
  5
40C
330
400
100
AcDbEntity
  8
0
100
AcDbBlockBegin
  2
*D12
 70
     1
 10
0.0
 20
0.0
 30
0.0
  3
*D12
  1

  0
LINE
  5
532
330
400
100
AcDbEntity
  8
clampdim
 62
     0
370
    -2
100
AcDbLine
 10
16.69879638069964
 20
8.224441971021519
 30
0.0
 11
15.96823573393508
 21
8.224441971021519
 31
0.0
  0
LINE
  5
533
330
400
100
AcDbEntity
  8
clampdim
 62
     0
370
    -2
100
AcDbLine
 10
16.63679638069964
 20
8.256441971021519
 30
0.0
 11
15.96823573393508
 21
8.256441971021519
 31
0.0
  0
LINE
  5
534
330
400
100
AcDbEntity
  8
clampdim
 62
     0
370
    -2
100
AcDbLine
 10
16.14823573393508
 20
8.436441971021519
 30
0.0
 11
16.14823573393508
 21
8.616441971021519
 31
0.0
  0
LINE
  5
535
330
400
100
AcDbEntity
  8
clampdim
 62
     0
370
    -2
100
AcDbLine
 10
16.14823573393508
 20
8.04444197102152
 30
0.0
 11
16.14823573393508
 21
7.864441971021519
 31
0.0
  0
LINE
  5
536
330
400
100
AcDbEntity
  8
clampdim
 62
     0
370
    -2
100
AcDbLine
 10
16.14823573393508
 20
7.864441971021519
 30
0.0
 11
15.96823573393508
 21
7.864441971021519
 31
0.0
  0
SOLID
  5
537
330
400
100
AcDbEntity
  8
clampdim
 62
     0
100
AcDbTrace
 10
16.11823573393508
 20
8.436441971021519
 30
0.0
 11
16.17823573393508
 21
8.436441971021519
 31
0.0
 12
16.14823573393508
 22
8.256441971021519
 32
0.0
 13
16.14823573393508
 23
8.256441971021519
 33
0.0
  0
SOLID
  5
538
330
400
100
AcDbEntity
  8
clampdim
 62
     0
100
AcDbTrace
 10
16.11823573393508
 20
8.04444197102152
 30
0.0
 11
16.17823573393508
 21
8.04444197102152
 31
0.0
 12
16.14823573393508
 22
8.224441971021519
 32
0.0
 13
16.14823573393508
 23
8.224441971021519
 33
0.0
  0
MTEXT
  5
539
330
400
100
AcDbEntity
  8
clampdim
 62
     0
100
AcDbMText
 10
15.54823573393508
 20
7.864441971021522
 30
0.0
 40
0.18
 41
0.0
 71
     5
 72
     1
  1
\A1;0.032
 73
     1
 44
1.0
  0
POINT
  5
53A
330
400
100
AcDbEntity
  8
Defpoints
 62
     0
100
AcDbPoint
 10
16.76129638069964
 20
8.224441971021519
 30
0.0
  0
POINT
  5
53B
330
400
100
AcDbEntity
  8
Defpoints
 62
     0
100
AcDbPoint
 10
16.69929638069963
 20
8.256441971021519
 30
0.0
  0
POINT
  5
53C
330
400
100
AcDbEntity
  8
Defpoints
 62
     0
100
AcDbPoint
 10
16.14823573393508
 20
8.256441971021519
 30
0.0
  0
ENDBLK
  5
40D
330
400
100
AcDbEntity
  8
0
100
AcDbBlockEnd
  0
BLOCK
  5
41A
330
40F
100
AcDbEntity
  8
0
100
AcDbBlockBegin
  2
*D13
 70
     1
 10
0.0
 20
0.0
 30
0.0
  3
*D13
  1

  0
LINE
  5
53D
330
40F
100
AcDbEntity
  8
clampdim
 62
     0
370
    -2
100
AcDbLine
 10
16.69929638069963
 20
8.193941971021518
 30
0.0
 11
16.69929638069963
 21
7.276534001538912
 31
0.0
  0
LINE
  5
53E
330
40F
100
AcDbEntity
  8
clampdim
 62
     0
370
    -2
100
AcDbLine
 10
16.76129638069963
 20
8.161941971021519
 30
0.0
 11
16.76129638069963
 21
7.276534001538912
 31
0.0
  0
LINE
  5
53F
330
40F
100
AcDbEntity
  8
clampdim
 62
     0
370
    -2
100
AcDbLine
 10
16.94129638069963
 20
7.456534001538912
 30
0.0
 11
17.12129638069963
 21
7.456534001538912
 31
0.0
  0
LINE
  5
540
330
40F
100
AcDbEntity
  8
clampdim
 62
     0
370
    -2
100
AcDbLine
 10
16.51929638069963
 20
7.456534001538912
 30
0.0
 11
16.33929638069964
 21
7.456534001538912
 31
0.0
  0
SOLID
  5
541
330
40F
100
AcDbEntity
  8
clampdim
 62
     0
100
AcDbTrace
 10
16.94129638069963
 20
7.486534001538912
 30
0.0
 11
16.94129638069963
 21
7.426534001538912
 31
0.0
 12
16.76129638069963
 22
7.456534001538912
 32
0.0
 13
16.76129638069963
 23
7.456534001538912
 33
0.0
  0
SOLID
  5
542
330
40F
100
AcDbEntity
  8
clampdim
 62
     0
100
AcDbTrace
 10
16.51929638069963
 20
7.486534001538912
 30
0.0
 11
16.51929638069963
 21
7.426534001538912
 31
0.0
 12
16.69929638069963
 22
7.456534001538912
 32
0.0
 13
16.69929638069963
 23
7.456534001538912
 33
0.0
  0
MTEXT
  5
543
330
40F
100
AcDbEntity
  8
clampdim
 62
     0
100
AcDbMText
 10
15.91929638069964
 20
7.456534001538912
 30
0.0
 40
0.18
 41
0.0
 71
     5
 72
     1
  1
\A1;0.062
 73
     1
 44
1.0
  0
POINT
  5
544
330
40F
100
AcDbEntity
  8
Defpoints
 62
     0
100
AcDbPoint
 10
16.69929638069963
 20
8.256441971021518
 30
0.0
  0
POINT
  5
545
330
40F
100
AcDbEntity
  8
Defpoints
 62
     0
100
AcDbPoint
 10
16.76129638069963
 20
8.224441971021519
 30
0.0
  0
POINT
  5
546
330
40F
100
AcDbEntity
  8
Defpoints
 62
     0
100
AcDbPoint
 10
16.76129638069963
 20
7.456534001538912
 30
0.0
  0
ENDBLK
  5
41B
330
40F
100
AcDbEntity
  8
0
100
AcDbBlockEnd
  0
BLOCK
  5
426
330
41D
100
AcDbEntity
  8
0
100
AcDbBlockBegin
  2
*D14
 70
     1
 10
0.0
 20
0.0
 30
0.0
  3
*D14
  1

  0
LINE
  5
547
330
41D
100
AcDbEntity
  8
clampdim
 62
     0
370
    -2
100
AcDbLine
 10
16.82913999181045
 20
10.72606404008586
 30
0.0
 11
15.97680004587337
 21
9.977027656390779
 31
0.0
  0
LINE
  5
548
330
41D
100
AcDbEntity
  8
clampdim
 62
     0
370
    -2
100
AcDbLine
 10
15.97680004587337
 20
9.977027656390779
 30
0.0
 11
15.79680004587337
 21
9.977027656390779
 31
0.0
  0
SOLID
  5
549
330
41D
100
AcDbEntity
  8
clampdim
 62
     0
100
AcDbTrace
 10
16.80933639887009
 20
10.74859885108246
 30
0.0
 11
16.84894358475081
 21
10.70352922908926
 31
0.0
 12
16.96434885779006
 22
10.84488559772802
 32
0.0
 13
16.96434885779006
 23
10.84488559772802
 33
0.0
  0
MTEXT
  5
54A
330
41D
100
AcDbEntity
  8
clampdim
 62
     0
100
AcDbMText
 10
15.28680004587337
 20
9.977027656390788
 30
0.0
 40
0.18
 41
0.0
 71
     5
 72
     1
  1
\A1;R0.063
 73
     1
 44
1.0
  0
LINE
  5
54B
330
41D
100
AcDbEntity
  8
clampdim
 62
     0
370
    -2
100
AcDbLine
 10
16.9212963806996
 20
10.8861430830204
 30
0.0
 11
17.1012963806996
 21
10.8861430830204
 31
0.0
  0
LINE
  5
54C
330
41D
100
AcDbEntity
  8
clampdim
 62
     0
370
    -2
100
AcDbLine
 10
17.0112963806996
 20
10.7961430830204
 30
0.0
 11
17.0112963806996
 21
10.9761430830204
 31
0.0
  0
POINT
  5
54D
330
41D
100
AcDbEntity
  8
Defpoints
 62
     0
100
AcDbPoint
 10
16.96434885779006
 20
10.84488559772802
 30
0.0
  0
POINT
  5
54E
330
41D
100
AcDbEntity
  8
Defpoints
 62
     0
100
AcDbPoint
 10
17.0112963806996
 20
10.8861430830204
 30
0.0
  0
ENDBLK
  5
427
330
41D
100
AcDbEntity
  8
0
100
AcDbBlockEnd
  0
BLOCK
  5
590
330
585
100
AcDbEntity
  8
0
100
AcDbBlockBegin
  2
*D15
 70
     1
 10
0.0
 20
0.0
 30
0.0
  3
*D15
  1

  0
LINE
  5
586
330
585
100
AcDbEntity
  8
dim
 62
     0
370
    -2
100
AcDbLine
 10
1.8504
 20
10.0625
 30
0.0
 11
1.8504
 21
10.53849696431169
 31
0.0
  0
LINE
  5
587
330
585
100
AcDbEntity
  8
dim
 62
     0
370
    -2
100
AcDbLine
 10
2.8346
 20
7.176099999999999
 30
0.0
 11
2.8346
 21
10.53849696431169
 31
0.0
  0
LINE
  5
588
330
585
100
AcDbEntity
  8
dim
 62
     0
370
    -2
100
AcDbLine
 10
1.6704
 20
10.35849696431169
 30
0.0
 11
1.4904
 21
10.35849696431169
 31
0.0
  0
LINE
  5
589
330
585
100
AcDbEntity
  8
dim
 62
     0
370
    -2
100
AcDbLine
 10
3.0146
 20
10.35849696431169
 30
0.0
 11
3.194599999999999
 21
10.35849696431169
 31
0.0
  0
SOLID
  5
58A
330
585
100
AcDbEntity
  8
dim
 62
     0
100
AcDbTrace
 10
1.6704
 20
10.38849696431169
 30
0.0
 11
1.6704
 21
10.32849696431169
 31
0.0
 12
1.8504
 22
10.35849696431169
 32
0.0
 13
1.8504
 23
10.35849696431169
 33
0.0
  0
SOLID
  5
58B
330
585
100
AcDbEntity
  8
dim
 62
     0
100
AcDbTrace
 10
3.0146
 20
10.38849696431169
 30
0.0
 11
3.0146
 21
10.32849696431169
 31
0.0
 12
2.8346
 22
10.35849696431169
 32
0.0
 13
2.8346
 23
10.35849696431169
 33
0.0
  0
MTEXT
  5
58C
330
585
100
AcDbEntity
  8
dim
 62
     0
100
AcDbMText
 10
2.353803137112386
 20
10.35849696431169
 30
0.0
 40
0.18
 41
0.0
 71
     5
 72
     1
  1
\A1;0.984
 73
     1
 44
1.0
  0
POINT
  5
58D
330
585
100
AcDbEntity
  8
Defpoints
 62
     0
100
AcDbPoint
 10
1.8504
 20
10.0
 30
0.0
  0
POINT
  5
58E
330
585
100
AcDbEntity
  8
Defpoints
 62
     0
100
AcDbPoint
 10
2.8346
 20
7.113599999999999
 30
0.0
  0
POINT
  5
58F
330
585
100
AcDbEntity
  8
Defpoints
 62
     0
100
AcDbPoint
 10
2.8346
 20
10.35849696431169
 30
0.0
  0
ENDBLK
  5
591
330
585
100
AcDbEntity
  8
0
100
AcDbBlockEnd
  0
BLOCK
  5
59E
330
593
100
AcDbEntity
  8
0
100
AcDbBlockBegin
  2
*D16
 70
     1
 10
0.0
 20
0.0
 30
0.0
  3
*D16
  1

  0
LINE
  5
594
330
593
100
AcDbEntity
  8
dim
 62
     0
370
    -2
100
AcDbLine
 10
3.077399999999999
 20
6.679
 30
0.0
 11
3.0774
 21
10.97388334285785
 31
0.0
  0
LINE
  5
595
330
593
100
AcDbEntity
  8
dim
 62
     0
370
    -2
100
AcDbLine
 10
1.8504
 20
10.0625
 30
0.0
 11
1.8504
 21
10.97388334285785
 31
0.0
  0
LINE
  5
596
330
593
100
AcDbEntity
  8
dim
 62
     0
370
    -2
100
AcDbLine
 10
2.8974
 20
10.79388334285786
 30
0.0
 11
2.875458731141767
 21
10.79388334285786
 31
0.0
  0
LINE
  5
597
330
593
100
AcDbEntity
  8
dim
 62
     0
370
    -2
100
AcDbLine
 10
2.0304
 20
10.79388334285786
 30
0.0
 11
2.035458731141767
 21
10.79388334285786
 31
0.0
  0
SOLID
  5
598
330
593
100
AcDbEntity
  8
dim
 62
     0
100
AcDbTrace
 10
2.8974
 20
10.82388334285786
 30
0.0
 11
2.8974
 21
10.76388334285786
 31
0.0
 12
3.0774
 22
10.79388334285786
 32
0.0
 13
3.0774
 23
10.79388334285786
 33
0.0
  0
SOLID
  5
599
330
593
100
AcDbEntity
  8
dim
 62
     0
100
AcDbTrace
 10
2.0304
 20
10.82388334285786
 30
0.0
 11
2.0304
 21
10.76388334285786
 31
0.0
 12
1.8504
 22
10.79388334285786
 32
0.0
 13
1.8504
 23
10.79388334285786
 33
0.0
  0
MTEXT
  5
59A
330
593
100
AcDbEntity
  8
dim
 62
     0
100
AcDbMText
 10
2.455458731141767
 20
10.79388334285786
 30
0.0
 40
0.18
 41
0.0
 71
     5
 72
     1
  1
\A1;1.227
 73
     1
 44
1.0
  0
POINT
  5
59B
330
593
100
AcDbEntity
  8
Defpoints
 62
     0
100
AcDbPoint
 10
3.077399999999999
 20
6.6165
 30
0.0
  0
POINT
  5
59C
330
593
100
AcDbEntity
  8
Defpoints
 62
     0
100
AcDbPoint
 10
1.8504
 20
10.0
 30
0.0
  0
POINT
  5
59D
330
593
100
AcDbEntity
  8
Defpoints
 62
     0
100
AcDbPoint
 10
1.8504
 20
10.79388334285786
 30
0.0
  0
ENDBLK
  5
59F
330
593
100
AcDbEntity
  8
0
100
AcDbBlockEnd
  0
BLOCK
  5
60E
330
603
100
AcDbEntity
  8
0
100
AcDbBlockBegin
  2
*D17
 70
     1
 10
0.0
 20
0.0
 30
0.0
  3
*D17
  1

  0
LINE
  5
604
330
603
100
AcDbEntity
  8
dim
 62
     0
370
    -2
100
AcDbLine
 10
7.165399999999999
 20
7.176099999999998
 30
0.0
 11
7.165399999999999
 21
13.40379573640221
 31
0.0
  0
LINE
  5
605
330
603
100
AcDbEntity
  8
dim
 62
     0
370
    -2
100
AcDbLine
 10
1.8504
 20
10.0625
 30
0.0
 11
1.8504
 21
13.40379573640221
 31
0.0
  0
LINE
  5
606
330
603
100
AcDbEntity
  8
dim
 62
     0
370
    -2
100
AcDbLine
 10
6.9854
 20
13.22379573640221
 30
0.0
 11
4.915217650560974
 21
13.22379573640221
 31
0.0
  0
LINE
  5
607
330
603
100
AcDbEntity
  8
dim
 62
     0
370
    -2
100
AcDbLine
 10
2.0304
 20
13.22379573640221
 30
0.0
 11
4.075217650560974
 21
13.22379573640221
 31
0.0
  0
SOLID
  5
608
330
603
100
AcDbEntity
  8
dim
 62
     0
100
AcDbTrace
 10
6.9854
 20
13.25379573640221
 30
0.0
 11
6.9854
 21
13.19379573640221
 31
0.0
 12
7.165399999999999
 22
13.22379573640221
 32
0.0
 13
7.165399999999999
 23
13.22379573640221
 33
0.0
  0
SOLID
  5
609
330
603
100
AcDbEntity
  8
dim
 62
     0
100
AcDbTrace
 10
2.0304
 20
13.25379573640221
 30
0.0
 11
2.0304
 21
13.19379573640221
 31
0.0
 12
1.8504
 22
13.22379573640221
 32
0.0
 13
1.8504
 23
13.22379573640221
 33
0.0
  0
MTEXT
  5
60A
330
603
100
AcDbEntity
  8
dim
 62
     0
100
AcDbMText
 10
4.495217650560974
 20
13.22379573640221
 30
0.0
 40
0.18
 41
0.0
 71
     5
 72
     1
  1
\A1;5.315
 73
     1
 44
1.0
  0
POINT
  5
60B
330
603
100
AcDbEntity
  8
Defpoints
 62
     0
100
AcDbPoint
 10
7.165399999999999
 20
7.113599999999998
 30
0.0
  0
POINT
  5
60C
330
603
100
AcDbEntity
  8
Defpoints
 62
     0
100
AcDbPoint
 10
1.8504
 20
10.0
 30
0.0
  0
POINT
  5
60D
330
603
100
AcDbEntity
  8
Defpoints
 62
     0
100
AcDbPoint
 10
1.8504
 20
13.22379573640221
 30
0.0
  0
ENDBLK
  5
60F
330
603
100
AcDbEntity
  8
0
100
AcDbBlockEnd
  0
BLOCK
  5
61C
330
611
100
AcDbEntity
  8
0
100
AcDbBlockBegin
  2
*D18
 70
     1
 10
0.0
 20
0.0
 30
0.0
  3
*D18
  1

  0
LINE
  5
612
330
611
100
AcDbEntity
  8
dim
 62
     0
370
    -2
100
AcDbLine
 10
8.149599999999999
 20
10.06249999999999
 30
0.0
 11
8.149599999999999
 21
13.70127597554692
 31
0.0
  0
LINE
  5
613
330
611
100
AcDbEntity
  8
dim
 62
     0
370
    -2
100
AcDbLine
 10
1.8504
 20
10.0625
 30
0.0
 11
1.8504
 21
13.70127597554692
 31
0.0
  0
LINE
  5
614
330
611
100
AcDbEntity
  8
dim
 62
     0
370
    -2
100
AcDbLine
 10
7.969599999999999
 20
13.52127597554692
 30
0.0
 11
4.850521537983465
 21
13.52127597554692
 31
0.0
  0
LINE
  5
615
330
611
100
AcDbEntity
  8
dim
 62
     0
370
    -2
100
AcDbLine
 10
2.0304
 20
13.52127597554692
 30
0.0
 11
3.950521537983465
 21
13.52127597554692
 31
0.0
  0
SOLID
  5
616
330
611
100
AcDbEntity
  8
dim
 62
     0
100
AcDbTrace
 10
7.969599999999999
 20
13.55127597554692
 30
0.0
 11
7.969599999999999
 21
13.49127597554693
 31
0.0
 12
8.149599999999999
 22
13.52127597554692
 32
0.0
 13
8.149599999999999
 23
13.52127597554692
 33
0.0
  0
SOLID
  5
617
330
611
100
AcDbEntity
  8
dim
 62
     0
100
AcDbTrace
 10
2.0304
 20
13.55127597554692
 30
0.0
 11
2.0304
 21
13.49127597554693
 31
0.0
 12
1.8504
 22
13.52127597554692
 32
0.0
 13
1.8504
 23
13.52127597554692
 33
0.0
  0
MTEXT
  5
618
330
611
100
AcDbEntity
  8
dim
 62
     0
100
AcDbMText
 10
4.400521537983465
 20
13.52127597554692
 30
0.0
 40
0.18
 41
0.0
 71
     5
 72
     1
  1
\A1;6.299
 73
     1
 44
1.0
  0
POINT
  5
619
330
611
100
AcDbEntity
  8
Defpoints
 62
     0
100
AcDbPoint
 10
8.149599999999999
 20
9.999999999999998
 30
0.0
  0
POINT
  5
61A
330
611
100
AcDbEntity
  8
Defpoints
 62
     0
100
AcDbPoint
 10
1.8504
 20
10.0
 30
0.0
  0
POINT
  5
61B
330
611
100
AcDbEntity
  8
Defpoints
 62
     0
100
AcDbPoint
 10
1.8504
 20
13.52127597554692
 30
0.0
  0
ENDBLK
  5
61D
330
611
100
AcDbEntity
  8
0
100
AcDbBlockEnd
  0
BLOCK
  5
62A
330
61F
100
AcDbEntity
  8
0
100
AcDbBlockBegin
  2
*D19
 70
     1
 10
0.0
 20
0.0
 30
0.0
  3
*D19
  1

  0
LINE
  5
620
330
61F
100
AcDbEntity
  8
dim
 62
     0
370
    -2
100
AcDbLine
 10
3.092399999999999
 20
5.9375
 30
0.0
 11
3.092399999999999
 21
5.459317897182081
 31
0.0
  0
LINE
  5
621
330
61F
100
AcDbEntity
  8
dim
 62
     0
370
    -2
100
AcDbLine
 10
1.8504
 20
5.9375
 30
0.0
 11
1.8504
 21
5.459317897182081
 31
0.0
  0
LINE
  5
622
330
61F
100
AcDbEntity
  8
dim
 62
     0
370
    -2
100
AcDbLine
 10
3.272399999999999
 20
5.639317897182081
 30
0.0
 11
3.452399999999999
 21
5.639317897182081
 31
0.0
  0
LINE
  5
623
330
61F
100
AcDbEntity
  8
dim
 62
     0
370
    -2
100
AcDbLine
 10
1.6704
 20
5.639317897182081
 30
0.0
 11
1.4904
 21
5.639317897182081
 31
0.0
  0
SOLID
  5
624
330
61F
100
AcDbEntity
  8
dim
 62
     0
100
AcDbTrace
 10
3.272399999999999
 20
5.669317897182081
 30
0.0
 11
3.272399999999999
 21
5.609317897182081
 31
0.0
 12
3.092399999999999
 22
5.639317897182081
 32
0.0
 13
3.092399999999999
 23
5.639317897182081
 33
0.0
  0
SOLID
  5
625
330
61F
100
AcDbEntity
  8
dim
 62
     0
100
AcDbTrace
 10
1.6704
 20
5.669317897182081
 30
0.0
 11
1.6704
 21
5.609317897182081
 31
0.0
 12
1.8504
 22
5.639317897182081
 32
0.0
 13
1.8504
 23
5.639317897182081
 33
0.0
  0
MTEXT
  5
626
330
61F
100
AcDbEntity
  8
dim
 62
     0
100
AcDbMText
 10
2.417584533126543
 20
5.639317897182081
 30
0.0
 40
0.18
 41
0.0
 71
     5
 72
     1
  1
\A1;1.242
 73
     1
 44
1.0
  0
POINT
  5
627
330
61F
100
AcDbEntity
  8
Defpoints
 62
     0
100
AcDbPoint
 10
3.092399999999999
 20
6.0
 30
0.0
  0
POINT
  5
628
330
61F
100
AcDbEntity
  8
Defpoints
 62
     0
100
AcDbPoint
 10
1.8504
 20
6.0
 30
0.0
  0
POINT
  5
629
330
61F
100
AcDbEntity
  8
Defpoints
 62
     0
100
AcDbPoint
 10
1.8504
 20
5.639317897182081
 30
0.0
  0
ENDBLK
  5
62B
330
61F
100
AcDbEntity
  8
0
100
AcDbBlockEnd
  0
BLOCK
  5
663
330
657
100
AcDbEntity
  8
0
100
AcDbBlockBegin
  2
*D20
 70
     1
 10
0.0
 20
0.0
 30
0.0
  3
*D20
  1

  0
LINE
  5
658
330
657
100
AcDbEntity
  8
dim
 62
     0
370
    -2
100
AcDbLine
 10
4.9367
 20
9.7591
 30
0.0
 11
8.576292036772331
 21
9.7591
 31
0.0
  0
LINE
  5
659
330
657
100
AcDbEntity
  8
dim
 62
     0
370
    -2
100
AcDbLine
 10
8.212099999999999
 20
9.999999999999998
 30
0.0
 11
8.576292036772331
 21
9.999999999999998
 31
0.0
  0
LINE
  5
65A
330
657
100
AcDbEntity
  8
dim
 62
     0
370
    -2
100
AcDbLine
 10
8.396292036772331
 20
9.5791
 30
0.0
 11
8.396292036772331
 21
9.3991
 31
0.0
  0
LINE
  5
65B
330
657
100
AcDbEntity
  8
dim
 62
     0
370
    -2
100
AcDbLine
 10
8.396292036772331
 20
10.17999999999999
 30
0.0
 11
8.396292036772331
 21
10.62605824722778
 31
0.0
  0
LINE
  5
65C
330
657
100
AcDbEntity
  8
dim
 62
     0
370
    -2
100
AcDbLine
 10
8.396292036772331
 20
10.62605824722778
 30
0.0
 11
8.576292036772331
 21
10.62605824722778
 31
0.0
  0
SOLID
  5
65D
330
657
100
AcDbEntity
  8
dim
 62
     0
100
AcDbTrace
 10
8.366292036772332
 20
9.5791
 30
0.0
 11
8.426292036772331
 21
9.5791
 31
0.0
 12
8.396292036772331
 22
9.7591
 32
0.0
 13
8.396292036772331
 23
9.7591
 33
0.0
  0
SOLID
  5
65E
330
657
100
AcDbEntity
  8
dim
 62
     0
100
AcDbTrace
 10
8.366292036772332
 20
10.17999999999999
 30
0.0
 11
8.426292036772331
 21
10.17999999999999
 31
0.0
 12
8.396292036772331
 22
9.999999999999998
 32
0.0
 13
8.396292036772331
 23
9.999999999999998
 33
0.0
  0
MTEXT
  5
65F
330
657
100
AcDbEntity
  8
dim
 62
     0
100
AcDbMText
 10
8.98129203677233
 20
10.62605824722778
 30
0.0
 40
0.18
 41
0.0
 71
     5
 72
     1
  1
\A1;0.241
 73
     1
 44
1.0
  0
POINT
  5
660
330
657
100
AcDbEntity
  8
Defpoints
 62
     0
100
AcDbPoint
 10
4.8742
 20
9.7591
 30
0.0
  0
POINT
  5
661
330
657
100
AcDbEntity
  8
Defpoints
 62
     0
100
AcDbPoint
 10
8.149599999999999
 20
9.999999999999998
 30
0.0
  0
POINT
  5
662
330
657
100
AcDbEntity
  8
Defpoints
 62
     0
100
AcDbPoint
 10
8.396292036772331
 20
9.999999999999998
 30
0.0
  0
ENDBLK
  5
664
330
657
100
AcDbEntity
  8
0
100
AcDbBlockEnd
  0
BLOCK
  5
69B
330
690
100
AcDbEntity
  8
0
100
AcDbBlockBegin
  2
*D21
 70
     1
 10
0.0
 20
0.0
 30
0.0
  3
*D21
  1

  0
LINE
  5
691
330
690
100
AcDbEntity
  8
dim
 62
     0
370
    -2
100
AcDbLine
 10
6.3205
 20
7.584999999999999
 30
0.0
 11
10.31639860240519
 21
7.584999999999999
 31
0.0
  0
LINE
  5
692
330
690
100
AcDbEntity
  8
dim
 62
     0
370
    -2
100
AcDbLine
 10
8.212099999999999
 20
9.999999999999998
 30
0.0
 11
10.31639860240519
 21
9.999999999999998
 31
0.0
  0
LINE
  5
693
330
690
100
AcDbEntity
  8
dim
 62
     0
370
    -2
100
AcDbLine
 10
10.13639860240519
 20
7.764999999999998
 30
0.0
 11
10.13639860240519
 21
8.659035793412469
 31
0.0
  0
LINE
  5
694
330
690
100
AcDbEntity
  8
dim
 62
     0
370
    -2
100
AcDbLine
 10
10.13639860240519
 20
9.819999999999998
 30
0.0
 11
10.13639860240519
 21
9.019035793412468
 31
0.0
  0
SOLID
  5
695
330
690
100
AcDbEntity
  8
dim
 62
     0
100
AcDbTrace
 10
10.10639860240519
 20
7.764999999999998
 30
0.0
 11
10.16639860240519
 21
7.764999999999998
 31
0.0
 12
10.13639860240519
 22
7.584999999999999
 32
0.0
 13
10.13639860240519
 23
7.584999999999999
 33
0.0
  0
SOLID
  5
696
330
690
100
AcDbEntity
  8
dim
 62
     0
100
AcDbTrace
 10
10.10639860240519
 20
9.819999999999998
 30
0.0
 11
10.16639860240519
 21
9.819999999999998
 31
0.0
 12
10.13639860240519
 22
9.999999999999998
 32
0.0
 13
10.13639860240519
 23
9.999999999999998
 33
0.0
  0
MTEXT
  5
697
330
690
100
AcDbEntity
  8
dim
 62
     0
100
AcDbMText
 10
10.13639860240519
 20
8.83903579341247
 30
0.0
 40
0.18
 41
0.0
 71
     5
 72
     1
  1
\A1;2.415
 73
     1
 44
1.0
  0
POINT
  5
698
330
690
100
AcDbEntity
  8
Defpoints
 62
     0
100
AcDbPoint
 10
6.258
 20
7.584999999999999
 30
0.0
  0
POINT
  5
699
330
690
100
AcDbEntity
  8
Defpoints
 62
     0
100
AcDbPoint
 10
8.149599999999999
 20
9.999999999999998
 30
0.0
  0
POINT
  5
69A
330
690
100
AcDbEntity
  8
Defpoints
 62
     0
100
AcDbPoint
 10
10.13639860240519
 20
9.999999999999998
 30
0.0
  0
ENDBLK
  5
69C
330
690
100
AcDbEntity
  8
0
100
AcDbBlockEnd
  0
BLOCK
  5
6A9
330
69E
100
AcDbEntity
  8
0
100
AcDbBlockBegin
  2
*D22
 70
     1
 10
0.0
 20
0.0
 30
0.0
  3
*D22
  1

  0
LINE
  5
69F
330
69E
100
AcDbEntity
  8
dim
 62
     0
370
    -2
100
AcDbLine
 10
6.839999999999999
 20
7.397
 30
0.0
 11
10.75048321561006
 21
7.396999999999999
 31
0.0
  0
LINE
  5
6A0
330
69E
100
AcDbEntity
  8
dim
 62
     0
370
    -2
100
AcDbLine
 10
8.212099999999999
 20
9.999999999999998
 30
0.0
 11
10.75048321561006
 21
9.999999999999998
 31
0.0
  0
LINE
  5
6A1
330
69E
100
AcDbEntity
  8
dim
 62
     0
370
    -2
100
AcDbLine
 10
10.57048321561006
 20
7.576999999999999
 30
0.0
 11
10.57048321561006
 21
8.313397684931699
 31
0.0
  0
LINE
  5
6A2
330
69E
100
AcDbEntity
  8
dim
 62
     0
370
    -2
100
AcDbLine
 10
10.57048321561006
 20
9.819999999999998
 30
0.0
 11
10.57048321561006
 21
8.673397684931698
 31
0.0
  0
SOLID
  5
6A3
330
69E
100
AcDbEntity
  8
dim
 62
     0
100
AcDbTrace
 10
10.54048321561006
 20
7.576999999999999
 30
0.0
 11
10.60048321561006
 21
7.576999999999999
 31
0.0
 12
10.57048321561006
 22
7.396999999999999
 32
0.0
 13
10.57048321561006
 23
7.396999999999999
 33
0.0
  0
SOLID
  5
6A4
330
69E
100
AcDbEntity
  8
dim
 62
     0
100
AcDbTrace
 10
10.54048321561006
 20
9.819999999999998
 30
0.0
 11
10.60048321561006
 21
9.819999999999998
 31
0.0
 12
10.57048321561006
 22
9.999999999999998
 32
0.0
 13
10.57048321561006
 23
9.999999999999998
 33
0.0
  0
MTEXT
  5
6A5
330
69E
100
AcDbEntity
  8
dim
 62
     0
100
AcDbMText
 10
10.57048321561006
 20
8.4933976849317
 30
0.0
 40
0.18
 41
0.0
 71
     5
 72
     1
  1
\A1;2.603
 73
     1
 44
1.0
  0
POINT
  5
6A6
330
69E
100
AcDbEntity
  8
Defpoints
 62
     0
100
AcDbPoint
 10
6.777499999999999
 20
7.397
 30
0.0
  0
POINT
  5
6A7
330
69E
100
AcDbEntity
  8
Defpoints
 62
     0
100
AcDbPoint
 10
8.149599999999999
 20
9.999999999999998
 30
0.0
  0
POINT
  5
6A8
330
69E
100
AcDbEntity
  8
Defpoints
 62
     0
100
AcDbPoint
 10
10.57048321561006
 20
9.999999999999998
 30
0.0
  0
ENDBLK
  5
6AA
330
69E
100
AcDbEntity
  8
0
100
AcDbBlockEnd
  0
BLOCK
  5
6B7
330
6AC
100
AcDbEntity
  8
0
100
AcDbBlockBegin
  2
*D23
 70
     1
 10
0.0
 20
0.0
 30
0.0
  3
*D23
  1

  0
LINE
  5
6AD
330
6AC
100
AcDbEntity
  8
dim
 62
     0
370
    -2
100
AcDbLine
 10
7.317899999999999
 20
7.023599999999998
 30
0.0
 11
11.21399735248181
 21
7.023599999999997
 31
0.0
  0
LINE
  5
6AE
330
6AC
100
AcDbEntity
  8
dim
 62
     0
370
    -2
100
AcDbLine
 10
8.212099999999999
 20
9.999999999999998
 30
0.0
 11
11.21399735248181
 21
9.999999999999998
 31
0.0
  0
LINE
  5
6AF
330
6AC
100
AcDbEntity
  8
dim
 62
     0
370
    -2
100
AcDbLine
 10
11.03399735248181
 20
7.203599999999997
 30
0.0
 11
11.03399735248181
 21
7.820679572630891
 31
0.0
  0
LINE
  5
6B0
330
6AC
100
AcDbEntity
  8
dim
 62
     0
370
    -2
100
AcDbLine
 10
11.03399735248181
 20
9.819999999999998
 30
0.0
 11
11.03399735248181
 21
8.180679572630891
 31
0.0
  0
SOLID
  5
6B1
330
6AC
100
AcDbEntity
  8
dim
 62
     0
100
AcDbTrace
 10
11.00399735248181
 20
7.203599999999997
 30
0.0
 11
11.06399735248181
 21
7.203599999999997
 31
0.0
 12
11.03399735248181
 22
7.023599999999997
 32
0.0
 13
11.03399735248181
 23
7.023599999999997
 33
0.0
  0
SOLID
  5
6B2
330
6AC
100
AcDbEntity
  8
dim
 62
     0
100
AcDbTrace
 10
11.00399735248181
 20
9.819999999999998
 30
0.0
 11
11.06399735248181
 21
9.819999999999998
 31
0.0
 12
11.03399735248181
 22
9.999999999999998
 32
0.0
 13
11.03399735248181
 23
9.999999999999998
 33
0.0
  0
MTEXT
  5
6B3
330
6AC
100
AcDbEntity
  8
dim
 62
     0
100
AcDbMText
 10
11.03399735248181
 20
8.000679572630893
 30
0.0
 40
0.18
 41
0.0
 71
     5
 72
     1
  1
\A1;2.976
 73
     1
 44
1.0
  0
POINT
  5
6B4
330
6AC
100
AcDbEntity
  8
Defpoints
 62
     0
100
AcDbPoint
 10
7.255399999999999
 20
7.023599999999998
 30
0.0
  0
POINT
  5
6B5
330
6AC
100
AcDbEntity
  8
Defpoints
 62
     0
100
AcDbPoint
 10
8.149599999999999
 20
9.999999999999998
 30
0.0
  0
POINT
  5
6B6
330
6AC
100
AcDbEntity
  8
Defpoints
 62
     0
100
AcDbPoint
 10
11.03399735248181
 20
9.999999999999998
 30
0.0
  0
ENDBLK
  5
6B8
330
6AC
100
AcDbEntity
  8
0
100
AcDbBlockEnd
  0
BLOCK
  5
6C5
330
6BA
100
AcDbEntity
  8
0
100
AcDbBlockBegin
  2
*D24
 70
     1
 10
0.0
 20
0.0
 30
0.0
  3
*D24
  1

  0
LINE
  5
6BB
330
6BA
100
AcDbEntity
  8
dim
 62
     0
370
    -2
100
AcDbLine
 10
8.212099999999999
 20
9.999999999999998
 30
0.0
 11
11.68232622783685
 21
9.999999999999998
 31
0.0
  0
LINE
  5
6BC
330
6BA
100
AcDbEntity
  8
dim
 62
     0
370
    -2
100
AcDbLine
 10
6.839999999999999
 20
6.772
 30
0.0
 11
11.68232622783685
 21
6.771999999999999
 31
0.0
  0
LINE
  5
6BD
330
6BA
100
AcDbEntity
  8
dim
 62
     0
370
    -2
100
AcDbLine
 10
11.50232622783685
 20
9.819999999999998
 30
0.0
 11
11.50232622783685
 21
7.797954374984774
 31
0.0
  0
LINE
  5
6BE
330
6BA
100
AcDbEntity
  8
dim
 62
     0
370
    -2
100
AcDbLine
 10
11.50232622783685
 20
6.951999999999999
 30
0.0
 11
11.50232622783685
 21
7.437954374984775
 31
0.0
  0
SOLID
  5
6BF
330
6BA
100
AcDbEntity
  8
dim
 62
     0
100
AcDbTrace
 10
11.47232622783685
 20
9.819999999999998
 30
0.0
 11
11.53232622783685
 21
9.819999999999998
 31
0.0
 12
11.50232622783685
 22
9.999999999999998
 32
0.0
 13
11.50232622783685
 23
9.999999999999998
 33
0.0
  0
SOLID
  5
6C0
330
6BA
100
AcDbEntity
  8
dim
 62
     0
100
AcDbTrace
 10
11.47232622783685
 20
6.951999999999999
 30
0.0
 11
11.53232622783685
 21
6.951999999999999
 31
0.0
 12
11.50232622783685
 22
6.771999999999999
 32
0.0
 13
11.50232622783685
 23
6.771999999999999
 33
0.0
  0
MTEXT
  5
6C1
330
6BA
100
AcDbEntity
  8
dim
 62
     0
100
AcDbMText
 10
11.50232622783685
 20
7.617954374984776
 30
0.0
 40
0.18
 41
0.0
 71
     5
 72
     1
  1
\A1;3.228
 73
     1
 44
1.0
  0
POINT
  5
6C2
330
6BA
100
AcDbEntity
  8
Defpoints
 62
     0
100
AcDbPoint
 10
8.149599999999999
 20
9.999999999999998
 30
0.0
  0
POINT
  5
6C3
330
6BA
100
AcDbEntity
  8
Defpoints
 62
     0
100
AcDbPoint
 10
6.777499999999999
 20
6.772
 30
0.0
  0
POINT
  5
6C4
330
6BA
100
AcDbEntity
  8
Defpoints
 62
     0
100
AcDbPoint
 10
11.50232622783685
 20
6.771999999999999
 30
0.0
  0
ENDBLK
  5
6C6
330
6BA
100
AcDbEntity
  8
0
100
AcDbBlockEnd
  0
BLOCK
  5
6D3
330
6C8
100
AcDbEntity
  8
0
100
AcDbBlockBegin
  2
*D25
 70
     1
 10
0.0
 20
0.0
 30
0.0
  3
*D25
  1

  0
LINE
  5
6C9
330
6C8
100
AcDbEntity
  8
dim
 62
     0
370
    -2
100
AcDbLine
 10
7.317899999999999
 20
6.707999999999998
 30
0.0
 11
12.11641089843383
 21
6.707999999999997
 31
0.0
  0
LINE
  5
6CA
330
6C8
100
AcDbEntity
  8
dim
 62
     0
370
    -2
100
AcDbLine
 10
8.212099999999999
 20
9.999999999999998
 30
0.0
 11
12.11641089843383
 21
9.999999999999996
 31
0.0
  0
LINE
  5
6CB
330
6C8
100
AcDbEntity
  8
dim
 62
     0
370
    -2
100
AcDbLine
 10
11.93641089843383
 20
6.887999999999997
 30
0.0
 11
11.93641089843383
 21
7.827716473346986
 31
0.0
  0
LINE
  5
6CC
330
6C8
100
AcDbEntity
  8
dim
 62
     0
370
    -2
100
AcDbLine
 10
11.93641089843383
 20
9.819999999999998
 30
0.0
 11
11.93641089843383
 21
8.187716473346986
 31
0.0
  0
SOLID
  5
6CD
330
6C8
100
AcDbEntity
  8
dim
 62
     0
100
AcDbTrace
 10
11.90641089843383
 20
6.887999999999997
 30
0.0
 11
11.96641089843383
 21
6.887999999999997
 31
0.0
 12
11.93641089843383
 22
6.707999999999997
 32
0.0
 13
11.93641089843383
 23
6.707999999999997
 33
0.0
  0
SOLID
  5
6CE
330
6C8
100
AcDbEntity
  8
dim
 62
     0
100
AcDbTrace
 10
11.90641089843383
 20
9.819999999999998
 30
0.0
 11
11.96641089843383
 21
9.819999999999998
 31
0.0
 12
11.93641089843383
 22
9.999999999999998
 32
0.0
 13
11.93641089843383
 23
9.999999999999998
 33
0.0
  0
MTEXT
  5
6CF
330
6C8
100
AcDbEntity
  8
dim
 62
     0
100
AcDbMText
 10
11.93641089843383
 20
8.007716473346988
 30
0.0
 40
0.18
 41
0.0
 71
     5
 72
     1
  1
\A1;3.292
 73
     1
 44
1.0
  0
POINT
  5
6D0
330
6C8
100
AcDbEntity
  8
Defpoints
 62
     0
100
AcDbPoint
 10
7.255399999999999
 20
6.707999999999998
 30
0.0
  0
POINT
  5
6D1
330
6C8
100
AcDbEntity
  8
Defpoints
 62
     0
100
AcDbPoint
 10
8.149599999999999
 20
9.999999999999998
 30
0.0
  0
POINT
  5
6D2
330
6C8
100
AcDbEntity
  8
Defpoints
 62
     0
100
AcDbPoint
 10
11.93641089843383
 20
9.999999999999998
 30
0.0
  0
ENDBLK
  5
6D4
330
6C8
100
AcDbEntity
  8
0
100
AcDbBlockEnd
  0
BLOCK
  5
6E1
330
6D6
100
AcDbEntity
  8
0
100
AcDbBlockBegin
  2
*D26
 70
     1
 10
0.0
 20
0.0
 30
0.0
  3
*D26
  1

  0
LINE
  5
6D7
330
6D6
100
AcDbEntity
  8
dim
 62
     0
370
    -2
100
AcDbLine
 10
6.985100000000001
 20
6.589
 30
0.0
 11
12.5504955116387
 21
6.588999999999999
 31
0.0
  0
LINE
  5
6D8
330
6D6
100
AcDbEntity
  8
dim
 62
     0
370
    -2
100
AcDbLine
 10
8.212099999999999
 20
9.999999999999998
 30
0.0
 11
12.5504955116387
 21
9.999999999999996
 31
0.0
  0
LINE
  5
6D9
330
6D6
100
AcDbEntity
  8
dim
 62
     0
370
    -2
100
AcDbLine
 10
12.3704955116387
 20
6.768999999999999
 30
0.0
 11
12.3704955116387
 21
7.467370368239071
 31
0.0
  0
LINE
  5
6DA
330
6D6
100
AcDbEntity
  8
dim
 62
     0
370
    -2
100
AcDbLine
 10
12.3704955116387
 20
9.819999999999996
 30
0.0
 11
12.3704955116387
 21
7.827370368239071
 31
0.0
  0
SOLID
  5
6DB
330
6D6
100
AcDbEntity
  8
dim
 62
     0
100
AcDbTrace
 10
12.3404955116387
 20
6.768999999999999
 30
0.0
 11
12.4004955116387
 21
6.768999999999999
 31
0.0
 12
12.3704955116387
 22
6.588999999999999
 32
0.0
 13
12.3704955116387
 23
6.588999999999999
 33
0.0
  0
SOLID
  5
6DC
330
6D6
100
AcDbEntity
  8
dim
 62
     0
100
AcDbTrace
 10
12.3404955116387
 20
9.819999999999996
 30
0.0
 11
12.4004955116387
 21
9.819999999999996
 31
0.0
 12
12.3704955116387
 22
9.999999999999996
 32
0.0
 13
12.3704955116387
 23
9.999999999999996
 33
0.0
  0
MTEXT
  5
6DD
330
6D6
100
AcDbEntity
  8
dim
 62
     0
100
AcDbMText
 10
12.3704955116387
 20
7.647370368239073
 30
0.0
 40
0.18
 41
0.0
 71
     5
 72
     1
  1
\A1;3.411
 73
     1
 44
1.0
  0
POINT
  5
6DE
330
6D6
100
AcDbEntity
  8
Defpoints
 62
     0
100
AcDbPoint
 10
6.922600000000001
 20
6.589
 30
0.0
  0
POINT
  5
6DF
330
6D6
100
AcDbEntity
  8
Defpoints
 62
     0
100
AcDbPoint
 10
8.149599999999999
 20
9.999999999999998
 30
0.0
  0
POINT
  5
6E0
330
6D6
100
AcDbEntity
  8
Defpoints
 62
     0
100
AcDbPoint
 10
12.3704955116387
 20
9.999999999999996
 30
0.0
  0
ENDBLK
  5
6E2
330
6D6
100
AcDbEntity
  8
0
100
AcDbBlockEnd
  0
BLOCK
  5
6EF
330
6E4
100
AcDbEntity
  8
0
100
AcDbBlockBegin
  2
*D27
 70
     1
 10
0.0
 20
0.0
 30
0.0
  3
*D27
  1

  0
LINE
  5
6E5
330
6E4
100
AcDbEntity
  8
dim
 62
     0
370
    -2
100
AcDbLine
 10
7.075100000000001
 20
6.526499999999999
 30
0.0
 11
12.97722280131896
 21
6.526499999999998
 31
0.0
  0
LINE
  5
6E6
330
6E4
100
AcDbEntity
  8
dim
 62
     0
370
    -2
100
AcDbLine
 10
8.212099999999999
 20
9.999999999999998
 30
0.0
 11
12.97722280131896
 21
9.999999999999996
 31
0.0
  0
LINE
  5
6E7
330
6E4
100
AcDbEntity
  8
dim
 62
     0
370
    -2
100
AcDbLine
 10
12.79722280131896
 20
6.706499999999998
 30
0.0
 11
12.79722280131896
 21
7.173210323050438
 31
0.0
  0
LINE
  5
6E8
330
6E4
100
AcDbEntity
  8
dim
 62
     0
370
    -2
100
AcDbLine
 10
12.79722280131896
 20
9.819999999999996
 30
0.0
 11
12.79722280131896
 21
7.533210323050438
 31
0.0
  0
SOLID
  5
6E9
330
6E4
100
AcDbEntity
  8
dim
 62
     0
100
AcDbTrace
 10
12.76722280131896
 20
6.706499999999998
 30
0.0
 11
12.82722280131896
 21
6.706499999999998
 31
0.0
 12
12.79722280131896
 22
6.526499999999998
 32
0.0
 13
12.79722280131896
 23
6.526499999999998
 33
0.0
  0
SOLID
  5
6EA
330
6E4
100
AcDbEntity
  8
dim
 62
     0
100
AcDbTrace
 10
12.76722280131896
 20
9.819999999999996
 30
0.0
 11
12.82722280131896
 21
9.819999999999996
 31
0.0
 12
12.79722280131896
 22
9.999999999999996
 32
0.0
 13
12.79722280131896
 23
9.999999999999996
 33
0.0
  0
MTEXT
  5
6EB
330
6E4
100
AcDbEntity
  8
dim
 62
     0
100
AcDbMText
 10
12.79722280131895
 20
7.35321032305044
 30
0.0
 40
0.18
 41
0.0
 71
     5
 72
     1
  1
\A1;3.474
 73
     1
 44
1.0
  0
POINT
  5
6EC
330
6E4
100
AcDbEntity
  8
Defpoints
 62
     0
100
AcDbPoint
 10
7.012600000000001
 20
6.526499999999999
 30
0.0
  0
POINT
  5
6ED
330
6E4
100
AcDbEntity
  8
Defpoints
 62
     0
100
AcDbPoint
 10
8.149599999999999
 20
9.999999999999998
 30
0.0
  0
POINT
  5
6EE
330
6E4
100
AcDbEntity
  8
Defpoints
 62
     0
100
AcDbPoint
 10
12.79722280131896
 20
9.999999999999996
 30
0.0
  0
ENDBLK
  5
6F0
330
6E4
100
AcDbEntity
  8
0
100
AcDbBlockEnd
  0
BLOCK
  5
6FD
330
6F2
100
AcDbEntity
  8
0
100
AcDbBlockBegin
  2
*D28
 70
     1
 10
0.0
 20
0.0
 30
0.0
  3
*D28
  1

  0
LINE
  5
6F3
330
6F2
100
AcDbEntity
  8
dim
 62
     0
370
    -2
100
AcDbLine
 10
8.212099999999999
 20
5.999999999999999
 30
0.0
 11
13.38187794824905
 21
5.999999999999998
 31
0.0
  0
LINE
  5
6F4
330
6F2
100
AcDbEntity
  8
dim
 62
     0
370
    -2
100
AcDbLine
 10
8.212099999999999
 20
9.999999999999998
 30
0.0
 11
13.38187794824905
 21
9.999999999999996
 31
0.0
  0
LINE
  5
6F5
330
6F2
100
AcDbEntity
  8
dim
 62
     0
370
    -2
100
AcDbLine
 10
13.20187794824905
 20
6.179999999999997
 30
0.0
 11
13.20187794824905
 21
7.687990430291967
 31
0.0
  0
LINE
  5
6F6
330
6F2
100
AcDbEntity
  8
dim
 62
     0
370
    -2
100
AcDbLine
 10
13.20187794824905
 20
9.819999999999996
 30
0.0
 11
13.20187794824905
 21
8.047990430291966
 31
0.0
  0
SOLID
  5
6F7
330
6F2
100
AcDbEntity
  8
dim
 62
     0
100
AcDbTrace
 10
13.17187794824905
 20
6.179999999999997
 30
0.0
 11
13.23187794824905
 21
6.179999999999997
 31
0.0
 12
13.20187794824905
 22
5.999999999999998
 32
0.0
 13
13.20187794824905
 23
5.999999999999998
 33
0.0
  0
SOLID
  5
6F8
330
6F2
100
AcDbEntity
  8
dim
 62
     0
100
AcDbTrace
 10
13.17187794824905
 20
9.819999999999996
 30
0.0
 11
13.23187794824905
 21
9.819999999999996
 31
0.0
 12
13.20187794824905
 22
9.999999999999996
 32
0.0
 13
13.20187794824905
 23
9.999999999999996
 33
0.0
  0
MTEXT
  5
6F9
330
6F2
100
AcDbEntity
  8
dim
 62
     0
100
AcDbMText
 10
13.20187794824905
 20
7.867990430291968
 30
0.0
 40
0.18
 41
0.0
 71
     5
 72
     1
  1
\A1;4.000
 73
     1
 44
1.0
  0
POINT
  5
6FA
330
6F2
100
AcDbEntity
  8
Defpoints
 62
     0
100
AcDbPoint
 10
8.149599999999999
 20
5.999999999999999
 30
0.0
  0
POINT
  5
6FB
330
6F2
100
AcDbEntity
  8
Defpoints
 62
     0
100
AcDbPoint
 10
8.149599999999999
 20
9.999999999999998
 30
0.0
  0
POINT
  5
6FC
330
6F2
100
AcDbEntity
  8
Defpoints
 62
     0
100
AcDbPoint
 10
13.20187794824905
 20
9.999999999999996
 30
0.0
  0
ENDBLK
  5
6FE
330
6F2
100
AcDbEntity
  8
0
100
AcDbBlockEnd
  0
BLOCK
  5
70E
330
702
100
AcDbEntity
  8
0
100
AcDbBlockBegin
  2
*D29
 70
     1
 10
0.0
 20
0.0
 30
0.0
  3
*D29
  1

  0
LINE
  5
E6C
330
702
100
AcDbEntity
  8
dim
 62
     0
370
    -2
100
AcDbLine
 10
10.90739890421118
 20
1.840203903805708
 30
0.0
 11
11.18938535800732
 21
1.840203903805708
 31
0.0
  0
LINE
  5
E6D
330
702
100
AcDbEntity
  8
dim
 62
     0
370
    -2
100
AcDbLine
 10
10.90739890421118
 20
1.965203903805708
 30
0.0
 11
11.18938535800732
 21
1.965203903805708
 31
0.0
  0
LINE
  5
E6E
330
702
100
AcDbEntity
  8
dim
 62
     0
370
    -2
100
AcDbLine
 10
11.00938535800732
 20
1.660203903805708
 30
0.0
 11
11.00938535800732
 21
1.480203903805708
 31
0.0
  0
LINE
  5
E6F
330
702
100
AcDbEntity
  8
dim
 62
     0
370
    -2
100
AcDbLine
 10
11.00938535800732
 20
2.145203903805708
 30
0.0
 11
11.00938535800732
 21
2.937126283278642
 31
0.0
  0
LINE
  5
E70
330
702
100
AcDbEntity
  8
dim
 62
     0
370
    -2
100
AcDbLine
 10
11.00938535800732
 20
2.937126283278642
 30
0.0
 11
11.18938535800732
 21
2.937126283278642
 31
0.0
  0
SOLID
  5
E71
330
702
100
AcDbEntity
  8
dim
 62
     0
100
AcDbTrace
 10
10.97938535800732
 20
1.660203903805708
 30
0.0
 11
11.03938535800732
 21
1.660203903805708
 31
0.0
 12
11.00938535800732
 22
1.840203903805708
 32
0.0
 13
11.00938535800732
 23
1.840203903805708
 33
0.0
  0
SOLID
  5
E72
330
702
100
AcDbEntity
  8
dim
 62
     0
100
AcDbTrace
 10
10.97938535800732
 20
2.145203903805708
 30
0.0
 11
11.03938535800732
 21
2.145203903805708
 31
0.0
 12
11.00938535800732
 22
1.965203903805708
 32
0.0
 13
11.00938535800732
 23
1.965203903805708
 33
0.0
  0
MTEXT
  5
E73
330
702
100
AcDbEntity
  8
dim
 62
     0
100
AcDbMText
 10
11.59438535800732
 20
2.937126283278644
 30
0.0
 40
0.18
 41
0.0
 71
     5
 72
     1
  1
\A1;0.125
 73
     1
 44
1.0
  0
POINT
  5
E74
330
702
100
AcDbEntity
  8
Defpoints
 62
     0
100
AcDbPoint
 10
10.84489890421118
 20
1.840203903805708
 30
0.0
  0
POINT
  5
E75
330
702
100
AcDbEntity
  8
Defpoints
 62
     0
100
AcDbPoint
 10
10.84489890421118
 20
1.965203903805708
 30
0.0
  0
POINT
  5
E76
330
702
100
AcDbEntity
  8
Defpoints
 62
     0
100
AcDbPoint
 10
11.00938535800732
 20
1.965203903805708
 30
0.0
  0
ENDBLK
  5
70F
330
702
100
AcDbEntity
  8
0
100
AcDbBlockEnd
  0
BLOCK
  5
76D
330
764
100
AcDbEntity
  8
0
100
AcDbBlockBegin
  2
*D30
 70
     1
 10
0.0
 20
0.0
 30
0.0
  3
*D30
  1

  0
LINE
  5
765
330
764
100
AcDbEntity
  8
dim
 62
     0
370
    -2
100
AcDbLine
 10
2.690355187647079
 20
7.219156728621825
 30
0.0
 11
1.778306400163303
 21
8.455646792385399
 31
0.0
  0
LINE
  5
766
330
764
100
AcDbEntity
  8
dim
 62
     0
370
    -2
100
AcDbLine
 10
1.778306400163303
 20
8.455646792385399
 30
0.0
 11
1.598306400163303
 21
8.455646792385399
 31
0.0
  0
SOLID
  5
767
330
764
100
AcDbEntity
  8
dim
 62
     0
100
AcDbTrace
 10
2.714497993649773
 20
7.236964730146876
 30
0.0
 11
2.666212381644383
 21
7.201348727096772
 31
0.0
 12
2.79720319679739
 22
7.074299892605657
 32
0.0
 13
2.79720319679739
 23
7.074299892605657
 33
0.0
  0
MTEXT
  5
768
330
764
100
AcDbEntity
  8
dim
 62
     0
100
AcDbMText
 10
1.103306400163305
 20
8.455646792385401
 30
0.0
 40
0.18
 41
0.0
 71
     5
 72
     1
  1
\A1;\U+22050.126
 73
     1
 44
1.0
  0
LINE
  5
769
330
764
100
AcDbEntity
  8
dim
 62
     0
370
    -2
100
AcDbLine
 10
2.744600000000001
 20
7.023599999999999
 30
0.0
 11
2.9246
 21
7.0236
 31
0.0
  0
LINE
  5
76A
330
764
100
AcDbEntity
  8
dim
 62
     0
370
    -2
100
AcDbLine
 10
2.834600000000001
 20
6.9336
 30
0.0
 11
2.834600000000002
 21
7.1136
 31
0.0
  0
POINT
  5
76B
330
764
100
AcDbEntity
  8
Defpoints
 62
     0
100
AcDbPoint
 10
2.79720319679739
 20
7.074299892605657
 30
0.0
  0
POINT
  5
76C
330
764
100
AcDbEntity
  8
Defpoints
 62
     0
100
AcDbPoint
 10
2.87199680320261
 20
6.97290010739434
 30
0.0
  0
ENDBLK
  5
76E
330
764
100
AcDbEntity
  8
0
100
AcDbBlockEnd
  0
BLOCK
  5
779
330
770
100
AcDbEntity
  8
0
100
AcDbBlockBegin
  2
*D31
 70
     1
 10
0.0
 20
0.0
 30
0.0
  3
*D31
  1

  0
LINE
  5
771
330
770
100
AcDbEntity
  8
dim
 62
     0
370
    -2
100
AcDbLine
 10
2.519794057272264
 20
6.915427622131916
 30
0.0
 11
1.798256590310348
 21
7.390853212113358
 31
0.0
  0
LINE
  5
772
330
770
100
AcDbEntity
  8
dim
 62
     0
370
    -2
100
AcDbLine
 10
1.798256590310348
 20
7.390853212113358
 30
0.0
 11
1.618256590310348
 21
7.390853212113358
 31
0.0
  0
SOLID
  5
773
330
770
100
AcDbEntity
  8
dim
 62
     0
100
AcDbTrace
 10
2.536300234099738
 20
6.940478492906008
 30
0.0
 11
2.503287880444791
 21
6.890376751357826
 31
0.0
 12
2.670099281916806
 22
6.816390561167075
 32
0.0
 13
2.670099281916806
 23
6.816390561167075
 33
0.0
  0
MTEXT
  5
774
330
770
100
AcDbEntity
  8
dim
 62
     0
100
AcDbMText
 10
1.093256590310347
 20
7.390853212113356
 30
0.0
 40
0.18
 41
0.0
 71
     5
 72
     1
  1
\A1;\U+22050.394
 73
     1
 44
1.0
  0
LINE
  5
775
330
770
100
AcDbEntity
  8
dim
 62
     0
370
    -2
100
AcDbLine
 10
2.744599999999999
 20
6.707999999999999
 30
0.0
 11
2.924599999999999
 21
6.707999999999999
 31
0.0
  0
LINE
  5
776
330
770
100
AcDbEntity
  8
dim
 62
     0
370
    -2
100
AcDbLine
 10
2.8346
 20
6.618
 30
0.0
 11
2.8346
 21
6.797999999999999
 31
0.0
  0
POINT
  5
777
330
770
100
AcDbEntity
  8
Defpoints
 62
     0
100
AcDbPoint
 10
2.670099281916806
 20
6.816390561167075
 30
0.0
  0
POINT
  5
778
330
770
100
AcDbEntity
  8
Defpoints
 62
     0
100
AcDbPoint
 10
2.999100718083193
 20
6.599609438832922
 30
0.0
  0
ENDBLK
  5
77A
330
770
100
AcDbEntity
  8
0
100
AcDbBlockEnd
  0
BLOCK
  5
785
330
77E
100
AcDbEntity
  8
0
100
AcDbBlockBegin
  2
*D32
 70
     1
 10
0.0
 20
0.0
 30
0.0
  3
*D32
  1

  0
LINE
  5
831
330
77E
100
AcDbEntity
  8
dim
 62
     0
370
    -2
100
AcDbLine
 10
1.541956597969435
 20
9.218237106193079
 30
0.0
 11
1.721956597969435
 21
9.218237106193079
 31
0.0
  0
LINE
  5
832
330
77E
100
AcDbEntity
  8
dim
 62
     0
370
    -2
100
AcDbLine
 10
1.721956597969435
 20
9.218237106193079
 30
0.0
 11
3.461716469077861
 21
6.751307735190674
 31
0.0
  0
MTEXT
  5
833
330
77E
100
AcDbEntity
  8
dim
 62
     0
100
AcDbMText
 10
1.046956597969434
 20
9.218237106193079
 30
0.0
 40
0.18
 41
0.0
 71
     5
 72
     1
  1
\A1;R0.050
 73
     1
 44
1.0
  0
SOLID
  5
834
330
77E
100
AcDbEntity
  8
dim
 62
     0
100
AcDbTrace
 10
3.486233003641778
 20
6.768597603118921
 30
0.0
 11
3.437199934513943
 21
6.734017867262426
 31
0.0
 12
3.565455676647346
 22
6.60420852780717
 32
0.0
 13
3.565455676647346
 23
6.60420852780717
 33
0.0
  0
POINT
  5
835
330
77E
100
AcDbEntity
  8
Defpoints
 62
     0
100
AcDbPoint
 10
3.565455676647346
 20
6.60420852780717
 30
0.0
  0
POINT
  5
836
330
77E
100
AcDbEntity
  8
Defpoints
 62
     0
100
AcDbPoint
 10
3.536639230100268
 20
6.64506941874703
 30
0.0
  0
ENDBLK
  5
786
330
77E
100
AcDbEntity
  8
0
100
AcDbBlockEnd
  0
BLOCK
  5
79A
330
78F
100
AcDbEntity
  8
0
100
AcDbBlockBegin
  2
*D33
 70
     1
 10
0.0
 20
0.0
 30
0.0
  3
*D33
  1

  0
LINE
  5
790
330
78F
100
AcDbEntity
  8
dim
 62
     0
370
    -2
100
AcDbLine
 10
1.8504
 20
10.0625
 30
0.0
 11
1.8504
 21
11.79877735316847
 31
0.0
  0
LINE
  5
791
330
78F
100
AcDbEntity
  8
dim
 62
     0
370
    -2
100
AcDbLine
 10
3.6425
 20
9.91010116407271
 30
0.0
 11
3.6425
 21
11.79877735316847
 31
0.0
  0
LINE
  5
792
330
78F
100
AcDbEntity
  8
dim
 62
     0
370
    -2
100
AcDbLine
 10
2.0304
 20
11.61877735316847
 30
0.0
 11
2.269004137573391
 21
11.61877735316847
 31
0.0
  0
LINE
  5
793
330
78F
100
AcDbEntity
  8
dim
 62
     0
370
    -2
100
AcDbLine
 10
3.4625
 20
11.61877735316847
 30
0.0
 11
3.109004137573391
 21
11.61877735316847
 31
0.0
  0
SOLID
  5
794
330
78F
100
AcDbEntity
  8
dim
 62
     0
100
AcDbTrace
 10
2.0304
 20
11.64877735316847
 30
0.0
 11
2.0304
 21
11.58877735316847
 31
0.0
 12
1.8504
 22
11.61877735316847
 32
0.0
 13
1.8504
 23
11.61877735316847
 33
0.0
  0
SOLID
  5
795
330
78F
100
AcDbEntity
  8
dim
 62
     0
100
AcDbTrace
 10
3.4625
 20
11.64877735316847
 30
0.0
 11
3.4625
 21
11.58877735316847
 31
0.0
 12
3.6425
 22
11.61877735316847
 32
0.0
 13
3.6425
 23
11.61877735316847
 33
0.0
  0
MTEXT
  5
796
330
78F
100
AcDbEntity
  8
dim
 62
     0
100
AcDbMText
 10
2.689004137573391
 20
11.61877735316847
 30
0.0
 40
0.18
 41
0.0
 71
     5
 72
     1
  1
\A1;1.792
 73
     1
 44
1.0
  0
POINT
  5
797
330
78F
100
AcDbEntity
  8
Defpoints
 62
     0
100
AcDbPoint
 10
1.8504
 20
10.0
 30
0.0
  0
POINT
  5
798
330
78F
100
AcDbEntity
  8
Defpoints
 62
     0
100
AcDbPoint
 10
3.6425
 20
9.84760116407271
 30
0.0
  0
POINT
  5
799
330
78F
100
AcDbEntity
  8
Defpoints
 62
     0
100
AcDbPoint
 10
3.6425
 20
11.61877735316847
 30
0.0
  0
ENDBLK
  5
79B
330
78F
100
AcDbEntity
  8
0
100
AcDbBlockEnd
  0
BLOCK
  5
7B6
330
7AB
100
AcDbEntity
  8
0
100
AcDbBlockBegin
  2
*D34
 70
     1
 10
0.0
 20
0.0
 30
0.0
  3
*D34
  1

  0
LINE
  5
7AC
330
7AB
100
AcDbEntity
  8
dim
 62
     0
370
    -2
100
AcDbLine
 10
4.941699999999999
 20
9.911599999999999
 30
0.0
 11
4.941699999999999
 21
12.52508082033713
 31
0.0
  0
LINE
  5
7AD
330
7AB
100
AcDbEntity
  8
dim
 62
     0
370
    -2
100
AcDbLine
 10
1.8504
 20
10.0625
 30
0.0
 11
1.8504
 21
12.52508082033713
 31
0.0
  0
LINE
  5
7AE
330
7AB
100
AcDbEntity
  8
dim
 62
     0
370
    -2
100
AcDbLine
 10
4.7617
 20
12.34508082033713
 30
0.0
 11
3.493653774662759
 21
12.34508082033713
 31
0.0
  0
LINE
  5
7AF
330
7AB
100
AcDbEntity
  8
dim
 62
     0
370
    -2
100
AcDbLine
 10
2.0304
 20
12.34508082033713
 30
0.0
 11
2.683653774662759
 21
12.34508082033713
 31
0.0
  0
SOLID
  5
7B0
330
7AB
100
AcDbEntity
  8
dim
 62
     0
100
AcDbTrace
 10
4.7617
 20
12.37508082033713
 30
0.0
 11
4.7617
 21
12.31508082033713
 31
0.0
 12
4.941699999999999
 22
12.34508082033713
 32
0.0
 13
4.941699999999999
 23
12.34508082033713
 33
0.0
  0
SOLID
  5
7B1
330
7AB
100
AcDbEntity
  8
dim
 62
     0
100
AcDbTrace
 10
2.0304
 20
12.37508082033713
 30
0.0
 11
2.0304
 21
12.31508082033713
 31
0.0
 12
1.8504
 22
12.34508082033713
 32
0.0
 13
1.8504
 23
12.34508082033713
 33
0.0
  0
MTEXT
  5
7B2
330
7AB
100
AcDbEntity
  8
dim
 62
     0
100
AcDbMText
 10
3.088653774662759
 20
12.34508082033713
 30
0.0
 40
0.18
 41
0.0
 71
     5
 72
     1
  1
\A1;3.091
 73
     1
 44
1.0
  0
POINT
  5
7B3
330
7AB
100
AcDbEntity
  8
Defpoints
 62
     0
100
AcDbPoint
 10
4.941699999999999
 20
9.849099999999999
 30
0.0
  0
POINT
  5
7B4
330
7AB
100
AcDbEntity
  8
Defpoints
 62
     0
100
AcDbPoint
 10
1.8504
 20
10.0
 30
0.0
  0
POINT
  5
7B5
330
7AB
100
AcDbEntity
  8
Defpoints
 62
     0
100
AcDbPoint
 10
1.8504
 20
12.34508082033713
 30
0.0
  0
ENDBLK
  5
7B7
330
7AB
100
AcDbEntity
  8
0
100
AcDbBlockEnd
  0
BLOCK
  5
7C4
330
7B9
100
AcDbEntity
  8
0
100
AcDbBlockBegin
  2
*D35
 70
     1
 10
0.0
 20
0.0
 30
0.0
  3
*D35
  1

  0
LINE
  5
7BA
330
7B9
100
AcDbEntity
  8
dim
 62
     0
370
    -2
100
AcDbLine
 10
8.212099999999999
 20
9.999999999999998
 30
0.0
 11
9.154403664138706
 21
9.999999999999998
 31
0.0
  0
LINE
  5
7BB
330
7B9
100
AcDbEntity
  8
dim
 62
     0
370
    -2
100
AcDbLine
 10
5.094199999999999
 20
8.129099999999999
 30
0.0
 11
9.154403664138706
 21
8.129099999999999
 31
0.0
  0
LINE
  5
7BC
330
7B9
100
AcDbEntity
  8
dim
 62
     0
370
    -2
100
AcDbLine
 10
8.974403664138707
 20
9.819999999999998
 30
0.0
 11
8.974403664138707
 21
8.893563522042418
 31
0.0
  0
LINE
  5
7BD
330
7B9
100
AcDbEntity
  8
dim
 62
     0
370
    -2
100
AcDbLine
 10
8.974403664138707
 20
8.309099999999999
 30
0.0
 11
8.974403664138707
 21
8.533563522042419
 31
0.0
  0
SOLID
  5
7BE
330
7B9
100
AcDbEntity
  8
dim
 62
     0
100
AcDbTrace
 10
8.944403664138707
 20
9.819999999999998
 30
0.0
 11
9.004403664138706
 21
9.819999999999998
 31
0.0
 12
8.974403664138707
 22
9.999999999999998
 32
0.0
 13
8.974403664138707
 23
9.999999999999998
 33
0.0
  0
SOLID
  5
7BF
330
7B9
100
AcDbEntity
  8
dim
 62
     0
100
AcDbTrace
 10
8.944403664138707
 20
8.309099999999999
 30
0.0
 11
9.004403664138706
 21
8.309099999999999
 31
0.0
 12
8.974403664138707
 22
8.129099999999999
 32
0.0
 13
8.974403664138707
 23
8.129099999999999
 33
0.0
  0
MTEXT
  5
7C0
330
7B9
100
AcDbEntity
  8
dim
 62
     0
100
AcDbMText
 10
8.974403664138705
 20
8.71356352204242
 30
0.0
 40
0.18
 41
0.0
 71
     5
 72
     1
  1
\A1;1.871
 73
     1
 44
1.0
  0
POINT
  5
7C1
330
7B9
100
AcDbEntity
  8
Defpoints
 62
     0
100
AcDbPoint
 10
8.149599999999999
 20
9.999999999999998
 30
0.0
  0
POINT
  5
7C2
330
7B9
100
AcDbEntity
  8
Defpoints
 62
     0
100
AcDbPoint
 10
5.031699999999999
 20
8.129099999999999
 30
0.0
  0
POINT
  5
7C3
330
7B9
100
AcDbEntity
  8
Defpoints
 62
     0
100
AcDbPoint
 10
8.974403664138707
 20
8.129099999999999
 30
0.0
  0
ENDBLK
  5
7C5
330
7B9
100
AcDbEntity
  8
0
100
AcDbBlockEnd
  0
BLOCK
  5
7EE
330
7E3
100
AcDbEntity
  8
0
100
AcDbBlockBegin
  2
*D36
 70
     1
 10
0.0
 20
0.0
 30
0.0
  3
*D36
  1

  0
LINE
  5
7E4
330
7E3
100
AcDbEntity
  8
dim
 62
     0
370
    -2
100
AcDbLine
 10
6.907600000000001
 20
5.937499999999998
 30
0.0
 11
6.907600000000001
 21
4.012481988924562
 31
0.0
  0
LINE
  5
7E5
330
7E3
100
AcDbEntity
  8
dim
 62
     0
370
    -2
100
AcDbLine
 10
1.8504
 20
5.9375
 30
0.0
 11
1.8504
 21
4.012481988924562
 31
0.0
  0
LINE
  5
7E6
330
7E3
100
AcDbEntity
  8
dim
 62
     0
370
    -2
100
AcDbLine
 10
6.727600000000001
 20
4.192481988924562
 30
0.0
 11
4.322953163625702
 21
4.192481988924562
 31
0.0
  0
LINE
  5
7E7
330
7E3
100
AcDbEntity
  8
dim
 62
     0
370
    -2
100
AcDbLine
 10
2.0304
 20
4.192481988924562
 30
0.0
 11
3.452953163625702
 21
4.192481988924562
 31
0.0
  0
SOLID
  5
7E8
330
7E3
100
AcDbEntity
  8
dim
 62
     0
100
AcDbTrace
 10
6.727600000000001
 20
4.222481988924562
 30
0.0
 11
6.727600000000001
 21
4.162481988924562
 31
0.0
 12
6.907600000000001
 22
4.192481988924562
 32
0.0
 13
6.907600000000001
 23
4.192481988924562
 33
0.0
  0
SOLID
  5
7E9
330
7E3
100
AcDbEntity
  8
dim
 62
     0
100
AcDbTrace
 10
2.0304
 20
4.222481988924562
 30
0.0
 11
2.0304
 21
4.162481988924562
 31
0.0
 12
1.8504
 22
4.192481988924562
 32
0.0
 13
1.8504
 23
4.192481988924562
 33
0.0
  0
MTEXT
  5
7EA
330
7E3
100
AcDbEntity
  8
dim
 62
     0
100
AcDbMText
 10
3.887953163625702
 20
4.192481988924562
 30
0.0
 40
0.18
 41
0.0
 71
     5
 72
     1
  1
\A1;5.057
 73
     1
 44
1.0
  0
POINT
  5
7EB
330
7E3
100
AcDbEntity
  8
Defpoints
 62
     0
100
AcDbPoint
 10
6.907600000000001
 20
5.999999999999998
 30
0.0
  0
POINT
  5
7EC
330
7E3
100
AcDbEntity
  8
Defpoints
 62
     0
100
AcDbPoint
 10
1.8504
 20
6.0
 30
0.0
  0
POINT
  5
7ED
330
7E3
100
AcDbEntity
  8
Defpoints
 62
     0
100
AcDbPoint
 10
1.8504
 20
4.192481988924562
 30
0.0
  0
ENDBLK
  5
7EF
330
7E3
100
AcDbEntity
  8
0
100
AcDbBlockEnd
  0
BLOCK
  5
7FC
330
7F1
100
AcDbEntity
  8
0
100
AcDbBlockBegin
  2
*D37
 70
     1
 10
0.0
 20
0.0
 30
0.0
  3
*D37
  1

  0
LINE
  5
7F2
330
7F1
100
AcDbEntity
  8
dim
 62
     0
370
    -2
100
AcDbLine
 10
6.922600000000001
 20
6.373999999999999
 30
0.0
 11
6.922600000000001
 21
3.806695974018026
 31
0.0
  0
LINE
  5
7F3
330
7F1
100
AcDbEntity
  8
dim
 62
     0
370
    -2
100
AcDbLine
 10
1.8504
 20
5.9375
 30
0.0
 11
1.8504
 21
3.806695974018026
 31
0.0
  0
LINE
  5
7F4
330
7F1
100
AcDbEntity
  8
dim
 62
     0
370
    -2
100
AcDbLine
 10
6.742600000000002
 20
3.986695974018026
 30
0.0
 11
5.134363147651964
 21
3.986695974018026
 31
0.0
  0
LINE
  5
7F5
330
7F1
100
AcDbEntity
  8
dim
 62
     0
370
    -2
100
AcDbLine
 10
2.0304
 20
3.986695974018026
 30
0.0
 11
4.264363147651965
 21
3.986695974018026
 31
0.0
  0
SOLID
  5
7F6
330
7F1
100
AcDbEntity
  8
dim
 62
     0
100
AcDbTrace
 10
6.742600000000002
 20
4.016695974018026
 30
0.0
 11
6.742600000000002
 21
3.956695974018026
 31
0.0
 12
6.922600000000001
 22
3.986695974018026
 32
0.0
 13
6.922600000000001
 23
3.986695974018026
 33
0.0
  0
SOLID
  5
7F7
330
7F1
100
AcDbEntity
  8
dim
 62
     0
100
AcDbTrace
 10
2.0304
 20
4.016695974018026
 30
0.0
 11
2.0304
 21
3.956695974018026
 31
0.0
 12
1.8504
 22
3.986695974018026
 32
0.0
 13
1.8504
 23
3.986695974018026
 33
0.0
  0
MTEXT
  5
7F8
330
7F1
100
AcDbEntity
  8
dim
 62
     0
100
AcDbMText
 10
4.699363147651965
 20
3.986695974018026
 30
0.0
 40
0.18
 41
0.0
 71
     5
 72
     1
  1
\A1;5.072
 73
     1
 44
1.0
  0
POINT
  5
7F9
330
7F1
100
AcDbEntity
  8
Defpoints
 62
     0
100
AcDbPoint
 10
6.922600000000001
 20
6.436499999999999
 30
0.0
  0
POINT
  5
7FA
330
7F1
100
AcDbEntity
  8
Defpoints
 62
     0
100
AcDbPoint
 10
1.8504
 20
6.0
 30
0.0
  0
POINT
  5
7FB
330
7F1
100
AcDbEntity
  8
Defpoints
 62
     0
100
AcDbPoint
 10
1.8504
 20
3.986695974018026
 30
0.0
  0
ENDBLK
  5
7FD
330
7F1
100
AcDbEntity
  8
0
100
AcDbBlockEnd
  0
BLOCK
  5
847
330
83C
100
AcDbEntity
  8
0
100
AcDbBlockBegin
  2
*D38
 70
     1
 10
0.0
 20
0.0
 30
0.0
  3
*D38
  1

  0
LINE
  5
83D
330
83C
100
AcDbEntity
  8
dim
 62
     0
370
    -2
100
AcDbLine
 10
3.57763
 20
6.5765
 30
0.0
 11
3.57763
 21
5.146215337800057
 31
0.0
  0
LINE
  5
83E
330
83C
100
AcDbEntity
  8
dim
 62
     0
370
    -2
100
AcDbLine
 10
1.8504
 20
5.9375
 30
0.0
 11
1.8504
 21
5.146215337800057
 31
0.0
  0
LINE
  5
83F
330
83C
100
AcDbEntity
  8
dim
 62
     0
370
    -2
100
AcDbLine
 10
3.39763
 20
5.326215337800057
 30
0.0
 11
3.042357881235941
 21
5.326215337800057
 31
0.0
  0
LINE
  5
840
330
83C
100
AcDbEntity
  8
dim
 62
     0
370
    -2
100
AcDbLine
 10
2.0304
 20
5.326215337800057
 30
0.0
 11
2.202357881235942
 21
5.326215337800057
 31
0.0
  0
SOLID
  5
841
330
83C
100
AcDbEntity
  8
dim
 62
     0
100
AcDbTrace
 10
3.39763
 20
5.356215337800057
 30
0.0
 11
3.39763
 21
5.296215337800057
 31
0.0
 12
3.57763
 22
5.326215337800057
 32
0.0
 13
3.57763
 23
5.326215337800057
 33
0.0
  0
SOLID
  5
842
330
83C
100
AcDbEntity
  8
dim
 62
     0
100
AcDbTrace
 10
2.0304
 20
5.356215337800057
 30
0.0
 11
2.0304
 21
5.296215337800057
 31
0.0
 12
1.8504
 22
5.326215337800057
 32
0.0
 13
1.8504
 23
5.326215337800057
 33
0.0
  0
MTEXT
  5
843
330
83C
100
AcDbEntity
  8
dim
 62
     0
100
AcDbMText
 10
2.622357881235942
 20
5.326215337800057
 30
0.0
 40
0.18
 41
0.0
 71
     5
 72
     1
  1
\A1;1.727
 73
     1
 44
1.0
  0
POINT
  5
844
330
83C
100
AcDbEntity
  8
Defpoints
 62
     0
100
AcDbPoint
 10
3.57763
 20
6.639
 30
0.0
  0
POINT
  5
845
330
83C
100
AcDbEntity
  8
Defpoints
 62
     0
100
AcDbPoint
 10
1.8504
 20
6.0
 30
0.0
  0
POINT
  5
846
330
83C
100
AcDbEntity
  8
Defpoints
 62
     0
100
AcDbPoint
 10
1.8504
 20
5.326215337800057
 30
0.0
  0
ENDBLK
  5
848
330
83C
100
AcDbEntity
  8
0
100
AcDbBlockEnd
  0
BLOCK
  5
855
330
84A
100
AcDbEntity
  8
0
100
AcDbBlockBegin
  2
*D39
 70
     1
 10
0.0
 20
0.0
 30
0.0
  3
*D39
  1

  0
LINE
  5
84B
330
84A
100
AcDbEntity
  8
dim
 62
     0
370
    -2
100
AcDbLine
 10
3.640129999999999
 20
7.494999999999999
 30
0.0
 11
3.640129999999999
 21
4.850513286153329
 31
0.0
  0
LINE
  5
84C
330
84A
100
AcDbEntity
  8
dim
 62
     0
370
    -2
100
AcDbLine
 10
1.8504
 20
5.9375
 30
0.0
 11
1.8504
 21
4.850513286153329
 31
0.0
  0
LINE
  5
84D
330
84A
100
AcDbEntity
  8
dim
 62
     0
370
    -2
100
AcDbLine
 10
3.460129999999999
 20
5.030513286153329
 30
0.0
 11
2.928746130228935
 21
5.030513286153329
 31
0.0
  0
LINE
  5
84E
330
84A
100
AcDbEntity
  8
dim
 62
     0
370
    -2
100
AcDbLine
 10
2.0304
 20
5.030513286153329
 30
0.0
 11
2.118746130228936
 21
5.030513286153329
 31
0.0
  0
SOLID
  5
84F
330
84A
100
AcDbEntity
  8
dim
 62
     0
100
AcDbTrace
 10
3.460129999999999
 20
5.060513286153329
 30
0.0
 11
3.460129999999999
 21
5.000513286153329
 31
0.0
 12
3.640129999999999
 22
5.030513286153329
 32
0.0
 13
3.640129999999999
 23
5.030513286153329
 33
0.0
  0
SOLID
  5
850
330
84A
100
AcDbEntity
  8
dim
 62
     0
100
AcDbTrace
 10
2.0304
 20
5.060513286153329
 30
0.0
 11
2.0304
 21
5.000513286153329
 31
0.0
 12
1.8504
 22
5.030513286153329
 32
0.0
 13
1.8504
 23
5.030513286153329
 33
0.0
  0
MTEXT
  5
851
330
84A
100
AcDbEntity
  8
dim
 62
     0
100
AcDbMText
 10
2.523746130228936
 20
5.030513286153329
 30
0.0
 40
0.18
 41
0.0
 71
     5
 72
     1
  1
\A1;1.790
 73
     1
 44
1.0
  0
POINT
  5
852
330
84A
100
AcDbEntity
  8
Defpoints
 62
     0
100
AcDbPoint
 10
3.640129999999999
 20
7.557499999999999
 30
0.0
  0
POINT
  5
853
330
84A
100
AcDbEntity
  8
Defpoints
 62
     0
100
AcDbPoint
 10
1.8504
 20
6.0
 30
0.0
  0
POINT
  5
854
330
84A
100
AcDbEntity
  8
Defpoints
 62
     0
100
AcDbPoint
 10
1.8504
 20
5.030513286153329
 30
0.0
  0
ENDBLK
  5
856
330
84A
100
AcDbEntity
  8
0
100
AcDbBlockEnd
  0
BLOCK
  5
863
330
858
100
AcDbEntity
  8
0
100
AcDbBlockBegin
  2
*D40
 70
     1
 10
0.0
 20
0.0
 30
0.0
  3
*D40
  1

  0
LINE
  5
859
330
858
100
AcDbEntity
  8
dim
 62
     0
370
    -2
100
AcDbLine
 10
6.359869999999997
 20
7.495
 30
0.0
 11
6.359869999999997
 21
4.60409489852757
 31
0.0
  0
LINE
  5
85A
330
858
100
AcDbEntity
  8
dim
 62
     0
370
    -2
100
AcDbLine
 10
1.8504
 20
5.9375
 30
0.0
 11
1.8504
 21
4.60409489852757
 31
0.0
  0
LINE
  5
85B
330
858
100
AcDbEntity
  8
dim
 62
     0
370
    -2
100
AcDbLine
 10
6.179869999999997
 20
4.78409489852757
 30
0.0
 11
4.499554619225716
 21
4.78409489852757
 31
0.0
  0
LINE
  5
85C
330
858
100
AcDbEntity
  8
dim
 62
     0
370
    -2
100
AcDbLine
 10
2.0304
 20
4.78409489852757
 30
0.0
 11
3.629554619225717
 21
4.78409489852757
 31
0.0
  0
SOLID
  5
85D
330
858
100
AcDbEntity
  8
dim
 62
     0
100
AcDbTrace
 10
6.179869999999997
 20
4.81409489852757
 30
0.0
 11
6.179869999999997
 21
4.754094898527569
 31
0.0
 12
6.359869999999997
 22
4.78409489852757
 32
0.0
 13
6.359869999999997
 23
4.78409489852757
 33
0.0
  0
SOLID
  5
85E
330
858
100
AcDbEntity
  8
dim
 62
     0
100
AcDbTrace
 10
2.0304
 20
4.81409489852757
 30
0.0
 11
2.0304
 21
4.754094898527569
 31
0.0
 12
1.8504
 22
4.78409489852757
 32
0.0
 13
1.8504
 23
4.78409489852757
 33
0.0
  0
MTEXT
  5
85F
330
858
100
AcDbEntity
  8
dim
 62
     0
100
AcDbMText
 10
4.064554619225717
 20
4.78409489852757
 30
0.0
 40
0.18
 41
0.0
 71
     5
 72
     1
  1
\A1;4.509
 73
     1
 44
1.0
  0
POINT
  5
860
330
858
100
AcDbEntity
  8
Defpoints
 62
     0
100
AcDbPoint
 10
6.359869999999997
 20
7.5575
 30
0.0
  0
POINT
  5
861
330
858
100
AcDbEntity
  8
Defpoints
 62
     0
100
AcDbPoint
 10
1.8504
 20
6.0
 30
0.0
  0
POINT
  5
862
330
858
100
AcDbEntity
  8
Defpoints
 62
     0
100
AcDbPoint
 10
1.8504
 20
4.78409489852757
 30
0.0
  0
ENDBLK
  5
864
330
858
100
AcDbEntity
  8
0
100
AcDbBlockEnd
  0
BLOCK
  5
871
330
866
100
AcDbEntity
  8
0
100
AcDbBlockBegin
  2
*D41
 70
     1
 10
0.0
 20
0.0
 30
0.0
  3
*D41
  1

  0
LINE
  5
867
330
866
100
AcDbEntity
  8
dim
 62
     0
370
    -2
100
AcDbLine
 10
6.422369999999999
 20
6.576499999999999
 30
0.0
 11
6.422369999999999
 21
4.320713788206418
 31
0.0
  0
LINE
  5
868
330
866
100
AcDbEntity
  8
dim
 62
     0
370
    -2
100
AcDbLine
 10
1.8504
 20
5.9375
 30
0.0
 11
1.8504
 21
4.320713788206418
 31
0.0
  0
LINE
  5
869
330
866
100
AcDbEntity
  8
dim
 62
     0
370
    -2
100
AcDbLine
 10
6.242369999999999
 20
4.500713788206418
 30
0.0
 11
4.280351742291363
 21
4.500713788206418
 31
0.0
  0
LINE
  5
86A
330
866
100
AcDbEntity
  8
dim
 62
     0
370
    -2
100
AcDbLine
 10
2.0304
 20
4.500713788206418
 30
0.0
 11
3.380351742291362
 21
4.500713788206418
 31
0.0
  0
SOLID
  5
86B
330
866
100
AcDbEntity
  8
dim
 62
     0
100
AcDbTrace
 10
6.242369999999999
 20
4.530713788206418
 30
0.0
 11
6.242369999999999
 21
4.470713788206418
 31
0.0
 12
6.422369999999999
 22
4.500713788206418
 32
0.0
 13
6.422369999999999
 23
4.500713788206418
 33
0.0
  0
SOLID
  5
86C
330
866
100
AcDbEntity
  8
dim
 62
     0
100
AcDbTrace
 10
2.0304
 20
4.530713788206418
 30
0.0
 11
2.0304
 21
4.470713788206418
 31
0.0
 12
1.8504
 22
4.500713788206418
 32
0.0
 13
1.8504
 23
4.500713788206418
 33
0.0
  0
MTEXT
  5
86D
330
866
100
AcDbEntity
  8
dim
 62
     0
100
AcDbMText
 10
3.830351742291362
 20
4.500713788206418
 30
0.0
 40
0.18
 41
0.0
 71
     5
 72
     1
  1
\A1;4.572
 73
     1
 44
1.0
  0
POINT
  5
86E
330
866
100
AcDbEntity
  8
Defpoints
 62
     0
100
AcDbPoint
 10
6.422369999999999
 20
6.638999999999999
 30
0.0
  0
POINT
  5
86F
330
866
100
AcDbEntity
  8
Defpoints
 62
     0
100
AcDbPoint
 10
1.8504
 20
6.0
 30
0.0
  0
POINT
  5
870
330
866
100
AcDbEntity
  8
Defpoints
 62
     0
100
AcDbPoint
 10
1.8504
 20
4.500713788206418
 30
0.0
  0
ENDBLK
  5
872
330
866
100
AcDbEntity
  8
0
100
AcDbBlockEnd
  0
BLOCK
  5
87F
330
874
100
AcDbEntity
  8
0
100
AcDbBlockBegin
  2
*D42
 70
     1
 10
0.0
 20
0.0
 30
0.0
  3
*D42
  1

  0
LINE
  5
875
330
874
100
AcDbEntity
  8
dim
 62
     0
370
    -2
100
AcDbLine
 10
6.512369999999997
 20
7.647499999999999
 30
0.0
 11
9.749377268223804
 21
7.647499999999999
 31
0.0
  0
LINE
  5
876
330
874
100
AcDbEntity
  8
dim
 62
     0
370
    -2
100
AcDbLine
 10
8.212099999999999
 20
9.999999999999998
 30
0.0
 11
9.749377268223804
 21
9.999999999999998
 31
0.0
  0
LINE
  5
877
330
874
100
AcDbEntity
  8
dim
 62
     0
370
    -2
100
AcDbLine
 10
9.569377268223805
 20
7.827499999999999
 30
0.0
 11
9.569377268223805
 21
8.189482139702404
 31
0.0
  0
LINE
  5
878
330
874
100
AcDbEntity
  8
dim
 62
     0
370
    -2
100
AcDbLine
 10
9.569377268223805
 20
9.819999999999998
 30
0.0
 11
9.569377268223805
 21
8.549482139702403
 31
0.0
  0
SOLID
  5
879
330
874
100
AcDbEntity
  8
dim
 62
     0
100
AcDbTrace
 10
9.539377268223805
 20
7.827499999999999
 30
0.0
 11
9.599377268223804
 21
7.827499999999999
 31
0.0
 12
9.569377268223805
 22
7.647499999999999
 32
0.0
 13
9.569377268223805
 23
7.647499999999999
 33
0.0
  0
SOLID
  5
87A
330
874
100
AcDbEntity
  8
dim
 62
     0
100
AcDbTrace
 10
9.539377268223805
 20
9.819999999999998
 30
0.0
 11
9.599377268223804
 21
9.819999999999998
 31
0.0
 12
9.569377268223805
 22
9.999999999999998
 32
0.0
 13
9.569377268223805
 23
9.999999999999998
 33
0.0
  0
MTEXT
  5
87B
330
874
100
AcDbEntity
  8
dim
 62
     0
100
AcDbMText
 10
9.569377268223803
 20
8.369482139702405
 30
0.0
 40
0.18
 41
0.0
 71
     5
 72
     1
  1
\A1;2.353
 73
     1
 44
1.0
  0
POINT
  5
87C
330
874
100
AcDbEntity
  8
Defpoints
 62
     0
100
AcDbPoint
 10
6.449869999999997
 20
7.647499999999999
 30
0.0
  0
POINT
  5
87D
330
874
100
AcDbEntity
  8
Defpoints
 62
     0
100
AcDbPoint
 10
8.149599999999999
 20
9.999999999999998
 30
0.0
  0
POINT
  5
87E
330
874
100
AcDbEntity
  8
Defpoints
 62
     0
100
AcDbPoint
 10
9.569377268223805
 20
9.999999999999998
 30
0.0
  0
ENDBLK
  5
880
330
874
100
AcDbEntity
  8
0
100
AcDbBlockEnd
  0
BLOCK
  5
89C
330
890
100
AcDbEntity
  8
0
100
AcDbBlockBegin
  2
*D43
 70
     1
 10
0.0
 20
0.0
 30
0.0
  3
*D43
  1

  0
LINE
  5
E61
330
890
100
AcDbEntity
  8
dim
 62
     0
370
    -2
100
AcDbLine
 10
9.665398904211187
 20
1.955203903805708
 30
0.0
 11
11.51483127441943
 21
1.955203903805707
 31
0.0
  0
LINE
  5
E62
330
890
100
AcDbEntity
  8
dim
 62
     0
370
    -2
100
AcDbLine
 10
10.90739890421118
 20
1.965203903805708
 30
0.0
 11
11.51483127441943
 21
1.965203903805708
 31
0.0
  0
LINE
  5
E63
330
890
100
AcDbEntity
  8
dim
 62
     0
370
    -2
100
AcDbLine
 10
11.33483127441943
 20
1.775203903805708
 30
0.0
 11
11.33483127441943
 21
1.595203903805708
 31
0.0
  0
LINE
  5
E64
330
890
100
AcDbEntity
  8
dim
 62
     0
370
    -2
100
AcDbLine
 10
11.33483127441943
 20
2.145203903805708
 30
0.0
 11
11.33483127441943
 21
2.609379683370102
 31
0.0
  0
LINE
  5
E65
330
890
100
AcDbEntity
  8
dim
 62
     0
370
    -2
100
AcDbLine
 10
11.33483127441943
 20
2.609379683370102
 30
0.0
 11
11.51483127441943
 21
2.609379683370102
 31
0.0
  0
SOLID
  5
E66
330
890
100
AcDbEntity
  8
dim
 62
     0
100
AcDbTrace
 10
11.30483127441943
 20
1.775203903805708
 30
0.0
 11
11.36483127441943
 21
1.775203903805708
 31
0.0
 12
11.33483127441943
 22
1.955203903805708
 32
0.0
 13
11.33483127441943
 23
1.955203903805708
 33
0.0
  0
SOLID
  5
E67
330
890
100
AcDbEntity
  8
dim
 62
     0
100
AcDbTrace
 10
11.30483127441943
 20
2.145203903805708
 30
0.0
 11
11.36483127441943
 21
2.145203903805708
 31
0.0
 12
11.33483127441943
 22
1.965203903805708
 32
0.0
 13
11.33483127441943
 23
1.965203903805708
 33
0.0
  0
MTEXT
  5
E68
330
890
100
AcDbEntity
  8
dim
 62
     0
100
AcDbMText
 10
11.88983127441943
 20
2.609379683370104
 30
0.0
 40
0.18
 41
0.0
 71
     5
 72
     1
  1
\A1;0.010
 73
     1
 44
1.0
  0
POINT
  5
E69
330
890
100
AcDbEntity
  8
Defpoints
 62
     0
100
AcDbPoint
 10
9.602898904211187
 20
1.955203903805708
 30
0.0
  0
POINT
  5
E6A
330
890
100
AcDbEntity
  8
Defpoints
 62
     0
100
AcDbPoint
 10
10.84489890421118
 20
1.965203903805708
 30
0.0
  0
POINT
  5
E6B
330
890
100
AcDbEntity
  8
Defpoints
 62
     0
100
AcDbPoint
 10
11.33483127441943
 20
1.965203903805708
 30
0.0
  0
ENDBLK
  5
89D
330
890
100
AcDbEntity
  8
0
100
AcDbBlockEnd
  0
BLOCK
  5
8AA
330
89F
100
AcDbEntity
  8
0
100
AcDbBlockBegin
  2
*D44
 70
     1
 10
0.0
 20
0.0
 30
0.0
  3
*D44
  1

  0
LINE
  5
8A0
330
89F
100
AcDbEntity
  8
dim
 62
     0
370
    -2
100
AcDbLine
 10
3.27313
 20
7.5495
 30
0.0
 11
3.27313
 21
11.41680342010856
 31
0.0
  0
LINE
  5
8A1
330
89F
100
AcDbEntity
  8
dim
 62
     0
370
    -2
100
AcDbLine
 10
1.8504
 20
10.0625
 30
0.0
 11
1.8504
 21
11.41680342010856
 31
0.0
  0
LINE
  5
8A2
330
89F
100
AcDbEntity
  8
dim
 62
     0
370
    -2
100
AcDbLine
 10
3.09313
 20
11.23680342010856
 30
0.0
 11
2.998134278420193
 21
11.23680342010856
 31
0.0
  0
LINE
  5
8A3
330
89F
100
AcDbEntity
  8
dim
 62
     0
370
    -2
100
AcDbLine
 10
2.0304
 20
11.23680342010856
 30
0.0
 11
2.158134278420194
 21
11.23680342010856
 31
0.0
  0
SOLID
  5
8A4
330
89F
100
AcDbEntity
  8
dim
 62
     0
100
AcDbTrace
 10
3.09313
 20
11.26680342010856
 30
0.0
 11
3.09313
 21
11.20680342010856
 31
0.0
 12
3.27313
 22
11.23680342010856
 32
0.0
 13
3.27313
 23
11.23680342010856
 33
0.0
  0
SOLID
  5
8A5
330
89F
100
AcDbEntity
  8
dim
 62
     0
100
AcDbTrace
 10
2.0304
 20
11.26680342010856
 30
0.0
 11
2.0304
 21
11.20680342010856
 31
0.0
 12
1.8504
 22
11.23680342010856
 32
0.0
 13
1.8504
 23
11.23680342010856
 33
0.0
  0
MTEXT
  5
8A6
330
89F
100
AcDbEntity
  8
dim
 62
     0
100
AcDbMText
 10
2.578134278420193
 20
11.23680342010856
 30
0.0
 40
0.18
 41
0.0
 71
     5
 72
     1
  1
\A1;1.423
 73
     1
 44
1.0
  0
POINT
  5
8A7
330
89F
100
AcDbEntity
  8
Defpoints
 62
     0
100
AcDbPoint
 10
3.27313
 20
7.487
 30
0.0
  0
POINT
  5
8A8
330
89F
100
AcDbEntity
  8
Defpoints
 62
     0
100
AcDbPoint
 10
1.8504
 20
10.0
 30
0.0
  0
POINT
  5
8A9
330
89F
100
AcDbEntity
  8
Defpoints
 62
     0
100
AcDbPoint
 10
1.8504
 20
11.23680342010856
 30
0.0
  0
ENDBLK
  5
8AB
330
89F
100
AcDbEntity
  8
0
100
AcDbBlockEnd
  0
BLOCK
  5
8B8
330
8AD
100
AcDbEntity
  8
0
100
AcDbBlockBegin
  2
*D45
 70
     1
 10
0.0
 20
0.0
 30
0.0
  3
*D45
  1

  0
LINE
  5
8AE
330
8AD
100
AcDbEntity
  8
dim
 62
     0
370
    -2
100
AcDbLine
 10
1.8504
 20
10.0625
 30
0.0
 11
1.8504
 21
13.00217385417053
 31
0.0
  0
LINE
  5
8AF
330
8AD
100
AcDbEntity
  8
dim
 62
     0
370
    -2
100
AcDbLine
 10
6.726869999999999
 20
7.5495
 30
0.0
 11
6.726869999999999
 21
13.00217385417053
 31
0.0
  0
LINE
  5
8B0
330
8AD
100
AcDbEntity
  8
dim
 62
     0
370
    -2
100
AcDbLine
 10
2.0304
 20
12.82217385417053
 30
0.0
 11
3.840669905089941
 21
12.82217385417053
 31
0.0
  0
LINE
  5
8B1
330
8AD
100
AcDbEntity
  8
dim
 62
     0
370
    -2
100
AcDbLine
 10
6.54687
 20
12.82217385417053
 30
0.0
 11
4.740669905089942
 21
12.82217385417053
 31
0.0
  0
SOLID
  5
8B2
330
8AD
100
AcDbEntity
  8
dim
 62
     0
100
AcDbTrace
 10
2.0304
 20
12.85217385417053
 30
0.0
 11
2.0304
 21
12.79217385417053
 31
0.0
 12
1.8504
 22
12.82217385417053
 32
0.0
 13
1.8504
 23
12.82217385417053
 33
0.0
  0
SOLID
  5
8B3
330
8AD
100
AcDbEntity
  8
dim
 62
     0
100
AcDbTrace
 10
6.54687
 20
12.85217385417053
 30
0.0
 11
6.54687
 21
12.79217385417053
 31
0.0
 12
6.726869999999999
 22
12.82217385417053
 32
0.0
 13
6.726869999999999
 23
12.82217385417053
 33
0.0
  0
MTEXT
  5
8B4
330
8AD
100
AcDbEntity
  8
dim
 62
     0
100
AcDbMText
 10
4.290669905089941
 20
12.82217385417053
 30
0.0
 40
0.18
 41
0.0
 71
     5
 72
     1
  1
\A1;4.876
 73
     1
 44
1.0
  0
POINT
  5
8B5
330
8AD
100
AcDbEntity
  8
Defpoints
 62
     0
100
AcDbPoint
 10
1.8504
 20
10.0
 30
0.0
  0
POINT
  5
8B6
330
8AD
100
AcDbEntity
  8
Defpoints
 62
     0
100
AcDbPoint
 10
6.726869999999999
 20
7.487
 30
0.0
  0
POINT
  5
8B7
330
8AD
100
AcDbEntity
  8
Defpoints
 62
     0
100
AcDbPoint
 10
6.726869999999999
 20
12.82217385417053
 30
0.0
  0
ENDBLK
  5
8B9
330
8AD
100
AcDbEntity
  8
0
100
AcDbBlockEnd
  0
BLOCK
  5
910
330
90F
100
AcDbEntity
  8
0
100
AcDbBlockBegin
  2
stereohybrid
 70
     0
 10
0.0
 20
0.0
 30
0.0
  3
stereohybrid
  1

  0
LINE
  5
912
330
90F
100
AcDbEntity
  8
stereohybrid
100
AcDbLine
 10
39.03936999999999
 20
9.5
 30
0.0
 11
41.79523
 21
9.499999999999998
 31
0.0
  0
LINE
  5
913
330
90F
100
AcDbEntity
  8
stereohybrid
100
AcDbLine
 10
39.03543926983062
 20
10.79756505479887
 30
0.0
 11
42.14569926983062
 21
11.10965511326697
 31
0.0
  0
LINE
  5
914
330
90F
100
AcDbEntity
  8
stereohybrid
100
AcDbLine
 10
39.0
 20
9.539369999999999
 30
0.0
 11
38.99999999999999
 21
10.75839176976512
 31
0.0
  0
ARC
  5
915
330
90F
100
AcDbEntity
  8
stereohybrid
100
AcDbCircle
 10
39.03936999999999
 20
9.539369999999999
 30
0.0
 40
0.03937
100
AcDbArc
 50
180.0000000000003
 51
269.9999999999999
  0
CIRCLE
  5
916
330
90F
100
AcDbEntity
  8
stereohybrid
100
AcDbCircle
 10
39.3307
 20
9.6181
 30
0.0
 40
0.03937
  0
ARC
  5
917
330
90F
100
AcDbEntity
  8
stereohybrid
100
AcDbCircle
 10
39.03936999999999
 20
10.75839176976512
 30
0.0
 40
0.03937
100
AcDbArc
 50
95.73000000000002
 51
180.0
  0
ARC
  5
918
330
90F
100
AcDbEntity
  8
stereohybrid
100
AcDbCircle
 10
42.14963
 20
10.53547
 30
0.0
 40
0.03937
100
AcDbArc
 50
269.9999999999997
 51
0.0000000000006616
  0
ARC
  5
919
330
90F
100
AcDbEntity
  8
stereohybrid
100
AcDbCircle
 10
41.87396999999999
 20
10.45673
 30
0.0
 40
0.03937
100
AcDbArc
 50
90.0
 51
180.0
  0
CIRCLE
  5
91A
330
90F
100
AcDbEntity
  8
stereohybrid
100
AcDbCircle
 10
41.5039
 20
9.6181
 30
0.0
 40
0.03937
  0
LINE
  5
91B
330
90F
100
AcDbEntity
  8
stereohybrid
100
AcDbLine
 10
41.8346
 20
9.539369999999998
 30
0.0
 11
41.8346
 21
10.45673
 31
0.0
  0
ARC
  5
91C
330
90F
100
AcDbEntity
  8
stereohybrid
100
AcDbCircle
 10
41.79523
 20
9.539369999999998
 30
0.0
 40
0.03937
100
AcDbArc
 50
270.0
 51
0.0
  0
LINE
  5
91D
330
90F
100
AcDbEntity
  8
stereohybrid
100
AcDbLine
 10
41.87396999999999
 20
10.4961
 30
0.0
 11
42.14963
 21
10.4961
 31
0.0
  0
LINE
  5
91E
330
90F
100
AcDbEntity
  8
stereohybrid
100
AcDbLine
 10
42.189
 20
10.53547
 30
0.0
 11
42.18899999999999
 21
11.07048182823322
 31
0.0
  0
ARC
  5
91F
330
90F
100
AcDbEntity
  8
stereohybrid
100
AcDbCircle
 10
42.14963
 20
11.07048182823322
 30
0.0
 40
0.03937
100
AcDbArc
 50
0.0000000000013994
 51
95.73000000000002
  0
ENDBLK
  5
911
330
90F
100
AcDbEntity
  8
0
100
AcDbBlockEnd
  0
BLOCK
  5
943
330
942
100
AcDbEntity
  8
0
100
AcDbBlockBegin
  2
stereopa
 70
     0
 10
0.0
 20
0.0
 30
0.0
  3
stereopa
  1

  0
LINE
  5
945
330
942
100
AcDbEntity
  8
stereopa
100
AcDbLine
 10
34.98629322576687
 20
3.512310705274082
 30
0.0
 11
31.21069322576687
 21
3.133610705274082
 31
0.0
  0
LINE
  5
946
330
942
100
AcDbEntity
  8
stereopa
100
AcDbLine
 10
34.98629322576687
 20
3.843010705274082
 30
0.0
 11
31.21069322576687
 21
3.843010705274082
 31
0.0
  0
LINE
  5
947
330
942
100
AcDbEntity
  8
stereopa
100
AcDbLine
 10
32.32839322576686
 20
3.713640705274082
 30
0.0
 11
32.32839322576686
 21
3.893640705274082
 31
0.0
  0
LINE
  5
948
330
942
100
AcDbEntity
  8
stereopa
100
AcDbLine
 10
31.21069322576687
 20
3.843010705274082
 30
0.0
 11
31.21069322576687
 21
3.133610705274082
 31
0.0
  0
LINE
  5
949
330
942
100
AcDbEntity
  8
stereopa
100
AcDbLine
 10
32.23839322576686
 20
3.803640705274082
 30
0.0
 11
32.41839322576687
 21
3.803640705274082
 31
0.0
  0
LINE
  5
94A
330
942
100
AcDbEntity
  8
stereopa
100
AcDbLine
 10
34.61189322576687
 20
3.713640705274082
 30
0.0
 11
34.61189322576687
 21
3.893640705274082
 31
0.0
  0
LINE
  5
94B
330
942
100
AcDbEntity
  8
stereopa
100
AcDbLine
 10
34.98629322576687
 20
3.843010705274082
 30
0.0
 11
34.98629322576687
 21
3.512310705274082
 31
0.0
  0
LINE
  5
94C
330
942
100
AcDbEntity
  8
stereopa
100
AcDbLine
 10
34.52189322576686
 20
3.803640705274082
 30
0.0
 11
34.70189322576687
 21
3.803640705274082
 31
0.0
  0
ENDBLK
  5
944
330
942
100
AcDbEntity
  8
0
100
AcDbBlockEnd
  0
BLOCK
  5
991
330
986
100
AcDbEntity
  8
0
100
AcDbBlockBegin
  2
*D49
 70
     1
 10
0.0
 20
0.0
 30
0.0
  3
*D49
  1

  0
LINE
  5
DD5
330
986
100
AcDbEntity
  8
stereodim
 62
     0
370
    -2
100
AcDbLine
 10
5.436624856938525
 20
7.581026344341909
 30
0.0
 11
5.436624856938525
 21
6.71145679093172
 31
0.0
  0
LINE
  5
DD6
330
986
100
AcDbEntity
  8
stereodim
 62
     0
370
    -2
100
AcDbLine
 10
4.545698904211189
 20
7.581026344341909
 30
0.0
 11
4.545698904211189
 21
6.71145679093172
 31
0.0
  0
LINE
  5
DD7
330
986
100
AcDbEntity
  8
stereodim
 62
     0
370
    -2
100
AcDbLine
 10
5.616624856938525
 20
6.891456790931719
 30
0.0
 11
5.796624856938525
 21
6.891456790931719
 31
0.0
  0
LINE
  5
DD8
330
986
100
AcDbEntity
  8
stereodim
 62
     0
370
    -2
100
AcDbLine
 10
4.365698904211189
 20
6.891456790931719
 30
0.0
 11
4.185698904211188
 21
6.891456790931719
 31
0.0
  0
SOLID
  5
DD9
330
986
100
AcDbEntity
  8
stereodim
 62
     0
100
AcDbTrace
 10
5.616624856938525
 20
6.92145679093172
 30
0.0
 11
5.616624856938525
 21
6.861456790931719
 31
0.0
 12
5.436624856938525
 22
6.891456790931719
 32
0.0
 13
5.436624856938525
 23
6.891456790931719
 33
0.0
  0
SOLID
  5
DDA
330
986
100
AcDbEntity
  8
stereodim
 62
     0
100
AcDbTrace
 10
4.365698904211189
 20
6.92145679093172
 30
0.0
 11
4.365698904211189
 21
6.861456790931719
 31
0.0
 12
4.545698904211189
 22
6.891456790931719
 32
0.0
 13
4.545698904211189
 23
6.891456790931719
 33
0.0
  0
MTEXT
  5
DDB
330
986
100
AcDbEntity
  8
stereodim
 62
     0
100
AcDbMText
 10
4.999005647240338
 20
6.891456790931719
 30
0.0
 40
0.18
 41
0.0
 71
     5
 72
     1
  1
\A1;0.891
 73
     1
 44
1.0
  0
POINT
  5
DDC
330
986
100
AcDbEntity
  8
Defpoints
 62
     0
100
AcDbPoint
 10
5.436624856938525
 20
7.643526344341909
 30
0.0
  0
POINT
  5
DDD
330
986
100
AcDbEntity
  8
Defpoints
 62
     0
100
AcDbPoint
 10
4.545698904211189
 20
7.643526344341909
 30
0.0
  0
POINT
  5
DDE
330
986
100
AcDbEntity
  8
Defpoints
 62
     0
100
AcDbPoint
 10
4.545698904211189
 20
6.891456790931719
 30
0.0
  0
ENDBLK
  5
992
330
986
100
AcDbEntity
  8
0
100
AcDbBlockEnd
  0
BLOCK
  5
99F
330
994
100
AcDbEntity
  8
0
100
AcDbBlockBegin
  2
*D50
 70
     1
 10
0.0
 20
0.0
 30
0.0
  3
*D50
  1

  0
LINE
  5
DDF
330
994
100
AcDbEntity
  8
stereodim
 62
     0
370
    -2
100
AcDbLine
 10
5.529898904211187
 20
8.541266652967987
 30
0.0
 11
5.529898904211187
 21
6.290697309773477
 31
0.0
  0
LINE
  5
DE0
330
994
100
AcDbEntity
  8
stereodim
 62
     0
370
    -2
100
AcDbLine
 10
4.545698904211189
 20
7.581026344341909
 30
0.0
 11
4.545698904211189
 21
6.290697309773477
 31
0.0
  0
LINE
  5
DE1
330
994
100
AcDbEntity
  8
stereodim
 62
     0
370
    -2
100
AcDbLine
 10
5.709898904211186
 20
6.470697309773477
 30
0.0
 11
5.889898904211187
 21
6.470697309773477
 31
0.0
  0
LINE
  5
DE2
330
994
100
AcDbEntity
  8
stereodim
 62
     0
370
    -2
100
AcDbLine
 10
4.365698904211189
 20
6.470697309773477
 30
0.0
 11
4.185698904211188
 21
6.470697309773477
 31
0.0
  0
SOLID
  5
DE3
330
994
100
AcDbEntity
  8
stereodim
 62
     0
100
AcDbTrace
 10
5.709898904211186
 20
6.500697309773477
 30
0.0
 11
5.709898904211186
 21
6.440697309773477
 31
0.0
 12
5.529898904211187
 22
6.470697309773477
 32
0.0
 13
5.529898904211187
 23
6.470697309773477
 33
0.0
  0
SOLID
  5
DE4
330
994
100
AcDbEntity
  8
stereodim
 62
     0
100
AcDbTrace
 10
4.365698904211189
 20
6.500697309773477
 30
0.0
 11
4.365698904211189
 21
6.440697309773477
 31
0.0
 12
4.545698904211189
 22
6.470697309773477
 32
0.0
 13
4.545698904211189
 23
6.470697309773477
 33
0.0
  0
MTEXT
  5
DE5
330
994
100
AcDbEntity
  8
stereodim
 62
     0
100
AcDbMText
 10
5.041812032010014
 20
6.470697309773477
 30
0.0
 40
0.18
 41
0.0
 71
     5
 72
     1
  1
\A1;0.984
 73
     1
 44
1.0
  0
POINT
  5
DE6
330
994
100
AcDbEntity
  8
Defpoints
 62
     0
100
AcDbPoint
 10
5.529898904211187
 20
8.603766652967987
 30
0.0
  0
POINT
  5
DE7
330
994
100
AcDbEntity
  8
Defpoints
 62
     0
100
AcDbPoint
 10
4.545698904211189
 20
7.643526344341909
 30
0.0
  0
POINT
  5
DE8
330
994
100
AcDbEntity
  8
Defpoints
 62
     0
100
AcDbPoint
 10
4.545698904211189
 20
6.470697309773477
 30
0.0
  0
ENDBLK
  5
9A0
330
994
100
AcDbEntity
  8
0
100
AcDbBlockEnd
  0
BLOCK
  5
9AD
330
9A2
100
AcDbEntity
  8
0
100
AcDbBlockBegin
  2
*D51
 70
     1
 10
0.0
 20
0.0
 30
0.0
  3
*D51
  1

  0
LINE
  5
DE9
330
9A2
100
AcDbEntity
  8
stereodim
 62
     0
370
    -2
100
AcDbLine
 10
5.968428904211187
 20
8.480266652967991
 30
0.0
 11
5.968428904211187
 21
5.955516048552055
 31
0.0
  0
LINE
  5
DEA
330
9A2
100
AcDbEntity
  8
stereodim
 62
     0
370
    -2
100
AcDbLine
 10
4.545698904211189
 20
7.581026344341909
 30
0.0
 11
4.545698904211189
 21
5.955516048552055
 31
0.0
  0
LINE
  5
DEB
330
9A2
100
AcDbEntity
  8
stereodim
 62
     0
370
    -2
100
AcDbLine
 10
5.788428904211187
 20
6.135516048552055
 30
0.0
 11
5.618768498360351
 21
6.135516048552055
 31
0.0
  0
LINE
  5
DEC
330
9A2
100
AcDbEntity
  8
stereodim
 62
     0
370
    -2
100
AcDbLine
 10
4.725698904211188
 20
6.135516048552055
 30
0.0
 11
4.778768498360351
 21
6.135516048552055
 31
0.0
  0
SOLID
  5
DED
330
9A2
100
AcDbEntity
  8
stereodim
 62
     0
100
AcDbTrace
 10
5.788428904211187
 20
6.165516048552055
 30
0.0
 11
5.788428904211187
 21
6.105516048552055
 31
0.0
 12
5.968428904211187
 22
6.135516048552055
 32
0.0
 13
5.968428904211187
 23
6.135516048552055
 33
0.0
  0
SOLID
  5
DEE
330
9A2
100
AcDbEntity
  8
stereodim
 62
     0
100
AcDbTrace
 10
4.725698904211188
 20
6.165516048552055
 30
0.0
 11
4.725698904211188
 21
6.105516048552055
 31
0.0
 12
4.545698904211189
 22
6.135516048552055
 32
0.0
 13
4.545698904211189
 23
6.135516048552055
 33
0.0
  0
MTEXT
  5
DEF
330
9A2
100
AcDbEntity
  8
stereodim
 62
     0
100
AcDbMText
 10
5.198768498360351
 20
6.135516048552055
 30
0.0
 40
0.18
 41
0.0
 71
     5
 72
     1
  1
\A1;1.423
 73
     1
 44
1.0
  0
POINT
  5
DF0
330
9A2
100
AcDbEntity
  8
Defpoints
 62
     0
100
AcDbPoint
 10
5.968428904211187
 20
8.542766652967991
 30
0.0
  0
POINT
  5
DF1
330
9A2
100
AcDbEntity
  8
Defpoints
 62
     0
100
AcDbPoint
 10
4.545698904211189
 20
7.643526344341909
 30
0.0
  0
POINT
  5
DF2
330
9A2
100
AcDbEntity
  8
Defpoints
 62
     0
100
AcDbPoint
 10
4.545698904211189
 20
6.135516048552055
 30
0.0
  0
ENDBLK
  5
9AE
330
9A2
100
AcDbEntity
  8
0
100
AcDbBlockEnd
  0
BLOCK
  5
9BB
330
9B0
100
AcDbEntity
  8
0
100
AcDbBlockBegin
  2
*D52
 70
     1
 10
0.0
 20
0.0
 30
0.0
  3
*D52
  1

  0
LINE
  5
DFB
330
9B0
100
AcDbEntity
  8
stereodim
 62
     0
370
    -2
100
AcDbLine
 10
6.272928904211187
 20
8.437266652967988
 30
0.0
 11
6.272928904211187
 21
5.620334787330627
 31
0.0
  0
LINE
  5
DFC
330
9B0
100
AcDbEntity
  8
stereodim
 62
     0
370
    -2
100
AcDbLine
 10
4.545698904211189
 20
7.581026344341909
 30
0.0
 11
4.545698904211189
 21
5.620334787330627
 31
0.0
  0
LINE
  5
DFD
330
9B0
100
AcDbEntity
  8
stereodim
 62
     0
370
    -2
100
AcDbLine
 10
6.092928904211188
 20
5.800334787330626
 30
0.0
 11
5.832800088842558
 21
5.800334787330626
 31
0.0
  0
LINE
  5
DFE
330
9B0
100
AcDbEntity
  8
stereodim
 62
     0
370
    -2
100
AcDbLine
 10
4.725698904211188
 20
5.800334787330626
 30
0.0
 11
4.992800088842558
 21
5.800334787330626
 31
0.0
  0
SOLID
  5
DFF
330
9B0
100
AcDbEntity
  8
stereodim
 62
     0
100
AcDbTrace
 10
6.092928904211188
 20
5.830334787330627
 30
0.0
 11
6.092928904211188
 21
5.770334787330626
 31
0.0
 12
6.272928904211187
 22
5.800334787330626
 32
0.0
 13
6.272928904211187
 23
5.800334787330626
 33
0.0
  0
SOLID
  5
E00
330
9B0
100
AcDbEntity
  8
stereodim
 62
     0
100
AcDbTrace
 10
4.725698904211188
 20
5.830334787330627
 30
0.0
 11
4.725698904211188
 21
5.770334787330626
 31
0.0
 12
4.545698904211189
 22
5.800334787330626
 32
0.0
 13
4.545698904211189
 23
5.800334787330626
 33
0.0
  0
MTEXT
  5
E01
330
9B0
100
AcDbEntity
  8
stereodim
 62
     0
100
AcDbMText
 10
5.412800088842558
 20
5.800334787330626
 30
0.0
 40
0.18
 41
0.0
 71
     5
 72
     1
  1
\A1;1.727
 73
     1
 44
1.0
  0
POINT
  5
E02
330
9B0
100
AcDbEntity
  8
Defpoints
 62
     0
100
AcDbPoint
 10
6.272928904211187
 20
8.499766652967988
 30
0.0
  0
POINT
  5
E03
330
9B0
100
AcDbEntity
  8
Defpoints
 62
     0
100
AcDbPoint
 10
4.545698904211189
 20
7.643526344341909
 30
0.0
  0
POINT
  5
E04
330
9B0
100
AcDbEntity
  8
Defpoints
 62
     0
100
AcDbPoint
 10
4.545698904211189
 20
5.800334787330626
 30
0.0
  0
ENDBLK
  5
9BC
330
9B0
100
AcDbEntity
  8
0
100
AcDbBlockEnd
  0
BLOCK
  5
9C9
330
9BE
100
AcDbEntity
  8
0
100
AcDbBlockBegin
  2
*D53
 70
     1
 10
0.0
 20
0.0
 30
0.0
  3
*D53
  1

  0
LINE
  5
E05
330
9BE
100
AcDbEntity
  8
stereodim
 62
     0
370
    -2
100
AcDbLine
 10
6.335428904211184
 20
9.355766652967988
 30
0.0
 11
6.335428904211184
 21
5.290816417237735
 31
0.0
  0
LINE
  5
E06
330
9BE
100
AcDbEntity
  8
stereodim
 62
     0
370
    -2
100
AcDbLine
 10
4.545698904211189
 20
7.581026344341909
 30
0.0
 11
4.545698904211189
 21
5.290816417237735
 31
0.0
  0
LINE
  5
E07
330
9BE
100
AcDbEntity
  8
stereodim
 62
     0
370
    -2
100
AcDbLine
 10
6.155428904211184
 20
5.470816417237735
 30
0.0
 11
5.796396979799268
 21
5.470816417237735
 31
0.0
  0
LINE
  5
E08
330
9BE
100
AcDbEntity
  8
stereodim
 62
     0
370
    -2
100
AcDbLine
 10
4.725698904211188
 20
5.470816417237735
 30
0.0
 11
4.986396979799267
 21
5.470816417237735
 31
0.0
  0
SOLID
  5
E09
330
9BE
100
AcDbEntity
  8
stereodim
 62
     0
100
AcDbTrace
 10
6.155428904211184
 20
5.500816417237735
 30
0.0
 11
6.155428904211184
 21
5.440816417237734
 31
0.0
 12
6.335428904211184
 22
5.470816417237735
 32
0.0
 13
6.335428904211184
 23
5.470816417237735
 33
0.0
  0
SOLID
  5
E0A
330
9BE
100
AcDbEntity
  8
stereodim
 62
     0
100
AcDbTrace
 10
4.725698904211188
 20
5.500816417237735
 30
0.0
 11
4.725698904211188
 21
5.440816417237734
 31
0.0
 12
4.545698904211189
 22
5.470816417237735
 32
0.0
 13
4.545698904211189
 23
5.470816417237735
 33
0.0
  0
MTEXT
  5
E0B
330
9BE
100
AcDbEntity
  8
stereodim
 62
     0
100
AcDbMText
 10
5.391396979799267
 20
5.470816417237735
 30
0.0
 40
0.18
 41
0.0
 71
     5
 72
     1
  1
\A1;1.790
 73
     1
 44
1.0
  0
POINT
  5
E0C
330
9BE
100
AcDbEntity
  8
Defpoints
 62
     0
100
AcDbPoint
 10
6.335428904211184
 20
9.418266652967988
 30
0.0
  0
POINT
  5
E0D
330
9BE
100
AcDbEntity
  8
Defpoints
 62
     0
100
AcDbPoint
 10
4.545698904211189
 20
7.643526344341909
 30
0.0
  0
POINT
  5
E0E
330
9BE
100
AcDbEntity
  8
Defpoints
 62
     0
100
AcDbPoint
 10
4.545698904211189
 20
5.470816417237735
 30
0.0
  0
ENDBLK
  5
9CA
330
9BE
100
AcDbEntity
  8
0
100
AcDbBlockEnd
  0
BLOCK
  5
9D7
330
9CC
100
AcDbEntity
  8
0
100
AcDbBlockBegin
  2
*D54
 70
     1
 10
0.0
 20
0.0
 30
0.0
  3
*D54
  1

  0
LINE
  5
E0F
330
9CC
100
AcDbEntity
  8
stereodim
 62
     0
370
    -2
100
AcDbLine
 10
9.055168904211186
 20
9.355766652967989
 30
0.0
 11
9.055168904211186
 21
5.055476326725461
 31
0.0
  0
LINE
  5
E10
330
9CC
100
AcDbEntity
  8
stereodim
 62
     0
370
    -2
100
AcDbLine
 10
4.545698904211189
 20
7.581026344341909
 30
0.0
 11
4.545698904211189
 21
5.055476326725461
 31
0.0
  0
LINE
  5
E11
330
9CC
100
AcDbEntity
  8
stereodim
 62
     0
370
    -2
100
AcDbLine
 10
8.875168904211186
 20
5.235476326725461
 30
0.0
 11
7.317483826835155
 21
5.235476326725461
 31
0.0
  0
LINE
  5
E12
330
9CC
100
AcDbEntity
  8
stereodim
 62
     0
370
    -2
100
AcDbLine
 10
4.725698904211188
 20
5.235476326725461
 30
0.0
 11
6.447483826835155
 21
5.235476326725461
 31
0.0
  0
SOLID
  5
E13
330
9CC
100
AcDbEntity
  8
stereodim
 62
     0
100
AcDbTrace
 10
8.875168904211186
 20
5.265476326725461
 30
0.0
 11
8.875168904211186
 21
5.20547632672546
 31
0.0
 12
9.055168904211186
 22
5.235476326725461
 32
0.0
 13
9.055168904211186
 23
5.235476326725461
 33
0.0
  0
SOLID
  5
E14
330
9CC
100
AcDbEntity
  8
stereodim
 62
     0
100
AcDbTrace
 10
4.725698904211188
 20
5.265476326725461
 30
0.0
 11
4.725698904211188
 21
5.20547632672546
 31
0.0
 12
4.545698904211189
 22
5.235476326725461
 32
0.0
 13
4.545698904211189
 23
5.235476326725461
 33
0.0
  0
MTEXT
  5
E15
330
9CC
100
AcDbEntity
  8
stereodim
 62
     0
100
AcDbMText
 10
6.882483826835155
 20
5.235476326725461
 30
0.0
 40
0.18
 41
0.0
 71
     5
 72
     1
  1
\A1;4.509
 73
     1
 44
1.0
  0
POINT
  5
E16
330
9CC
100
AcDbEntity
  8
Defpoints
 62
     0
100
AcDbPoint
 10
9.055168904211186
 20
9.418266652967989
 30
0.0
  0
POINT
  5
E17
330
9CC
100
AcDbEntity
  8
Defpoints
 62
     0
100
AcDbPoint
 10
4.545698904211189
 20
7.643526344341909
 30
0.0
  0
POINT
  5
E18
330
9CC
100
AcDbEntity
  8
Defpoints
 62
     0
100
AcDbPoint
 10
4.545698904211189
 20
5.235476326725461
 30
0.0
  0
ENDBLK
  5
9D8
330
9CC
100
AcDbEntity
  8
0
100
AcDbBlockEnd
  0
BLOCK
  5
9E5
330
9DA
100
AcDbEntity
  8
0
100
AcDbBlockBegin
  2
*D55
 70
     1
 10
0.0
 20
0.0
 30
0.0
  3
*D55
  1

  0
LINE
  5
E19
330
9DA
100
AcDbEntity
  8
stereodim
 62
     0
370
    -2
100
AcDbLine
 10
9.117668904211186
 20
8.437266652967988
 30
0.0
 11
9.117668904211186
 21
4.74882113881631
 31
0.0
  0
LINE
  5
E1A
330
9DA
100
AcDbEntity
  8
stereodim
 62
     0
370
    -2
100
AcDbLine
 10
4.545698904211189
 20
7.581026344341909
 30
0.0
 11
4.545698904211189
 21
4.74882113881631
 31
0.0
  0
LINE
  5
E1B
330
9DA
100
AcDbEntity
  8
stereodim
 62
     0
370
    -2
100
AcDbLine
 10
8.937668904211186
 20
4.92882113881631
 30
0.0
 11
7.339975565064361
 21
4.92882113881631
 31
0.0
  0
LINE
  5
E1C
330
9DA
100
AcDbEntity
  8
stereodim
 62
     0
370
    -2
100
AcDbLine
 10
4.725698904211188
 20
4.92882113881631
 30
0.0
 11
6.439975565064361
 21
4.92882113881631
 31
0.0
  0
SOLID
  5
E1D
330
9DA
100
AcDbEntity
  8
stereodim
 62
     0
100
AcDbTrace
 10
8.937668904211186
 20
4.95882113881631
 30
0.0
 11
8.937668904211186
 21
4.89882113881631
 31
0.0
 12
9.117668904211186
 22
4.92882113881631
 32
0.0
 13
9.117668904211186
 23
4.92882113881631
 33
0.0
  0
SOLID
  5
E1E
330
9DA
100
AcDbEntity
  8
stereodim
 62
     0
100
AcDbTrace
 10
4.725698904211188
 20
4.95882113881631
 30
0.0
 11
4.725698904211188
 21
4.89882113881631
 31
0.0
 12
4.545698904211189
 22
4.92882113881631
 32
0.0
 13
4.545698904211189
 23
4.92882113881631
 33
0.0
  0
MTEXT
  5
E1F
330
9DA
100
AcDbEntity
  8
stereodim
 62
     0
100
AcDbMText
 10
6.889975565064361
 20
4.92882113881631
 30
0.0
 40
0.18
 41
0.0
 71
     5
 72
     1
  1
\A1;4.572
 73
     1
 44
1.0
  0
POINT
  5
E20
330
9DA
100
AcDbEntity
  8
Defpoints
 62
     0
100
AcDbPoint
 10
9.117668904211186
 20
8.499766652967988
 30
0.0
  0
POINT
  5
E21
330
9DA
100
AcDbEntity
  8
Defpoints
 62
     0
100
AcDbPoint
 10
4.545698904211189
 20
7.643526344341909
 30
0.0
  0
POINT
  5
E22
330
9DA
100
AcDbEntity
  8
Defpoints
 62
     0
100
AcDbPoint
 10
4.545698904211189
 20
4.92882113881631
 30
0.0
  0
ENDBLK
  5
9E6
330
9DA
100
AcDbEntity
  8
0
100
AcDbBlockEnd
  0
BLOCK
  5
9F3
330
9E8
100
AcDbEntity
  8
0
100
AcDbBlockBegin
  2
*D56
 70
     1
 10
0.0
 20
0.0
 30
0.0
  3
*D56
  1

  0
LINE
  5
E23
330
9E8
100
AcDbEntity
  8
stereodim
 62
     0
370
    -2
100
AcDbLine
 10
9.222224856938524
 20
7.960729363729555
 30
0.0
 11
9.222224856938524
 21
4.435034389637188
 31
0.0
  0
LINE
  5
E24
330
9E8
100
AcDbEntity
  8
stereodim
 62
     0
370
    -2
100
AcDbLine
 10
4.545698904211189
 20
7.581026344341909
 30
0.0
 11
4.545698904211189
 21
4.435034389637188
 31
0.0
  0
LINE
  5
E25
330
9E8
100
AcDbEntity
  8
stereodim
 62
     0
370
    -2
100
AcDbLine
 10
9.042224856938524
 20
4.615034389637187
 30
0.0
 11
7.32570674236062
 21
4.615034389637187
 31
0.0
  0
LINE
  5
E26
330
9E8
100
AcDbEntity
  8
stereodim
 62
     0
370
    -2
100
AcDbLine
 10
4.725698904211188
 20
4.615034389637187
 30
0.0
 11
6.42570674236062
 21
4.615034389637187
 31
0.0
  0
SOLID
  5
E27
330
9E8
100
AcDbEntity
  8
stereodim
 62
     0
100
AcDbTrace
 10
9.042224856938524
 20
4.645034389637188
 30
0.0
 11
9.042224856938524
 21
4.585034389637187
 31
0.0
 12
9.222224856938524
 22
4.615034389637187
 32
0.0
 13
9.222224856938524
 23
4.615034389637187
 33
0.0
  0
SOLID
  5
E28
330
9E8
100
AcDbEntity
  8
stereodim
 62
     0
100
AcDbTrace
 10
4.725698904211188
 20
4.645034389637188
 30
0.0
 11
4.725698904211188
 21
4.585034389637187
 31
0.0
 12
4.545698904211189
 22
4.615034389637187
 32
0.0
 13
4.545698904211189
 23
4.615034389637187
 33
0.0
  0
MTEXT
  5
E29
330
9E8
100
AcDbEntity
  8
stereodim
 62
     0
100
AcDbMText
 10
6.87570674236062
 20
4.615034389637187
 30
0.0
 40
0.18
 41
0.0
 71
     5
 72
     1
  1
\A1;4.677
 73
     1
 44
1.0
  0
POINT
  5
E2A
330
9E8
100
AcDbEntity
  8
Defpoints
 62
     0
100
AcDbPoint
 10
9.222224856938524
 20
8.023229363729555
 30
0.0
  0
POINT
  5
E2B
330
9E8
100
AcDbEntity
  8
Defpoints
 62
     0
100
AcDbPoint
 10
4.545698904211189
 20
7.643526344341909
 30
0.0
  0
POINT
  5
E2C
330
9E8
100
AcDbEntity
  8
Defpoints
 62
     0
100
AcDbPoint
 10
4.545698904211189
 20
4.615034389637187
 30
0.0
  0
ENDBLK
  5
9F4
330
9E8
100
AcDbEntity
  8
0
100
AcDbBlockEnd
  0
BLOCK
  5
A01
330
9F6
100
AcDbEntity
  8
0
100
AcDbBlockBegin
  2
*D57
 70
     1
 10
0.0
 20
0.0
 30
0.0
  3
*D57
  1

  0
LINE
  5
E2D
330
9F6
100
AcDbEntity
  8
stereodim
 62
     0
370
    -2
100
AcDbLine
 10
9.237224856938524
 20
8.324266652967988
 30
0.0
 11
9.237224856938524
 21
4.125544521207508
 31
0.0
  0
LINE
  5
E2E
330
9F6
100
AcDbEntity
  8
stereodim
 62
     0
370
    -2
100
AcDbLine
 10
4.545698904211189
 20
7.581026344341909
 30
0.0
 11
4.545698904211189
 21
4.125544521207508
 31
0.0
  0
LINE
  5
E2F
330
9F6
100
AcDbEntity
  8
stereodim
 62
     0
370
    -2
100
AcDbLine
 10
9.057224856938525
 20
4.305544521207508
 30
0.0
 11
7.332841112041717
 21
4.305544521207508
 31
0.0
  0
LINE
  5
E30
330
9F6
100
AcDbEntity
  8
stereodim
 62
     0
370
    -2
100
AcDbLine
 10
4.725698904211188
 20
4.305544521207508
 30
0.0
 11
6.432841112041717
 21
4.305544521207508
 31
0.0
  0
SOLID
  5
E31
330
9F6
100
AcDbEntity
  8
stereodim
 62
     0
100
AcDbTrace
 10
9.057224856938525
 20
4.335544521207508
 30
0.0
 11
9.057224856938525
 21
4.275544521207508
 31
0.0
 12
9.237224856938524
 22
4.305544521207508
 32
0.0
 13
9.237224856938524
 23
4.305544521207508
 33
0.0
  0
SOLID
  5
E32
330
9F6
100
AcDbEntity
  8
stereodim
 62
     0
100
AcDbTrace
 10
4.725698904211188
 20
4.335544521207508
 30
0.0
 11
4.725698904211188
 21
4.275544521207508
 31
0.0
 12
4.545698904211189
 22
4.305544521207508
 32
0.0
 13
4.545698904211189
 23
4.305544521207508
 33
0.0
  0
MTEXT
  5
E33
330
9F6
100
AcDbEntity
  8
stereodim
 62
     0
100
AcDbMText
 10
6.882841112041717
 20
4.305544521207508
 30
0.0
 40
0.18
 41
0.0
 71
     5
 72
     1
  1
\A1;4.692
 73
     1
 44
1.0
  0
POINT
  5
E34
330
9F6
100
AcDbEntity
  8
Defpoints
 62
     0
100
AcDbPoint
 10
9.237224856938524
 20
8.386766652967988
 30
0.0
  0
POINT
  5
E35
330
9F6
100
AcDbEntity
  8
Defpoints
 62
     0
100
AcDbPoint
 10
4.545698904211189
 20
7.643526344341909
 30
0.0
  0
POINT
  5
E36
330
9F6
100
AcDbEntity
  8
Defpoints
 62
     0
100
AcDbPoint
 10
4.545698904211189
 20
4.305544521207508
 30
0.0
  0
ENDBLK
  5
A02
330
9F6
100
AcDbEntity
  8
0
100
AcDbBlockEnd
  0
BLOCK
  5
A0F
330
A04
100
AcDbEntity
  8
0
100
AcDbBlockBegin
  2
*D58
 70
     1
 10
0.0
 20
0.0
 30
0.0
  3
*D58
  1

  0
LINE
  5
E37
330
A04
100
AcDbEntity
  8
stereodim
 62
     0
370
    -2
100
AcDbLine
 10
9.422168904211183
 20
8.480266652967989
 30
0.0
 11
9.422168904211183
 21
3.833152341326552
 31
0.0
  0
LINE
  5
E38
330
A04
100
AcDbEntity
  8
stereodim
 62
     0
370
    -2
100
AcDbLine
 10
4.545698904211189
 20
7.581026344341909
 30
0.0
 11
4.545698904211189
 21
3.833152341326552
 31
0.0
  0
LINE
  5
E39
330
A04
100
AcDbEntity
  8
stereodim
 62
     0
370
    -2
100
AcDbLine
 10
9.242168904211183
 20
4.013152341326552
 30
0.0
 11
7.332841112041717
 21
4.013152341326552
 31
0.0
  0
LINE
  5
E3A
330
A04
100
AcDbEntity
  8
stereodim
 62
     0
370
    -2
100
AcDbLine
 10
4.725698904211188
 20
4.013152341326552
 30
0.0
 11
6.432841112041717
 21
4.013152341326552
 31
0.0
  0
SOLID
  5
E3B
330
A04
100
AcDbEntity
  8
stereodim
 62
     0
100
AcDbTrace
 10
9.242168904211183
 20
4.043152341326552
 30
0.0
 11
9.242168904211183
 21
3.983152341326552
 31
0.0
 12
9.422168904211183
 22
4.013152341326552
 32
0.0
 13
9.422168904211183
 23
4.013152341326552
 33
0.0
  0
SOLID
  5
E3C
330
A04
100
AcDbEntity
  8
stereodim
 62
     0
100
AcDbTrace
 10
4.725698904211188
 20
4.043152341326552
 30
0.0
 11
4.725698904211188
 21
3.983152341326552
 31
0.0
 12
4.545698904211189
 22
4.013152341326552
 32
0.0
 13
4.545698904211189
 23
4.013152341326552
 33
0.0
  0
MTEXT
  5
E3D
330
A04
100
AcDbEntity
  8
stereodim
 62
     0
100
AcDbMText
 10
6.882841112041717
 20
4.013152341326552
 30
0.0
 40
0.18
 41
0.0
 71
     5
 72
     1
  1
\A1;4.876
 73
     1
 44
1.0
  0
POINT
  5
E3E
330
A04
100
AcDbEntity
  8
Defpoints
 62
     0
100
AcDbPoint
 10
9.422168904211183
 20
8.542766652967989
 30
0.0
  0
POINT
  5
E3F
330
A04
100
AcDbEntity
  8
Defpoints
 62
     0
100
AcDbPoint
 10
4.545698904211189
 20
7.643526344341909
 30
0.0
  0
POINT
  5
E40
330
A04
100
AcDbEntity
  8
Defpoints
 62
     0
100
AcDbPoint
 10
4.545698904211189
 20
4.013152341326552
 30
0.0
  0
ENDBLK
  5
A10
330
A04
100
AcDbEntity
  8
0
100
AcDbBlockEnd
  0
BLOCK
  5
A1D
330
A12
100
AcDbEntity
  8
0
100
AcDbBlockBegin
  2
*D59
 70
     1
 10
0.0
 20
0.0
 30
0.0
  3
*D59
  1

  0
LINE
  5
E41
330
A12
100
AcDbEntity
  8
stereodim
 62
     0
370
    -2
100
AcDbLine
 10
9.860698904211183
 20
8.469951441059375
 30
0.0
 11
9.860698904211183
 21
3.619206762856585
 31
0.0
  0
LINE
  5
E42
330
A12
100
AcDbEntity
  8
stereodim
 62
     0
370
    -2
100
AcDbLine
 10
4.545698904211189
 20
7.509711132433297
 30
0.0
 11
4.545698904211189
 21
3.619206762856584
 31
0.0
  0
LINE
  5
E43
330
A12
100
AcDbEntity
  8
stereodim
 62
     0
370
    -2
100
AcDbLine
 10
9.680698904211183
 20
3.799206762856584
 30
0.0
 11
8.273117722234287
 21
3.799206762856584
 31
0.0
  0
LINE
  5
E44
330
A12
100
AcDbEntity
  8
stereodim
 62
     0
370
    -2
100
AcDbLine
 10
4.725698904211188
 20
3.799206762856584
 30
0.0
 11
7.433117722234287
 21
3.799206762856584
 31
0.0
  0
SOLID
  5
E45
330
A12
100
AcDbEntity
  8
stereodim
 62
     0
100
AcDbTrace
 10
9.680698904211183
 20
3.829206762856584
 30
0.0
 11
9.680698904211183
 21
3.769206762856585
 31
0.0
 12
9.860698904211183
 22
3.799206762856584
 32
0.0
 13
9.860698904211183
 23
3.799206762856584
 33
0.0
  0
SOLID
  5
E46
330
A12
100
AcDbEntity
  8
stereodim
 62
     0
100
AcDbTrace
 10
4.725698904211188
 20
3.829206762856584
 30
0.0
 11
4.725698904211188
 21
3.769206762856585
 31
0.0
 12
4.545698904211189
 22
3.799206762856584
 32
0.0
 13
4.545698904211189
 23
3.799206762856584
 33
0.0
  0
MTEXT
  5
E47
330
A12
100
AcDbEntity
  8
stereodim
 62
     0
100
AcDbMText
 10
7.853117722234287
 20
3.799206762856584
 30
0.0
 40
0.18
 41
0.0
 71
     5
 72
     1
  1
\A1;5.315
 73
     1
 44
1.0
  0
POINT
  5
E48
330
A12
100
AcDbEntity
  8
Defpoints
 62
     0
100
AcDbPoint
 10
9.860698904211183
 20
8.532451441059375
 30
0.0
  0
POINT
  5
E49
330
A12
100
AcDbEntity
  8
Defpoints
 62
     0
100
AcDbPoint
 10
4.545698904211189
 20
7.572211132433297
 30
0.0
  0
POINT
  5
E4A
330
A12
100
AcDbEntity
  8
Defpoints
 62
     0
100
AcDbPoint
 10
4.545698904211189
 20
3.799206762856584
 30
0.0
  0
ENDBLK
  5
A1E
330
A12
100
AcDbEntity
  8
0
100
AcDbBlockEnd
  0
BLOCK
  5
A35
330
A2A
100
AcDbEntity
  8
0
100
AcDbBlockBegin
  2
*D60
 70
     1
 10
0.0
 20
0.0
 30
0.0
  3
*D60
  1

  0
LINE
  5
E4B
330
A2A
100
AcDbEntity
  8
stereodim
 62
     0
370
    -2
100
AcDbLine
 10
10.84489890421119
 20
8.123486716654165
 30
0.0
 11
10.84489890421119
 21
3.373130739987722
 31
0.0
  0
LINE
  5
E4C
330
A2A
100
AcDbEntity
  8
stereodim
 62
     0
370
    -2
100
AcDbLine
 10
4.545698904211189
 20
7.581026344341909
 30
0.0
 11
4.545698904211189
 21
3.373130739987722
 31
0.0
  0
LINE
  5
E4D
330
A2A
100
AcDbEntity
  8
stereodim
 62
     0
370
    -2
100
AcDbLine
 10
10.66489890421119
 20
3.553130739987722
 30
0.0
 11
7.393155138665489
 21
3.553130739987722
 31
0.0
  0
LINE
  5
E4E
330
A2A
100
AcDbEntity
  8
stereodim
 62
     0
370
    -2
100
AcDbLine
 10
4.725698904211188
 20
3.553130739987722
 30
0.0
 11
6.493155138665488
 21
3.553130739987722
 31
0.0
  0
SOLID
  5
E4F
330
A2A
100
AcDbEntity
  8
stereodim
 62
     0
100
AcDbTrace
 10
10.66489890421119
 20
3.583130739987721
 30
0.0
 11
10.66489890421119
 21
3.523130739987722
 31
0.0
 12
10.84489890421119
 22
3.553130739987722
 32
0.0
 13
10.84489890421119
 23
3.553130739987722
 33
0.0
  0
SOLID
  5
E50
330
A2A
100
AcDbEntity
  8
stereodim
 62
     0
100
AcDbTrace
 10
4.725698904211188
 20
3.583130739987721
 30
0.0
 11
4.725698904211188
 21
3.523130739987722
 31
0.0
 12
4.545698904211189
 22
3.553130739987722
 32
0.0
 13
4.545698904211189
 23
3.553130739987722
 33
0.0
  0
MTEXT
  5
E51
330
A2A
100
AcDbEntity
  8
stereodim
 62
     0
100
AcDbMText
 10
6.943155138665488
 20
3.553130739987722
 30
0.0
 40
0.18
 41
0.0
 71
     5
 72
     1
  1
\A1;6.299
 73
     1
 44
1.0
  0
POINT
  5
E52
330
A2A
100
AcDbEntity
  8
Defpoints
 62
     0
100
AcDbPoint
 10
10.84489890421119
 20
8.185986716654165
 30
0.0
  0
POINT
  5
E53
330
A2A
100
AcDbEntity
  8
Defpoints
 62
     0
100
AcDbPoint
 10
4.545698904211189
 20
7.643526344341909
 30
0.0
  0
POINT
  5
E54
330
A2A
100
AcDbEntity
  8
Defpoints
 62
     0
100
AcDbPoint
 10
4.545698904211189
 20
3.553130739987722
 30
0.0
  0
ENDBLK
  5
A36
330
A2A
100
AcDbEntity
  8
0
100
AcDbBlockEnd
  0
BLOCK
  5
A43
330
A38
100
AcDbEntity
  8
0
100
AcDbBlockBegin
  2
*D61
 70
     1
 10
0.0
 20
0.0
 30
0.0
  3
*D61
  1

  0
LINE
  5
EF6
330
A38
100
AcDbEntity
  8
stereodim
 62
     0
370
    -2
100
AcDbLine
 10
6.337798904211187
 20
11.77086781704069
 30
0.0
 11
6.337798904211187
 21
12.50240785386678
 31
0.0
  0
LINE
  5
EF7
330
A38
100
AcDbEntity
  8
stereodim
 62
     0
370
    -2
100
AcDbLine
 10
4.545698904211185
 20
11.92326665296798
 30
0.0
 11
4.545698904211185
 21
12.50240785386678
 31
0.0
  0
LINE
  5
EF8
330
A38
100
AcDbEntity
  8
stereodim
 62
     0
370
    -2
100
AcDbLine
 10
6.157798904211187
 20
12.32240785386678
 30
0.0
 11
5.748905988659343
 21
12.32240785386678
 31
0.0
  0
LINE
  5
EF9
330
A38
100
AcDbEntity
  8
stereodim
 62
     0
370
    -2
100
AcDbLine
 10
4.725698904211185
 20
12.32240785386678
 30
0.0
 11
4.908905988659343
 21
12.32240785386678
 31
0.0
  0
SOLID
  5
EFA
330
A38
100
AcDbEntity
  8
stereodim
 62
     0
100
AcDbTrace
 10
6.157798904211187
 20
12.35240785386678
 30
0.0
 11
6.157798904211187
 21
12.29240785386678
 31
0.0
 12
6.337798904211187
 22
12.32240785386678
 32
0.0
 13
6.337798904211187
 23
12.32240785386678
 33
0.0
  0
SOLID
  5
EFB
330
A38
100
AcDbEntity
  8
stereodim
 62
     0
100
AcDbTrace
 10
4.725698904211185
 20
12.35240785386678
 30
0.0
 11
4.725698904211185
 21
12.29240785386678
 31
0.0
 12
4.545698904211185
 22
12.32240785386678
 32
0.0
 13
4.545698904211185
 23
12.32240785386678
 33
0.0
  0
MTEXT
  5
EFC
330
A38
100
AcDbEntity
  8
stereodim
 62
     0
100
AcDbMText
 10
5.328905988659343
 20
12.32240785386678
 30
0.0
 40
0.18
 41
0.0
 71
     5
 72
     1
  1
\A1;1.792
 73
     1
 44
1.0
  0
POINT
  5
EFD
330
A38
100
AcDbEntity
  8
Defpoints
 62
     0
100
AcDbPoint
 10
6.337798904211187
 20
11.70836781704069
 30
0.0
  0
POINT
  5
EFE
330
A38
100
AcDbEntity
  8
Defpoints
 62
     0
100
AcDbPoint
 10
4.545698904211185
 20
11.86076665296798
 30
0.0
  0
POINT
  5
EFF
330
A38
100
AcDbEntity
  8
Defpoints
 62
     0
100
AcDbPoint
 10
4.545698904211185
 20
12.32240785386678
 30
0.0
  0
ENDBLK
  5
A44
330
A38
100
AcDbEntity
  8
0
100
AcDbBlockEnd
  0
BLOCK
  5
A51
330
A46
100
AcDbEntity
  8
0
100
AcDbBlockBegin
  2
*D62
 70
     1
 10
0.0
 20
0.0
 30
0.0
  3
*D62
  1

  0
LINE
  5
ED2
330
A46
100
AcDbEntity
  8
stereodim
 62
     0
370
    -2
100
AcDbLine
 10
7.636998904211182
 20
11.77236665296798
 30
0.0
 11
7.636998904211182
 21
12.93352228686932
 31
0.0
  0
LINE
  5
ED3
330
A46
100
AcDbEntity
  8
stereodim
 62
     0
370
    -2
100
AcDbLine
 10
4.545698904211185
 20
11.92326665296798
 30
0.0
 11
4.545698904211185
 21
12.93352228686932
 31
0.0
  0
LINE
  5
ED4
330
A46
100
AcDbEntity
  8
stereodim
 62
     0
370
    -2
100
AcDbLine
 10
7.456998904211182
 20
12.75352228686932
 30
0.0
 11
6.460934296047581
 21
12.75352228686932
 31
0.0
  0
LINE
  5
ED5
330
A46
100
AcDbEntity
  8
stereodim
 62
     0
370
    -2
100
AcDbLine
 10
4.725698904211185
 20
12.75352228686932
 30
0.0
 11
5.650934296047581
 21
12.75352228686932
 31
0.0
  0
SOLID
  5
ED6
330
A46
100
AcDbEntity
  8
stereodim
 62
     0
100
AcDbTrace
 10
7.456998904211182
 20
12.78352228686931
 30
0.0
 11
7.456998904211182
 21
12.72352228686932
 31
0.0
 12
7.636998904211182
 22
12.75352228686932
 32
0.0
 13
7.636998904211182
 23
12.75352228686932
 33
0.0
  0
SOLID
  5
ED7
330
A46
100
AcDbEntity
  8
stereodim
 62
     0
100
AcDbTrace
 10
4.725698904211185
 20
12.78352228686931
 30
0.0
 11
4.725698904211185
 21
12.72352228686932
 31
0.0
 12
4.545698904211185
 22
12.75352228686932
 32
0.0
 13
4.545698904211185
 23
12.75352228686932
 33
0.0
  0
MTEXT
  5
ED8
330
A46
100
AcDbEntity
  8
stereodim
 62
     0
100
AcDbMText
 10
6.055934296047581
 20
12.75352228686932
 30
0.0
 40
0.18
 41
0.0
 71
     5
 72
     1
  1
\A1;3.091
 73
     1
 44
1.0
  0
POINT
  5
ED9
330
A46
100
AcDbEntity
  8
Defpoints
 62
     0
100
AcDbPoint
 10
7.636998904211182
 20
11.70986665296798
 30
0.0
  0
POINT
  5
EDA
330
A46
100
AcDbEntity
  8
Defpoints
 62
     0
100
AcDbPoint
 10
4.545698904211185
 20
11.86076665296798
 30
0.0
  0
POINT
  5
EDB
330
A46
100
AcDbEntity
  8
Defpoints
 62
     0
100
AcDbPoint
 10
4.545698904211185
 20
12.75352228686932
 30
0.0
  0
ENDBLK
  5
A52
330
A46
100
AcDbEntity
  8
0
100
AcDbBlockEnd
  0
BLOCK
  5
A7D
330
A71
100
AcDbEntity
  8
0
100
AcDbBlockBegin
  2
*D65
 70
     1
 10
0.0
 20
0.0
 30
0.0
  3
*D65
  1

  0
LINE
  5
E77
330
A71
100
AcDbEntity
  8
stereodim
 62
     0
370
    -2
100
AcDbLine
 10
7.789498904211185
 20
11.61986665296798
 30
0.0
 11
11.34393511260843
 21
11.61986665296798
 31
0.0
  0
LINE
  5
E78
330
A71
100
AcDbEntity
  8
stereodim
 62
     0
370
    -2
100
AcDbLine
 10
10.90739890421118
 20
11.86076665296798
 30
0.0
 11
11.34393511260843
 21
11.86076665296798
 31
0.0
  0
LINE
  5
E79
330
A71
100
AcDbEntity
  8
stereodim
 62
     0
370
    -2
100
AcDbLine
 10
11.16393511260843
 20
11.43986665296798
 30
0.0
 11
11.16393511260843
 21
11.25986665296798
 31
0.0
  0
LINE
  5
E7A
330
A71
100
AcDbEntity
  8
stereodim
 62
     0
370
    -2
100
AcDbLine
 10
11.16393511260843
 20
12.04076665296798
 30
0.0
 11
11.16393511260843
 21
12.54412385452589
 31
0.0
  0
LINE
  5
E7B
330
A71
100
AcDbEntity
  8
stereodim
 62
     0
370
    -2
100
AcDbLine
 10
11.16393511260843
 20
12.54412385452589
 30
0.0
 11
11.34393511260843
 21
12.54412385452589
 31
0.0
  0
SOLID
  5
E7C
330
A71
100
AcDbEntity
  8
stereodim
 62
     0
100
AcDbTrace
 10
11.13393511260843
 20
11.43986665296798
 30
0.0
 11
11.19393511260843
 21
11.43986665296798
 31
0.0
 12
11.16393511260843
 22
11.61986665296798
 32
0.0
 13
11.16393511260843
 23
11.61986665296798
 33
0.0
  0
SOLID
  5
E7D
330
A71
100
AcDbEntity
  8
stereodim
 62
     0
100
AcDbTrace
 10
11.13393511260843
 20
12.04076665296798
 30
0.0
 11
11.19393511260843
 21
12.04076665296798
 31
0.0
 12
11.16393511260843
 22
11.86076665296798
 32
0.0
 13
11.16393511260843
 23
11.86076665296798
 33
0.0
  0
MTEXT
  5
E7E
330
A71
100
AcDbEntity
  8
stereodim
 62
     0
100
AcDbMText
 10
11.74893511260843
 20
12.5441238545259
 30
0.0
 40
0.18
 41
0.0
 71
     5
 72
     1
  1
\A1;0.241
 73
     1
 44
1.0
  0
POINT
  5
E7F
330
A71
100
AcDbEntity
  8
Defpoints
 62
     0
100
AcDbPoint
 10
7.726998904211185
 20
11.61986665296798
 30
0.0
  0
POINT
  5
E80
330
A71
100
AcDbEntity
  8
Defpoints
 62
     0
100
AcDbPoint
 10
10.84489890421118
 20
11.86076665296798
 30
0.0
  0
POINT
  5
E81
330
A71
100
AcDbEntity
  8
Defpoints
 62
     0
100
AcDbPoint
 10
11.16393511260843
 20
11.86076665296798
 30
0.0
  0
ENDBLK
  5
A7E
330
A71
100
AcDbEntity
  8
0
100
AcDbBlockEnd
  0
BLOCK
  5
A8B
330
A80
100
AcDbEntity
  8
0
100
AcDbBlockBegin
  2
*D66
 70
     1
 10
0.0
 20
0.0
 30
0.0
  3
*D66
  1

  0
LINE
  5
E82
330
A80
100
AcDbEntity
  8
stereodim
 62
     0
370
    -2
100
AcDbLine
 10
7.789498904211185
 20
9.989866652967988
 30
0.0
 11
11.65783981578611
 21
9.989866652967988
 31
0.0
  0
LINE
  5
E83
330
A80
100
AcDbEntity
  8
stereodim
 62
     0
370
    -2
100
AcDbLine
 10
10.90739890421118
 20
11.86076665296798
 30
0.0
 11
11.65783981578611
 21
11.86076665296798
 31
0.0
  0
LINE
  5
E84
330
A80
100
AcDbEntity
  8
stereodim
 62
     0
370
    -2
100
AcDbLine
 10
11.47783981578611
 20
10.16986665296798
 30
0.0
 11
11.47783981578611
 21
10.71357147515408
 31
0.0
  0
LINE
  5
E85
330
A80
100
AcDbEntity
  8
stereodim
 62
     0
370
    -2
100
AcDbLine
 10
11.47783981578611
 20
11.68076665296798
 30
0.0
 11
11.47783981578611
 21
11.07357147515408
 31
0.0
  0
SOLID
  5
E86
330
A80
100
AcDbEntity
  8
stereodim
 62
     0
100
AcDbTrace
 10
11.44783981578611
 20
10.16986665296798
 30
0.0
 11
11.50783981578611
 21
10.16986665296798
 31
0.0
 12
11.47783981578611
 22
9.989866652967988
 32
0.0
 13
11.47783981578611
 23
9.989866652967988
 33
0.0
  0
SOLID
  5
E87
330
A80
100
AcDbEntity
  8
stereodim
 62
     0
100
AcDbTrace
 10
11.44783981578611
 20
11.68076665296798
 30
0.0
 11
11.50783981578611
 21
11.68076665296798
 31
0.0
 12
11.47783981578611
 22
11.86076665296798
 32
0.0
 13
11.47783981578611
 23
11.86076665296798
 33
0.0
  0
MTEXT
  5
E88
330
A80
100
AcDbEntity
  8
stereodim
 62
     0
100
AcDbMText
 10
11.47783981578611
 20
10.89357147515408
 30
0.0
 40
0.18
 41
0.0
 71
     5
 72
     1
  1
\A1;1.871
 73
     1
 44
1.0
  0
POINT
  5
E89
330
A80
100
AcDbEntity
  8
Defpoints
 62
     0
100
AcDbPoint
 10
7.726998904211185
 20
9.989866652967988
 30
0.0
  0
POINT
  5
E8A
330
A80
100
AcDbEntity
  8
Defpoints
 62
     0
100
AcDbPoint
 10
10.84489890421118
 20
11.86076665296798
 30
0.0
  0
POINT
  5
E8B
330
A80
100
AcDbEntity
  8
Defpoints
 62
     0
100
AcDbPoint
 10
11.47783981578611
 20
11.86076665296798
 30
0.0
  0
ENDBLK
  5
A8C
330
A80
100
AcDbEntity
  8
0
100
AcDbBlockEnd
  0
BLOCK
  5
A99
330
A8E
100
AcDbEntity
  8
0
100
AcDbBlockBegin
  2
*D67
 70
     1
 10
0.0
 20
0.0
 30
0.0
  3
*D67
  1

  0
LINE
  5
E8C
330
A8E
100
AcDbEntity
  8
stereodim
 62
     0
370
    -2
100
AcDbLine
 10
9.207668904211189
 20
9.508266652967989
 30
0.0
 11
12.13841783818287
 21
9.508266652967988
 31
0.0
  0
LINE
  5
E8D
330
A8E
100
AcDbEntity
  8
stereodim
 62
     0
370
    -2
100
AcDbLine
 10
10.90739890421118
 20
11.86076665296798
 30
0.0
 11
12.13841783818287
 21
11.86076665296798
 31
0.0
  0
LINE
  5
E8E
330
A8E
100
AcDbEntity
  8
stereodim
 62
     0
370
    -2
100
AcDbLine
 10
11.95841783818287
 20
9.688266652967989
 30
0.0
 11
11.95841783818287
 21
10.34404482647417
 31
0.0
  0
LINE
  5
E8F
330
A8E
100
AcDbEntity
  8
stereodim
 62
     0
370
    -2
100
AcDbLine
 10
11.95841783818287
 20
11.68076665296798
 30
0.0
 11
11.95841783818287
 21
10.70404482647417
 31
0.0
  0
SOLID
  5
E90
330
A8E
100
AcDbEntity
  8
stereodim
 62
     0
100
AcDbTrace
 10
11.92841783818286
 20
9.688266652967989
 30
0.0
 11
11.98841783818286
 21
9.688266652967989
 31
0.0
 12
11.95841783818287
 22
9.508266652967989
 32
0.0
 13
11.95841783818287
 23
9.508266652967989
 33
0.0
  0
SOLID
  5
E91
330
A8E
100
AcDbEntity
  8
stereodim
 62
     0
100
AcDbTrace
 10
11.92841783818286
 20
11.68076665296798
 30
0.0
 11
11.98841783818286
 21
11.68076665296798
 31
0.0
 12
11.95841783818287
 22
11.86076665296798
 32
0.0
 13
11.95841783818287
 23
11.86076665296798
 33
0.0
  0
MTEXT
  5
E92
330
A8E
100
AcDbEntity
  8
stereodim
 62
     0
100
AcDbMText
 10
11.95841783818286
 20
10.52404482647417
 30
0.0
 40
0.18
 41
0.0
 71
     5
 72
     1
  1
\A1;2.353
 73
     1
 44
1.0
  0
POINT
  5
E93
330
A8E
100
AcDbEntity
  8
Defpoints
 62
     0
100
AcDbPoint
 10
9.145168904211189
 20
9.508266652967989
 30
0.0
  0
POINT
  5
E94
330
A8E
100
AcDbEntity
  8
Defpoints
 62
     0
100
AcDbPoint
 10
10.84489890421118
 20
11.86076665296798
 30
0.0
  0
POINT
  5
E95
330
A8E
100
AcDbEntity
  8
Defpoints
 62
     0
100
AcDbPoint
 10
11.95841783818287
 20
11.86076665296798
 30
0.0
  0
ENDBLK
  5
A9A
330
A8E
100
AcDbEntity
  8
0
100
AcDbBlockEnd
  0
BLOCK
  5
AA7
330
A9C
100
AcDbEntity
  8
0
100
AcDbBlockBegin
  2
*D68
 70
     1
 10
0.0
 20
0.0
 30
0.0
  3
*D68
  1

  0
LINE
  5
E96
330
A9C
100
AcDbEntity
  8
stereodim
 62
     0
370
    -2
100
AcDbLine
 10
9.055168904211186
 20
9.445766652967989
 30
0.0
 11
12.59435076540725
 21
9.445766652967988
 31
0.0
  0
LINE
  5
E97
330
A9C
100
AcDbEntity
  8
stereodim
 62
     0
370
    -2
100
AcDbLine
 10
10.90739890421118
 20
11.86076665296798
 30
0.0
 11
12.59435076540725
 21
11.86076665296798
 31
0.0
  0
LINE
  5
E98
330
A9C
100
AcDbEntity
  8
stereodim
 62
     0
370
    -2
100
AcDbLine
 10
12.41435076540725
 20
9.625766652967987
 30
0.0
 11
12.41435076540725
 21
10.71357147515408
 31
0.0
  0
LINE
  5
E99
330
A9C
100
AcDbEntity
  8
stereodim
 62
     0
370
    -2
100
AcDbLine
 10
12.41435076540725
 20
11.68076665296798
 30
0.0
 11
12.41435076540725
 21
11.07357147515408
 31
0.0
  0
SOLID
  5
E9A
330
A9C
100
AcDbEntity
  8
stereodim
 62
     0
100
AcDbTrace
 10
12.38435076540725
 20
9.625766652967987
 30
0.0
 11
12.44435076540725
 21
9.625766652967987
 31
0.0
 12
12.41435076540725
 22
9.445766652967988
 32
0.0
 13
12.41435076540725
 23
9.445766652967988
 33
0.0
  0
SOLID
  5
E9B
330
A9C
100
AcDbEntity
  8
stereodim
 62
     0
100
AcDbTrace
 10
12.38435076540725
 20
11.68076665296798
 30
0.0
 11
12.44435076540725
 21
11.68076665296798
 31
0.0
 12
12.41435076540725
 22
11.86076665296798
 32
0.0
 13
12.41435076540725
 23
11.86076665296798
 33
0.0
  0
MTEXT
  5
E9C
330
A9C
100
AcDbEntity
  8
stereodim
 62
     0
100
AcDbMText
 10
12.41435076540724
 20
10.89357147515408
 30
0.0
 40
0.18
 41
0.0
 71
     5
 72
     1
  1
\A1;2.415
 73
     1
 44
1.0
  0
POINT
  5
E9D
330
A9C
100
AcDbEntity
  8
Defpoints
 62
     0
100
AcDbPoint
 10
8.992668904211186
 20
9.445766652967989
 30
0.0
  0
POINT
  5
E9E
330
A9C
100
AcDbEntity
  8
Defpoints
 62
     0
100
AcDbPoint
 10
10.84489890421118
 20
11.86076665296798
 30
0.0
  0
POINT
  5
E9F
330
A9C
100
AcDbEntity
  8
Defpoints
 62
     0
100
AcDbPoint
 10
12.41435076540725
 20
11.86076665296798
 30
0.0
  0
ENDBLK
  5
AA8
330
A9C
100
AcDbEntity
  8
0
100
AcDbBlockEnd
  0
BLOCK
  5
AB5
330
AAA
100
AcDbEntity
  8
0
100
AcDbBlockBegin
  2
*D69
 70
     1
 10
0.0
 20
0.0
 30
0.0
  3
*D69
  1

  0
LINE
  5
EA0
330
AAA
100
AcDbEntity
  8
stereodim
 62
     0
370
    -2
100
AcDbLine
 10
9.574668904211186
 20
9.257766652967989
 30
0.0
 11
13.06260632355936
 21
9.257766652967987
 31
0.0
  0
LINE
  5
EA1
330
AAA
100
AcDbEntity
  8
stereodim
 62
     0
370
    -2
100
AcDbLine
 10
10.90739890421118
 20
11.86076665296798
 30
0.0
 11
13.06260632355936
 21
11.86076665296798
 31
0.0
  0
LINE
  5
EA2
330
AAA
100
AcDbEntity
  8
stereodim
 62
     0
370
    -2
100
AcDbLine
 10
12.88260632355936
 20
9.437766652967987
 30
0.0
 11
12.88260632355936
 21
10.34404482647417
 31
0.0
  0
LINE
  5
EA3
330
AAA
100
AcDbEntity
  8
stereodim
 62
     0
370
    -2
100
AcDbLine
 10
12.88260632355936
 20
11.68076665296798
 30
0.0
 11
12.88260632355936
 21
10.70404482647417
 31
0.0
  0
SOLID
  5
EA4
330
AAA
100
AcDbEntity
  8
stereodim
 62
     0
100
AcDbTrace
 10
12.85260632355936
 20
9.437766652967987
 30
0.0
 11
12.91260632355935
 21
9.437766652967987
 31
0.0
 12
12.88260632355936
 22
9.257766652967987
 32
0.0
 13
12.88260632355936
 23
9.257766652967987
 33
0.0
  0
SOLID
  5
EA5
330
AAA
100
AcDbEntity
  8
stereodim
 62
     0
100
AcDbTrace
 10
12.85260632355936
 20
11.68076665296798
 30
0.0
 11
12.91260632355935
 21
11.68076665296798
 31
0.0
 12
12.88260632355936
 22
11.86076665296798
 32
0.0
 13
12.88260632355936
 23
11.86076665296798
 33
0.0
  0
MTEXT
  5
EA6
330
AAA
100
AcDbEntity
  8
stereodim
 62
     0
100
AcDbMText
 10
12.88260632355935
 20
10.52404482647417
 30
0.0
 40
0.18
 41
0.0
 71
     5
 72
     1
  1
\A1;2.603
 73
     1
 44
1.0
  0
POINT
  5
EA7
330
AAA
100
AcDbEntity
  8
Defpoints
 62
     0
100
AcDbPoint
 10
9.512168904211186
 20
9.257766652967989
 30
0.0
  0
POINT
  5
EA8
330
AAA
100
AcDbEntity
  8
Defpoints
 62
     0
100
AcDbPoint
 10
10.84489890421118
 20
11.86076665296798
 30
0.0
  0
POINT
  5
EA9
330
AAA
100
AcDbEntity
  8
Defpoints
 62
     0
100
AcDbPoint
 10
12.88260632355936
 20
11.86076665296798
 30
0.0
  0
ENDBLK
  5
AB6
330
AAA
100
AcDbEntity
  8
0
100
AcDbBlockEnd
  0
BLOCK
  5
AC3
330
AB8
100
AcDbEntity
  8
0
100
AcDbBlockBegin
  2
*D70
 70
     1
 10
0.0
 20
0.0
 30
0.0
  3
*D70
  1

  0
LINE
  5
EAA
330
AB8
100
AcDbEntity
  8
stereodim
 62
     0
370
    -2
100
AcDbLine
 10
10.01319890421118
 20
9.009366652967987
 30
0.0
 11
13.54643099921177
 21
9.009366652967985
 31
0.0
  0
LINE
  5
EAB
330
AB8
100
AcDbEntity
  8
stereodim
 62
     0
370
    -2
100
AcDbLine
 10
10.90739890421118
 20
11.86076665296798
 30
0.0
 11
13.54643099921177
 21
11.86076665296798
 31
0.0
  0
LINE
  5
EAC
330
AB8
100
AcDbEntity
  8
stereodim
 62
     0
370
    -2
100
AcDbLine
 10
13.36643099921177
 20
9.189366652967985
 30
0.0
 11
13.36643099921177
 21
10.71365071726844
 31
0.0
  0
LINE
  5
EAD
330
AB8
100
AcDbEntity
  8
stereodim
 62
     0
370
    -2
100
AcDbLine
 10
13.36643099921177
 20
11.68076665296798
 30
0.0
 11
13.36643099921177
 21
11.07365071726844
 31
0.0
  0
SOLID
  5
EAE
330
AB8
100
AcDbEntity
  8
stereodim
 62
     0
100
AcDbTrace
 10
13.33643099921177
 20
9.189366652967985
 30
0.0
 11
13.39643099921177
 21
9.189366652967985
 31
0.0
 12
13.36643099921177
 22
9.009366652967985
 32
0.0
 13
13.36643099921177
 23
9.009366652967985
 33
0.0
  0
SOLID
  5
EAF
330
AB8
100
AcDbEntity
  8
stereodim
 62
     0
100
AcDbTrace
 10
13.33643099921177
 20
11.68076665296798
 30
0.0
 11
13.39643099921177
 21
11.68076665296798
 31
0.0
 12
13.36643099921177
 22
11.86076665296798
 32
0.0
 13
13.36643099921177
 23
11.86076665296798
 33
0.0
  0
MTEXT
  5
EB0
330
AB8
100
AcDbEntity
  8
stereodim
 62
     0
100
AcDbMText
 10
13.36643099921177
 20
10.89365071726845
 30
0.0
 40
0.18
 41
0.0
 71
     5
 72
     1
  1
\A1;2.851
 73
     1
 44
1.0
  0
POINT
  5
EB1
330
AB8
100
AcDbEntity
  8
Defpoints
 62
     0
100
AcDbPoint
 10
9.950698904211186
 20
9.009366652967987
 30
0.0
  0
POINT
  5
EB2
330
AB8
100
AcDbEntity
  8
Defpoints
 62
     0
100
AcDbPoint
 10
10.84489890421118
 20
11.86076665296798
 30
0.0
  0
POINT
  5
EB3
330
AB8
100
AcDbEntity
  8
Defpoints
 62
     0
100
AcDbPoint
 10
13.36643099921177
 20
11.86076665296798
 30
0.0
  0
ENDBLK
  5
AC4
330
AB8
100
AcDbEntity
  8
0
100
AcDbBlockEnd
  0
BLOCK
  5
AD1
330
AC6
100
AcDbEntity
  8
0
100
AcDbBlockBegin
  2
*D71
 70
     1
 10
0.0
 20
0.0
 30
0.0
  3
*D71
  1

  0
LINE
  5
EB4
330
AC6
100
AcDbEntity
  8
stereodim
 62
     0
370
    -2
100
AcDbLine
 10
10.01319890421118
 20
8.693766652967987
 30
0.0
 11
14.00236392643614
 21
8.693766652967985
 31
0.0
  0
LINE
  5
EB5
330
AC6
100
AcDbEntity
  8
stereodim
 62
     0
370
    -2
100
AcDbLine
 10
10.90739890421118
 20
11.86076665296798
 30
0.0
 11
14.00236392643614
 21
11.86076665296798
 31
0.0
  0
LINE
  5
EB6
330
AC6
100
AcDbEntity
  8
stereodim
 62
     0
370
    -2
100
AcDbLine
 10
13.82236392643614
 20
8.873766652967985
 30
0.0
 11
13.82236392643614
 21
10.35644163690424
 31
0.0
  0
LINE
  5
EB7
330
AC6
100
AcDbEntity
  8
stereodim
 62
     0
370
    -2
100
AcDbLine
 10
13.82236392643614
 20
11.68076665296798
 30
0.0
 11
13.82236392643614
 21
10.71644163690423
 31
0.0
  0
SOLID
  5
EB8
330
AC6
100
AcDbEntity
  8
stereodim
 62
     0
100
AcDbTrace
 10
13.79236392643614
 20
8.873766652967985
 30
0.0
 11
13.85236392643614
 21
8.873766652967985
 31
0.0
 12
13.82236392643614
 22
8.693766652967985
 32
0.0
 13
13.82236392643614
 23
8.693766652967985
 33
0.0
  0
SOLID
  5
EB9
330
AC6
100
AcDbEntity
  8
stereodim
 62
     0
100
AcDbTrace
 10
13.79236392643614
 20
11.68076665296798
 30
0.0
 11
13.85236392643614
 21
11.68076665296798
 31
0.0
 12
13.82236392643614
 22
11.86076665296798
 32
0.0
 13
13.82236392643614
 23
11.86076665296798
 33
0.0
  0
MTEXT
  5
EBA
330
AC6
100
AcDbEntity
  8
stereodim
 62
     0
100
AcDbMText
 10
13.82236392643614
 20
10.53644163690424
 30
0.0
 40
0.18
 41
0.0
 71
     5
 72
     1
  1
\A1;3.167
 73
     1
 44
1.0
  0
POINT
  5
EBB
330
AC6
100
AcDbEntity
  8
Defpoints
 62
     0
100
AcDbPoint
 10
9.950698904211186
 20
8.693766652967987
 30
0.0
  0
POINT
  5
EBC
330
AC6
100
AcDbEntity
  8
Defpoints
 62
     0
100
AcDbPoint
 10
10.84489890421118
 20
11.86076665296798
 30
0.0
  0
POINT
  5
EBD
330
AC6
100
AcDbEntity
  8
Defpoints
 62
     0
100
AcDbPoint
 10
13.82236392643614
 20
11.86076665296798
 30
0.0
  0
ENDBLK
  5
AD2
330
AC6
100
AcDbEntity
  8
0
100
AcDbBlockEnd
  0
BLOCK
  5
ADF
330
AD4
100
AcDbEntity
  8
0
100
AcDbBlockBegin
  2
*D72
 70
     1
 10
0.0
 20
0.0
 30
0.0
  3
*D72
  1

  0
LINE
  5
EBE
330
AD4
100
AcDbEntity
  8
stereodim
 62
     0
370
    -2
100
AcDbLine
 10
9.574668904211186
 20
8.632766652967989
 30
0.0
 11
14.50758696066373
 21
8.632766652967987
 31
0.0
  0
LINE
  5
EBF
330
AD4
100
AcDbEntity
  8
stereodim
 62
     0
370
    -2
100
AcDbLine
 10
10.90739890421118
 20
11.86076665296798
 30
0.0
 11
14.50758696066373
 21
11.86076665296798
 31
0.0
  0
LINE
  5
EC0
330
AD4
100
AcDbEntity
  8
stereodim
 62
     0
370
    -2
100
AcDbLine
 10
14.32758696066374
 20
8.812766652967987
 30
0.0
 11
14.32758696066374
 21
10.73828579664398
 31
0.0
  0
LINE
  5
EC1
330
AD4
100
AcDbEntity
  8
stereodim
 62
     0
370
    -2
100
AcDbLine
 10
14.32758696066374
 20
11.68076665296798
 30
0.0
 11
14.32758696066374
 21
11.09828579664398
 31
0.0
  0
SOLID
  5
EC2
330
AD4
100
AcDbEntity
  8
stereodim
 62
     0
100
AcDbTrace
 10
14.29758696066373
 20
8.812766652967987
 30
0.0
 11
14.35758696066374
 21
8.812766652967987
 31
0.0
 12
14.32758696066374
 22
8.632766652967987
 32
0.0
 13
14.32758696066374
 23
8.632766652967987
 33
0.0
  0
SOLID
  5
EC3
330
AD4
100
AcDbEntity
  8
stereodim
 62
     0
100
AcDbTrace
 10
14.29758696066373
 20
11.68076665296798
 30
0.0
 11
14.35758696066374
 21
11.68076665296798
 31
0.0
 12
14.32758696066374
 22
11.86076665296798
 32
0.0
 13
14.32758696066374
 23
11.86076665296798
 33
0.0
  0
MTEXT
  5
EC4
330
AD4
100
AcDbEntity
  8
stereodim
 62
     0
100
AcDbMText
 10
14.32758696066373
 20
10.91828579664398
 30
0.0
 40
0.18
 41
0.0
 71
     5
 72
     1
  1
\A1;3.228
 73
     1
 44
1.0
  0
POINT
  5
EC5
330
AD4
100
AcDbEntity
  8
Defpoints
 62
     0
100
AcDbPoint
 10
9.512168904211186
 20
8.632766652967989
 30
0.0
  0
POINT
  5
EC6
330
AD4
100
AcDbEntity
  8
Defpoints
 62
     0
100
AcDbPoint
 10
10.84489890421118
 20
11.86076665296798
 30
0.0
  0
POINT
  5
EC7
330
AD4
100
AcDbEntity
  8
Defpoints
 62
     0
100
AcDbPoint
 10
14.32758696066374
 20
11.86076665296798
 30
0.0
  0
ENDBLK
  5
AE0
330
AD4
100
AcDbEntity
  8
0
100
AcDbBlockEnd
  0
BLOCK
  5
AED
330
AE2
100
AcDbEntity
  8
0
100
AcDbBlockBegin
  2
*D73
 70
     1
 10
0.0
 20
0.0
 30
0.0
  3
*D73
  1

  0
LINE
  5
EC8
330
AE2
100
AcDbEntity
  8
stereodim
 62
     0
370
    -2
100
AcDbLine
 10
9.389724856938528
 20
8.386766652967988
 30
0.0
 11
14.98816498306049
 21
8.386766652967986
 31
0.0
  0
LINE
  5
EC9
330
AE2
100
AcDbEntity
  8
stereodim
 62
     0
370
    -2
100
AcDbLine
 10
10.90739890421118
 20
11.86076665296798
 30
0.0
 11
14.98816498306049
 21
11.86076665296798
 31
0.0
  0
LINE
  5
ECA
330
AE2
100
AcDbEntity
  8
stereodim
 62
     0
370
    -2
100
AcDbLine
 10
14.80816498306049
 20
8.566766652967986
 30
0.0
 11
14.80816498306049
 21
10.34412406858854
 31
0.0
  0
LINE
  5
ECB
330
AE2
100
AcDbEntity
  8
stereodim
 62
     0
370
    -2
100
AcDbLine
 10
14.80816498306049
 20
11.68076665296798
 30
0.0
 11
14.80816498306049
 21
10.70412406858854
 31
0.0
  0
SOLID
  5
ECC
330
AE2
100
AcDbEntity
  8
stereodim
 62
     0
100
AcDbTrace
 10
14.77816498306049
 20
8.566766652967986
 30
0.0
 11
14.83816498306049
 21
8.566766652967986
 31
0.0
 12
14.80816498306049
 22
8.386766652967986
 32
0.0
 13
14.80816498306049
 23
8.386766652967986
 33
0.0
  0
SOLID
  5
ECD
330
AE2
100
AcDbEntity
  8
stereodim
 62
     0
100
AcDbTrace
 10
14.77816498306049
 20
11.68076665296798
 30
0.0
 11
14.83816498306049
 21
11.68076665296798
 31
0.0
 12
14.80816498306049
 22
11.86076665296798
 32
0.0
 13
14.80816498306049
 23
11.86076665296798
 33
0.0
  0
MTEXT
  5
ECE
330
AE2
100
AcDbEntity
  8
stereodim
 62
     0
100
AcDbMText
 10
14.80816498306049
 20
10.52412406858854
 30
0.0
 40
0.18
 41
0.0
 71
     5
 72
     1
  1
\A1;3.474
 73
     1
 44
1.0
  0
POINT
  5
ECF
330
AE2
100
AcDbEntity
  8
Defpoints
 62
     0
100
AcDbPoint
 10
9.327224856938528
 20
8.386766652967988
 30
0.0
  0
POINT
  5
ED0
330
AE2
100
AcDbEntity
  8
Defpoints
 62
     0
100
AcDbPoint
 10
10.84489890421118
 20
11.86076665296798
 30
0.0
  0
POINT
  5
ED1
330
AE2
100
AcDbEntity
  8
Defpoints
 62
     0
100
AcDbPoint
 10
14.80816498306049
 20
11.86076665296798
 30
0.0
  0
ENDBLK
  5
AEE
330
AE2
100
AcDbEntity
  8
0
100
AcDbBlockEnd
  0
BLOCK
  5
AFB
330
AF0
100
AcDbEntity
  8
0
100
AcDbBlockBegin
  2
*D74
 70
     1
 10
0.0
 20
0.0
 30
0.0
  3
*D74
  1

  0
LINE
  5
F00
330
AF0
100
AcDbEntity
  8
stereodim
 62
     0
370
    -2
100
AcDbLine
 10
10.90739890421119
 20
8.185986716654166
 30
0.0
 11
15.48106546970189
 21
8.185986716654165
 31
0.0
  0
LINE
  5
F01
330
AF0
100
AcDbEntity
  8
stereodim
 62
     0
370
    -2
100
AcDbLine
 10
10.90739890421118
 20
11.86076665296798
 30
0.0
 11
15.48106546970189
 21
11.86076665296798
 31
0.0
  0
LINE
  5
F02
330
AF0
100
AcDbEntity
  8
stereodim
 62
     0
370
    -2
100
AcDbLine
 10
15.30106546970189
 20
8.365986716654164
 30
0.0
 11
15.30106546970189
 21
10.71365071726844
 31
0.0
  0
LINE
  5
F03
330
AF0
100
AcDbEntity
  8
stereodim
 62
     0
370
    -2
100
AcDbLine
 10
15.30106546970189
 20
11.68076665296798
 30
0.0
 11
15.30106546970189
 21
11.07365071726844
 31
0.0
  0
SOLID
  5
F04
330
AF0
100
AcDbEntity
  8
stereodim
 62
     0
100
AcDbTrace
 10
15.27106546970189
 20
8.365986716654164
 30
0.0
 11
15.33106546970189
 21
8.365986716654164
 31
0.0
 12
15.30106546970189
 22
8.185986716654165
 32
0.0
 13
15.30106546970189
 23
8.185986716654165
 33
0.0
  0
SOLID
  5
F05
330
AF0
100
AcDbEntity
  8
stereodim
 62
     0
100
AcDbTrace
 10
15.27106546970189
 20
11.68076665296798
 30
0.0
 11
15.33106546970189
 21
11.68076665296798
 31
0.0
 12
15.30106546970189
 22
11.86076665296798
 32
0.0
 13
15.30106546970189
 23
11.86076665296798
 33
0.0
  0
MTEXT
  5
F06
330
AF0
100
AcDbEntity
  8
stereodim
 62
     0
100
AcDbMText
 10
15.30106546970189
 20
10.89365071726845
 30
0.0
 40
0.18
 41
0.0
 71
     5
 72
     1
  1
\A1;3.675
 73
     1
 44
1.0
  0
POINT
  5
F07
330
AF0
100
AcDbEntity
  8
Defpoints
 62
     0
100
AcDbPoint
 10
10.84489890421119
 20
8.185986716654166
 30
0.0
  0
POINT
  5
F08
330
AF0
100
AcDbEntity
  8
Defpoints
 62
     0
100
AcDbPoint
 10
10.84489890421118
 20
11.86076665296798
 30
0.0
  0
POINT
  5
F09
330
AF0
100
AcDbEntity
  8
Defpoints
 62
     0
100
AcDbPoint
 10
15.30106546970189
 20
11.86076665296798
 30
0.0
  0
ENDBLK
  5
AFC
330
AF0
100
AcDbEntity
  8
0
100
AcDbBlockEnd
  0
BLOCK
  5
B09
330
AFE
100
AcDbEntity
  8
0
100
AcDbBlockBegin
  2
*D75
 70
     1
 10
0.0
 20
0.0
 30
0.0
  3
*D75
  1

  0
LINE
  5
EE4
330
AFE
100
AcDbEntity
  8
stereodim
 62
     0
370
    -2
100
AcDbLine
 10
4.483198904211189
 20
7.643526344341909
 30
0.0
 11
3.789620545883061
 21
7.643526344341909
 31
0.0
  0
LINE
  5
EE5
330
AFE
100
AcDbEntity
  8
stereodim
 62
     0
370
    -2
100
AcDbLine
 10
4.483198904211185
 20
11.86076665296798
 30
0.0
 11
3.789620545883062
 21
11.86076665296799
 31
0.0
  0
LINE
  5
EE6
330
AFE
100
AcDbEntity
  8
stereodim
 62
     0
370
    -2
100
AcDbLine
 10
3.969620545883061
 20
7.823526344341908
 30
0.0
 11
3.969620545883062
 21
9.703611203242587
 31
0.0
  0
LINE
  5
EE7
330
AFE
100
AcDbEntity
  8
stereodim
 62
     0
370
    -2
100
AcDbLine
 10
3.969620545883062
 20
11.68076665296799
 30
0.0
 11
3.969620545883062
 21
10.06361120324258
 31
0.0
  0
SOLID
  5
EE8
330
AFE
100
AcDbEntity
  8
stereodim
 62
     0
100
AcDbTrace
 10
3.939620545883061
 20
7.823526344341908
 30
0.0
 11
3.999620545883061
 21
7.823526344341908
 31
0.0
 12
3.969620545883061
 22
7.643526344341909
 32
0.0
 13
3.969620545883061
 23
7.643526344341909
 33
0.0
  0
SOLID
  5
EE9
330
AFE
100
AcDbEntity
  8
stereodim
 62
     0
100
AcDbTrace
 10
3.939620545883062
 20
11.68076665296799
 30
0.0
 11
3.999620545883062
 21
11.68076665296799
 31
0.0
 12
3.969620545883062
 22
11.86076665296799
 32
0.0
 13
3.969620545883062
 23
11.86076665296799
 33
0.0
  0
MTEXT
  5
EEA
330
AFE
100
AcDbEntity
  8
stereodim
 62
     0
100
AcDbMText
 10
3.96962054588306
 20
9.883611203242587
 30
0.0
 40
0.18
 41
0.0
 71
     5
 72
     1
  1
\A1;4.217
 73
     1
 44
1.0
  0
POINT
  5
EEB
330
AFE
100
AcDbEntity
  8
Defpoints
 62
     0
100
AcDbPoint
 10
4.545698904211189
 20
7.643526344341909
 30
0.0
  0
POINT
  5
EEC
330
AFE
100
AcDbEntity
  8
Defpoints
 62
     0
100
AcDbPoint
 10
4.545698904211185
 20
11.86076665296798
 30
0.0
  0
POINT
  5
EED
330
AFE
100
AcDbEntity
  8
Defpoints
 62
     0
100
AcDbPoint
 10
3.969620545883062
 20
11.86076665296799
 30
0.0
  0
ENDBLK
  5
B0A
330
AFE
100
AcDbEntity
  8
0
100
AcDbBlockEnd
  0
BLOCK
  5
B19
330
B0C
100
AcDbEntity
  8
0
100
AcDbBlockBegin
  2
*D76
 70
     1
 10
0.0
 20
0.0
 30
0.0
  3
*D76
  1

  0
LINE
  5
E55
330
B0C
100
AcDbEntity
  8
stereodim
 62
     0
370
    -2
100
AcDbLine
 10
10.84489890421119
 20
8.123486716654163
 30
0.0
 11
10.84489890421119
 21
7.197291839434207
 31
0.0
  0
LINE
  5
E56
330
B0C
100
AcDbEntity
  8
stereodim
 62
     0
370
    -2
100
AcDbLine
 10
10.90708686671589
 20
8.192224289861211
 30
0.0
 11
11.82865762346158
 21
8.284659623471654
 31
0.0
  0
ARC
  5
E57
330
B0C
100
AcDbEntity
  8
stereodim
 62
     0
370
    -2
100
AcDbCircle
 10
10.84489890421119
 20
8.185986716654166
 30
0.0
 40
0.8086948772199558
100
AcDbArc
 50
282.7794169963865
 51
304.8081307485174
  0
ARC
  5
E58
330
B0C
100
AcDbEntity
  8
stereodim
 62
     0
370
    -2
100
AcDbCircle
 10
10.84489890421119
 20
8.185986716654166
 30
0.0
 40
0.8086948772199558
100
AcDbArc
 50
337.9196491598522
 51
352.9483041601349
  0
SOLID
  5
E59
330
B0C
100
AcDbEntity
  8
stereodim
 62
     0
100
AcDbTrace
 10
11.02711944363208
 20
7.367510478937839
 30
0.0
 11
11.02044201787842
 21
7.427137754452525
 31
0.0
 12
10.84489890421119
 22
7.377291839434208
 32
0.0
 13
10.84489890421119
 23
7.377291839434208
 33
0.0
  0
SOLID
  5
E5A
330
B0C
100
AcDbEntity
  8
stereodim
 62
     0
100
AcDbTrace
 10
11.61747864550115
 20
8.087054034800216
 30
0.0
 11
11.67747464079617
 21
8.086360818700429
 31
0.0
 12
11.64955629144802
 22
8.266695412635357
 32
0.0
 13
11.64955629144802
 23
8.266695412635357
 33
0.0
  0
MTEXT
  5
E5B
330
B0C
100
AcDbEntity
  8
stereodim
 62
     0
100
AcDbMText
 10
11.49277045370453
 20
7.701993059878688
 30
0.0
 40
0.18
 41
0.0
 71
     5
 72
     1
  1
\A1;96°
 73
     1
 44
1.0
  0
POINT
  5
E5C
330
B0C
100
AcDbEntity
  8
Defpoints
 62
     0
100
AcDbPoint
 10
11.27235499778515
 20
7.499496591081854
 30
0.0
  0
POINT
  5
E5D
330
B0C
100
AcDbEntity
  8
Defpoints
 62
     0
100
AcDbPoint
 10
5.436624856938524
 20
7.643526344341907
 30
0.0
  0
POINT
  5
E5E
330
B0C
100
AcDbEntity
  8
Defpoints
 62
     0
100
AcDbPoint
 10
10.84489890421118
 20
11.86076665296798
 30
0.0
  0
POINT
  5
E5F
330
B0C
100
AcDbEntity
  8
Defpoints
 62
     0
100
AcDbPoint
 10
10.84489890421119
 20
8.185986716654163
 30
0.0
  0
POINT
  5
E60
330
B0C
100
AcDbEntity
  8
Defpoints
 62
     0
100
AcDbPoint
 10
10.84489890421118
 20
8.185986716654163
 30
0.0
  0
ENDBLK
  5
B1A
330
B0C
100
AcDbEntity
  8
0
100
AcDbBlockEnd
  0
BLOCK
  5
B25
330
B1C
100
AcDbEntity
  8
0
100
AcDbBlockBegin
  2
*D77
 70
     1
 10
0.0
 20
0.0
 30
0.0
  3
*D77
  1

  0
LINE
  5
EDC
330
B1C
100
AcDbEntity
  8
stereodim
 62
     0
370
    -2
100
AcDbLine
 10
5.450228708110826
 20
9.238935073821835
 30
0.0
 11
4.222427215241867
 21
12.77682582389528
 31
0.0
  0
LINE
  5
EDD
330
B1C
100
AcDbEntity
  8
stereodim
 62
     0
370
    -2
100
AcDbLine
 10
4.222427215241867
 20
12.77682582389528
 30
0.0
 11
4.042427215241867
 21
12.77682582389528
 31
0.0
  0
SOLID
  5
EDE
330
B1C
100
AcDbEntity
  8
stereodim
 62
     0
100
AcDbTrace
 10
5.478570488463154
 20
9.24877090050089
 30
0.0
 11
5.4218869277585
 21
9.22909924714278
 31
0.0
 12
5.509243668185153
 22
9.068884391707868
 32
0.0
 13
5.509243668185153
 23
9.068884391707868
 33
0.0
  0
MTEXT
  5
EDF
330
B1C
100
AcDbEntity
  8
stereodim
 62
     0
100
AcDbMText
 10
3.532427215241827
 20
12.77682582389527
 30
0.0
 40
0.18
 41
0.0
 71
     5
 72
     1
  1
\A1;R0.063
 73
     1
 44
1.0
  0
LINE
  5
EE0
330
B1C
100
AcDbEntity
  8
stereodim
 62
     0
370
    -2
100
AcDbLine
 10
5.439898904211155
 20
9.009366652968017
 30
0.0
 11
5.619898904211154
 21
9.009366652968015
 31
0.0
  0
LINE
  5
EE1
330
B1C
100
AcDbEntity
  8
stereodim
 62
     0
370
    -2
100
AcDbLine
 10
5.529898904211155
 20
8.919366652968017
 30
0.0
 11
5.529898904211155
 21
9.099366652968015
 31
0.0
  0
POINT
  5
EE2
330
B1C
100
AcDbEntity
  8
Defpoints
 62
     0
100
AcDbPoint
 10
5.509243668185153
 20
9.068884391707868
 30
0.0
  0
POINT
  5
EE3
330
B1C
100
AcDbEntity
  8
Defpoints
 62
     0
100
AcDbPoint
 10
5.529898904211155
 20
9.009366652968017
 30
0.0
  0
ENDBLK
  5
B26
330
B1C
100
AcDbEntity
  8
0
100
AcDbBlockEnd
  0
BLOCK
  5
B31
330
B28
100
AcDbEntity
  8
0
100
AcDbBlockBegin
  2
*D78
 70
     1
 10
0.0
 20
0.0
 30
0.0
  3
*D78
  1

  0
LINE
  5
EEE
330
B28
100
AcDbEntity
  8
stereodim
 62
     0
370
    -2
100
AcDbLine
 10
5.295234182654834
 20
8.988828457437628
 30
0.0
 11
3.271629963107887
 21
11.53325997058477
 31
0.0
  0
LINE
  5
EEF
330
B28
100
AcDbEntity
  8
stereodim
 62
     0
370
    -2
100
AcDbLine
 10
3.271629963107887
 20
11.53325997058477
 30
0.0
 11
3.091629963107886
 21
11.53325997058477
 31
0.0
  0
SOLID
  5
EF0
330
B28
100
AcDbEntity
  8
stereodim
 62
     0
100
AcDbTrace
 10
5.318713901843398
 20
9.007502042707365
 30
0.0
 11
5.271754463466269
 21
8.970154872167892
 31
0.0
 12
5.407275694273253
 22
8.847950142306236
 32
0.0
 13
5.407275694273253
 23
8.847950142306236
 33
0.0
  0
MTEXT
  5
EF1
330
B28
100
AcDbEntity
  8
stereodim
 62
     0
100
AcDbMText
 10
2.566629963107884
 20
11.53325997058477
 30
0.0
 40
0.18
 41
0.0
 71
     5
 72
     1
  1
\A1;\U+22050.394
 73
     1
 44
1.0
  0
LINE
  5
EF2
330
B28
100
AcDbEntity
  8
stereodim
 62
     0
370
    -2
100
AcDbLine
 10
5.439898904211188
 20
8.693766652967994
 30
0.0
 11
5.619898904211186
 21
8.69376665296799
 31
0.0
  0
LINE
  5
EF3
330
B28
100
AcDbEntity
  8
stereodim
 62
     0
370
    -2
100
AcDbLine
 10
5.529898904211187
 20
8.603766652967992
 30
0.0
 11
5.529898904211187
 21
8.783766652967992
 31
0.0
  0
POINT
  5
EF4
330
B28
100
AcDbEntity
  8
Defpoints
 62
     0
100
AcDbPoint
 10
5.407275694273253
 20
8.847950142306236
 30
0.0
  0
POINT
  5
EF5
330
B28
100
AcDbEntity
  8
Defpoints
 62
     0
100
AcDbPoint
 10
5.652522114149122
 20
8.539583163629751
 30
0.0
  0
ENDBLK
  5
B32
330
B28
100
AcDbEntity
  8
0
100
AcDbBlockEnd
  0
BLOCK
  5
B3D
330
B34
100
AcDbEntity
  8
0
100
AcDbBlockBegin
  2
*D79
 70
     1
 10
0.0
 20
0.0
 30
0.0
  3
*D79
  1

  0
LINE
  5
DF3
330
B34
100
AcDbEntity
  8
stereodim
 62
     0
370
    -2
100
AcDbLine
 10
6.401491457515688
 20
8.354799709986599
 30
0.0
 11
7.535504105436702
 21
7.434145609621486
 31
0.0
  0
LINE
  5
DF4
330
B34
100
AcDbEntity
  8
stereodim
 62
     0
370
    -2
100
AcDbLine
 10
7.535504105436702
 20
7.434145609621486
 30
0.0
 11
7.715504105436703
 21
7.434145609621487
 31
0.0
  0
SOLID
  5
DF5
330
B34
100
AcDbEntity
  8
stereodim
 62
     0
100
AcDbTrace
 10
6.420400189208921
 20
8.378090477808919
 30
0.0
 11
6.382582725822453
 21
8.331508942164276
 31
0.0
 12
6.261746850581757
 22
8.468252100146001
 32
0.0
 13
6.261746850581757
 23
8.468252100146001
 33
0.0
  0
MTEXT
  5
DF6
330
B34
100
AcDbEntity
  8
stereodim
 62
     0
100
AcDbMText
 10
8.210504105436697
 20
7.434145609621479
 30
0.0
 40
0.18
 41
0.0
 71
     5
 72
     1
  1
\A1;R0.050
 73
     1
 44
1.0
  0
LINE
  5
DF7
330
B34
100
AcDbEntity
  8
stereodim
 62
     0
370
    -2
100
AcDbLine
 10
6.132928904211229
 20
8.499766652968057
 30
0.0
 11
6.312928904211228
 21
8.499766652968055
 31
0.0
  0
LINE
  5
DF8
330
B34
100
AcDbEntity
  8
stereodim
 62
     0
370
    -2
100
AcDbLine
 10
6.222928904211229
 20
8.409766652968055
 30
0.0
 11
6.222928904211228
 21
8.589766652968055
 31
0.0
  0
POINT
  5
DF9
330
B34
100
AcDbEntity
  8
Defpoints
 62
     0
100
AcDbPoint
 10
6.261746850581757
 20
8.468252100146001
 30
0.0
  0
POINT
  5
DFA
330
B34
100
AcDbEntity
  8
Defpoints
 62
     0
100
AcDbPoint
 10
6.222928904211228
 20
8.499766652968055
 30
0.0
  0
ENDBLK
  5
B3E
330
B34
100
AcDbEntity
  8
0
100
AcDbBlockEnd
  0
BLOCK
  5
B4B
330
B40
100
AcDbEntity
  8
0
100
AcDbBlockBegin
  2
*D80
 70
     1
 10
0.0
 20
0.0
 30
0.0
  3
*D80
  1

  0
LINE
  5
DCB
330
B40
100
AcDbEntity
  8
stereodim
 62
     0
370
    -2
100
AcDbLine
 10
5.426698904211185
 20
7.581026344341911
 30
0.0
 11
5.426698904211185
 21
7.127457292810476
 31
0.0
  0
LINE
  5
DCC
330
B40
100
AcDbEntity
  8
stereodim
 62
     0
370
    -2
100
AcDbLine
 10
4.545698904211189
 20
7.581026344341909
 30
0.0
 11
4.545698904211189
 21
7.127457292810476
 31
0.0
  0
LINE
  5
DCD
330
B40
100
AcDbEntity
  8
stereodim
 62
     0
370
    -2
100
AcDbLine
 10
5.606698904211185
 20
7.307457292810475
 30
0.0
 11
5.786698904211186
 21
7.307457292810475
 31
0.0
  0
LINE
  5
DCE
330
B40
100
AcDbEntity
  8
stereodim
 62
     0
370
    -2
100
AcDbLine
 10
4.365698904211189
 20
7.307457292810475
 30
0.0
 11
4.185698904211188
 21
7.307457292810475
 31
0.0
  0
SOLID
  5
DCF
330
B40
100
AcDbEntity
  8
stereodim
 62
     0
100
AcDbTrace
 10
5.606698904211185
 20
7.337457292810475
 30
0.0
 11
5.606698904211185
 21
7.277457292810475
 31
0.0
 12
5.426698904211185
 22
7.307457292810475
 32
0.0
 13
5.426698904211185
 23
7.307457292810475
 33
0.0
  0
SOLID
  5
DD0
330
B40
100
AcDbEntity
  8
stereodim
 62
     0
100
AcDbTrace
 10
4.365698904211189
 20
7.337457292810475
 30
0.0
 11
4.365698904211189
 21
7.277457292810475
 31
0.0
 12
4.545698904211189
 22
7.307457292810475
 32
0.0
 13
4.545698904211189
 23
7.307457292810475
 33
0.0
  0
MTEXT
  5
DD1
330
B40
100
AcDbEntity
  8
stereodim
 62
     0
100
AcDbMText
 10
4.950283431578753
 20
7.307457292810475
 30
0.0
 40
0.18
 41
0.0
 71
     5
 72
     1
  1
\A1;0.881
 73
     1
 44
1.0
  0
POINT
  5
DD2
330
B40
100
AcDbEntity
  8
Defpoints
 62
     0
100
AcDbPoint
 10
5.426698904211185
 20
7.643526344341911
 30
0.0
  0
POINT
  5
DD3
330
B40
100
AcDbEntity
  8
Defpoints
 62
     0
100
AcDbPoint
 10
4.545698904211189
 20
7.643526344341909
 30
0.0
  0
POINT
  5
DD4
330
B40
100
AcDbEntity
  8
Defpoints
 62
     0
100
AcDbPoint
 10
4.545698904211189
 20
7.307457292810475
 30
0.0
  0
ENDBLK
  5
B4C
330
B40
100
AcDbEntity
  8
0
100
AcDbBlockEnd
  0
ENDSEC
  0
SECTION
  2
ENTITIES
  0
LINE
  5
337
330
1F
100
AcDbEntity
  8
TEXT
100
AcDbLine
 10
0.5
 20
14.125
 30
0.0
 11
3.0625
 21
14.125
 31
0.0
  0
LINE
  5
338
330
1F
100
AcDbEntity
  8
TEXT
100
AcDbLine
 10
3.0625
 20
14.125
 30
0.0
 11
3.0625
 21
14.625
 31
0.0
  0
CIRCLE
  5
339
330
1F
100
AcDbEntity
  8
TEXT
100
AcDbCircle
 10
1.177871382375997
 20
14.36146089745938
 30
0.0
 40
0.1875
  0
CIRCLE
  5
33A
330
1F
100
AcDbEntity
  8
TEXT
100
AcDbCircle
 10
1.177871382375997
 20
14.36146089745938
 30
0.0
 40
0.09375
  0
LINE
  5
33B
330
1F
100
AcDbEntity
  8
TEXT
  6
CENTER
100
AcDbLine
 10
0.9439511930482353
 20
14.36146089745938
 30
0.0
 11
2.396621382375997
 21
14.36146089745938
 31
0.0
  0
LINE
  5
33C
330
1F
100
AcDbEntity
  8
TEXT
  6
CENTER
100
AcDbLine
 10
1.177871382375997
 20
14.13277903195262
 30
0.0
 11
1.177871382375997
 21
14.60065584518079
 31
0.0
  0
LINE
  5
33D
330
1F
100
AcDbEntity
  8
TEXT
100
AcDbLine
 10
1.646621382375997
 20
14.45521089745938
 30
0.0
 11
2.131263037562575
 21
14.54896089745938
 31
0.0
  0
LINE
  5
33E
330
1F
100
AcDbEntity
  8
TEXT
100
AcDbLine
 10
1.646621382375997
 20
14.26771089745938
 30
0.0
 11
2.131263037562575
 21
14.17396089745938
 31
0.0
  0
LINE
  5
33F
330
1F
100
AcDbEntity
  8
TEXT
100
AcDbLine
 10
1.646621382375997
 20
14.26771089745938
 30
0.0
 11
1.646621382375997
 21
14.45521089745938
 31
0.0
  0
LINE
  5
340
330
1F
100
AcDbEntity
  8
TEXT
100
AcDbLine
 10
2.131263037562575
 20
14.54896089745938
 30
0.0
 11
2.131263037562575
 21
14.17396089745938
 31
0.0
  0
TEXT
  5
341
330
1F
100
AcDbEntity
  8
TEXT
100
AcDbText
 10
0.6875
 20
13.93982759025163
 30
0.0
 40
0.1
  1
THIRD ANGLE PROJECTION
100
AcDbText
  0
LINE
  5
342
330
1F
100
AcDbEntity
  8
TEXT
100
AcDbLine
 10
3.0625
 20
14.125
 30
0.0
 11
3.0625
 21
13.875
 31
0.0
  0
LINE
  5
343
330
1F
100
AcDbEntity
  8
TEXT
100
AcDbLine
 10
3.0625
 20
13.875
 30
0.0
 11
0.5
 21
13.875
 31
0.0
  0
TEXT
  5
344
330
1F
100
AcDbEntity
  8
TEXT
100
AcDbText
 10
15.40791980373655
 20
1.361504946102674
 30
0.0
 40
0.065
  1
  %%P 0.5%%D
  7
ADESK2
100
AcDbText
  0
TEXT
  5
345
330
1F
100
AcDbEntity
  8
TEXT
100
AcDbText
 10
15.40791980373655
 20
1.466742946102673
 30
0.0
 40
0.065
  1
ANGULAR
  7
ADESK2
100
AcDbText
  0
TEXT
  5
346
330
1F
100
AcDbEntity
  8
TEXT
100
AcDbText
 10
14.61466004183179
 20
1.153743946102673
 30
0.0
 40
0.065
  1
DO NOT SCALE DRAWING
  7
ADESK2
 72
     1
 11
15.22906480373655
 21
1.153743946102673
 31
0.0
100
AcDbText
  0
TEXT
  5
347
330
1F
100
AcDbEntity
  8
TEXT
100
AcDbText
 10
14.54402280373655
 20
1.256266946102674
 30
0.0
 40
0.065
  1
.XXX %%P .005
  7
ADESK2
100
AcDbText
  0
TEXT
  5
348
330
1F
100
AcDbEntity
  8
TEXT
100
AcDbText
 10
14.54402280373655
 20
1.361504946102674
 30
0.0
 40
0.065
  1
.XX  %%P .05
  7
ADESK2
100
AcDbText
  0
TEXT
  5
349
330
1F
100
AcDbEntity
  8
TEXT
100
AcDbText
 10
14.54402280373655
 20
1.466742946102673
 30
0.0
 40
0.065
  1
DECIMALS
  7
ADESK2
100
AcDbText
  0
TEXT
  5
34A
330
1F
100
AcDbEntity
  8
TEXT
100
AcDbText
 10
14.93037432754608
 20
1.574612946102674
 30
0.0
 40
0.065
  1
TOLERANCES
  7
ADESK2
 72
     1
 11
15.22906480373655
 21
1.574612946102674
 31
0.0
100
AcDbText
  0
TEXT
  5
34B
330
1F
100
AcDbEntity
  8
TEXT
100
AcDbText
 10
14.53263623230798
 20
1.679850946102674
 30
0.0
 40
0.065
  1
DIMENSIONS ARE IN INCHES
  7
ADESK2
 72
     1
 11
15.22906480373655
 21
1.679850946102674
 31
0.0
100
AcDbText
  0
TEXT
  5
34C
330
1F
100
AcDbEntity
  8
TEXT
100
AcDbText
 10
14.45835051802227
 20
1.785088946102673
 30
0.0
 40
0.065
  1
UNLESS OTHERWISE SPECIFIED:
  7
ADESK2
 72
     1
 11
15.22906480373655
 21
1.785088946102673
 31
0.0
100
AcDbText
  0
TEXT
  5
34D
330
1F
100
AcDbEntity
  8
BORDER
100
AcDbText
 10
16.91660791890448
 20
1.575566135628289
 30
0.0
 40
0.15
  1
HIGH ENERGY PHYSICS
100
AcDbText
  0
LINE
  5
34E
330
1F
100
AcDbEntity
  8
BORDER
100
AcDbLine
 10
0.5
 20
14.625
 30
0.0
 11
20.5
 21
14.625
 31
0.0
  0
TEXT
  5
34F
330
1F
100
AcDbEntity
  8
TEXT
100
AcDbText
 10
16.68013672017864
 20
0.6653543307085397
 30
0.0
 40
0.075
  1
DIRECTORY
100
AcDbText
  0
TEXT
  5
350
330
1F
100
AcDbEntity
  8
BORDER
100
AcDbText
 10
16.36770410286771
 20
0.4519624000487056
 30
0.0
 40
0.15
  1
C
100
AcDbText
  0
LINE
  5
351
330
1F
100
AcDbEntity
  8
BORDER
100
AcDbLine
 10
0.5
 20
0.125
 30
0.0
 11
20.5
 21
0.125
 31
0.0
  0
LINE
  5
352
330
1F
100
AcDbEntity
  8
BORDER
100
AcDbLine
 10
0.5
 20
14.625
 30
0.0
 11
0.5
 21
0.125
 31
0.0
  0
LINE
  5
353
330
1F
100
AcDbEntity
  8
BORDER
100
AcDbLine
 10
20.5
 20
0.125
 30
0.0
 11
20.5
 21
14.625
 31
0.0
  0
LINE
  5
354
330
1F
100
AcDbEntity
  8
BORDER
100
AcDbLine
 10
14.22802457150521
 20
2.324146981627205
 30
0.0
 11
20.5008624282001
 21
2.324146981627205
 31
0.0
  0
TEXT
  5
355
330
1F
100
AcDbEntity
  8
BORDER
100
AcDbText
 10
14.40702930573621
 20
2.049227858145542
 30
0.0
 40
0.15
  1
UNIVERSITY OF CALIFORNIA @ SANTA BARBARA
100
AcDbText
  0
TEXT
  5
356
330
1F
100
AcDbEntity
  8
TEXT
100
AcDbText
 10
14.29737480373655
 20
0.9799639461026732
 30
0.0
 40
0.065
  1
DRAWN
  7
ADESK2
100
AcDbText
  0
LINE
  5
357
330
1F
100
AcDbEntity
  8
BORDER
100
AcDbLine
 10
14.22906480373655
 20
0.125
 30
0.0
 11
14.22906480373655
 21
2.324146981627205
 31
0.0
  0
LINE
  5
358
330
1F
100
AcDbEntity
  8
BORDER
100
AcDbLine
 10
14.22906480373655
 20
1.901500946102673
 30
0.0
 11
20.50086242820011
 21
1.901500946102673
 31
0.0
  0
LINE
  5
359
330
1F
100
AcDbEntity
  8
TEXT
100
AcDbLine
 10
14.22906480373655
 20
0.4665009461026735
 30
0.0
 11
16.22906480373655
 21
0.4665009461026735
 31
0.0
  0
LINE
  5
35A
330
1F
100
AcDbEntity
  8
TEXT
100
AcDbLine
 10
14.22906480373655
 20
0.781500946102673
 30
0.0
 11
20.50086242820011
 21
0.781500946102673
 31
0.0
  0
LINE
  5
35B
330
1F
100
AcDbEntity
  8
TEXT
100
AcDbLine
 10
16.22906480373655
 20
0.401500946102674
 30
0.0
 11
20.50086242820011
 21
0.401500946102674
 31
0.0
  0
LINE
  5
35C
330
1F
100
AcDbEntity
  8
BORDER
100
AcDbLine
 10
16.22906480373655
 20
1.401500946102673
 30
0.0
 11
20.50086242820011
 21
1.401500946102673
 31
0.0
  0
LINE
  5
35D
330
1F
100
AcDbEntity
  8
BORDER
100
AcDbLine
 10
16.22906480373655
 20
0.125
 30
0.0
 11
16.22906480373655
 21
1.901500946102673
 31
0.0
  0
LINE
  5
35E
330
1F
100
AcDbEntity
  8
TEXT
100
AcDbLine
 10
17.22906480373656
 20
0.125
 30
0.0
 11
17.22906480373656
 21
0.401500946102674
 31
0.0
  0
LINE
  5
35F
330
1F
100
AcDbEntity
  8
TEXT
100
AcDbLine
 10
18.72906480373655
 20
0.125
 30
0.0
 11
18.72906480373655
 21
0.401500946102674
 31
0.0
  0
LINE
  5
360
330
1F
100
AcDbEntity
  8
TEXT
100
AcDbLine
 10
16.60906480373655
 20
0.401500946102674
 30
0.0
 11
16.60906480373655
 21
0.781500946102673
 31
0.0
  0
LINE
  5
361
330
1F
100
AcDbEntity
  8
TEXT
100
AcDbLine
 10
17.72906480373656
 20
0.401500946102674
 30
0.0
 11
17.72906480373656
 21
0.781500946102673
 31
0.0
  0
LINE
  5
362
330
1F
100
AcDbEntity
  8
TEXT
100
AcDbLine
 10
20.09906480373655
 20
0.401500946102674
 30
0.0
 11
20.09906480373655
 21
0.781500946102673
 31
0.0
  0
TEXT
  5
363
330
1F
100
AcDbEntity
  8
TEXT
100
AcDbText
 10
16.28136480373655
 20
0.2440009461026733
 30
0.0
 40
0.065
  1
SCALE
  7
ADESK2
100
AcDbText
  0
TEXT
  5
364
330
1F
100
AcDbEntity
  8
TEXT
100
AcDbText
 10
18.78186480373655
 20
0.2440009461026733
 30
0.0
 40
0.065
  1
SHEET
  7
ADESK2
100
AcDbText
  0
TEXT
  5
365
330
1F
100
AcDbEntity
  8
TEXT
100
AcDbText
 10
16.31696480373655
 20
0.6674009461026725
 30
0.0
 40
0.065
  1
SIZE
  7
ADESK2
100
AcDbText
  0
TEXT
  5
366
330
1F
100
AcDbEntity
  8
TEXT
100
AcDbText
 10
17.80006480373655
 20
0.6674009461026725
 30
0.0
 40
0.065
  1
DWG NO.
  7
ADESK2
100
AcDbText
  0
TEXT
  5
367
330
1F
100
AcDbEntity
  8
TEXT
100
AcDbText
 10
20.17956480373655
 20
0.6674009461026725
 30
0.0
 40
0.065
  1
REV
  7
ADESK2
100
AcDbText
  0
LINE
  5
368
330
1F
100
AcDbEntity
  8
TEXT
100
AcDbLine
 10
15.44569368889233
 20
14.2687954598962
 30
0.0
 11
20.5
 21
14.26879545989621
 31
0.0
  0
LINE
  5
369
330
1F
100
AcDbEntity
  8
TEXT
100
AcDbLine
 10
15.44569368889233
 20
14.0187954598962
 30
0.0
 11
20.5
 21
14.0187954598962
 31
0.0
  0
LINE
  5
36A
330
1F
100
AcDbEntity
  8
TEXT
100
AcDbLine
 10
15.44569368889233
 20
14.57885940600617
 30
0.0
 11
15.44569368889233
 21
14.0187954598962
 31
0.0
  0
LINE
  5
36B
330
1F
100
AcDbEntity
  8
TEXT
100
AcDbLine
 10
15.83594611112369
 20
14.0187954598962
 30
0.0
 11
15.83594611112369
 21
14.2687954598962
 31
0.0
  0
LINE
  5
36C
330
1F
100
AcDbEntity
  8
TEXT
100
AcDbLine
 10
18.57594611112369
 20
14.0187954598962
 30
0.0
 11
18.57594611112369
 21
14.2687954598962
 31
0.0
  0
LINE
  5
36D
330
1F
100
AcDbEntity
  8
TEXT
100
AcDbLine
 10
19.45594611112369
 20
14.0187954598962
 30
0.0
 11
19.45594611112369
 21
14.2687954598962
 31
0.0
  0
TEXT
  5
36E
330
1F
100
AcDbEntity
  8
TEXT
100
AcDbText
 10
17.66614611112369
 20
14.3512954598962
 30
0.0
 40
0.065
  1
REVISIONS
  7
ADESK2
100
AcDbText
  0
LINE
  5
373
330
1F
100
AcDbEntity
  8
TEXT
100
AcDbLine
 10
14.22906480373655
 20
1.091500946102673
 30
0.0
 11
16.22906480373655
 21
1.091500946102673
 31
0.0
  0
TEXT
  5
374
330
1F
100
AcDbEntity
  8
TEXT
100
AcDbText
 10
14.30906480373655
 20
0.6715009461026736
 30
0.0
 40
0.065
  1
CHECKED
  7
ADESK2
100
AcDbText
  0
TEXT
  5
375
330
1F
100
AcDbEntity
  8
TEXT
100
AcDbText
 10
14.30906480373655
 20
0.3565009461026722
 30
0.0
 40
0.065
  1
DESIGN
  7
ADESK2
100
AcDbText
  0
LINE
  5
376
330
1F
100
AcDbEntity
  8
TEXT
100
AcDbLine
 10
15.72904880373655
 20
1.091500946102673
 30
0.0
 11
15.72904880373655
 21
0.125
 31
0.0
  0
TEXT
  5
377
330
1F
100
AcDbEntity
  8
TEXT
100
AcDbText
 10
15.85246780373655
 20
0.9749509461026732
 30
0.0
 40
0.065
  1
DATE
  7
ADESK2
100
AcDbText
  0
TEXT
  5
378
330
1F
100
AcDbEntity
  8
TEXT
100
AcDbText
 10
19.61203580373655
 20
0.2443769461026726
 30
0.0
 40
0.065
  1
OF
  7
ADESK2
100
AcDbText
  0
TEXT
  5
379
330
1F
100
AcDbEntity
  8
TEXT
100
AcDbText
 10
16.98901895591654
 20
1.142362757733238
 30
0.0
 40
0.2
  1
PITCH ADAPTOR
100
AcDbText
  0
TEXT
  5
37A
330
1F
100
AcDbEntity
  8
TEXT
100
AcDbText
 10
17.10214957287295
 20
0.8625917843980655
 30
0.0
 40
0.2
  1
TEST FIXTURE
100
AcDbText
  0
TEXT
  5
37B
330
1F
100
AcDbEntity
  8
TEXT
100
AcDbText
 10
16.66153563775882
 20
0.4520036263133278
 30
0.0
 40
0.15
  1
C/ CMS
100
AcDbText
  0
TEXT
  5
37C
330
1F
100
AcDbEntity
  8
TEXT
100
AcDbText
 10
16.66153563775882
 20
0.2020036263133278
 30
0.0
 40
0.15
  1
1=1
100
AcDbText
  0
TEXT
  5
37D
330
1F
100
AcDbEntity
  8
TEXT
100
AcDbText
 10
14.89312560135967
 20
0.8805023936552274
 30
0.0
 40
0.15
  1
HALE
100
AcDbText
  0
TEXT
  5
48D
330
1F
100
AcDbEntity
  8
TEXT
100
AcDbText
 10
13.23344485442571
 20
3.132703002443697
 30
0.0
 40
0.2
  1
MATERIAL  6061 AL.
100
AcDbText
  0
LINE
  5
8C1
330
1F
100
AcDbEntity
  8
0
100
AcDbLine
 10
4.545698904211185
 20
11.86076665296798
 30
0.0
 11
4.545698904211189
 21
7.643526344341909
 31
0.0
  0
LINE
  5
8C2
330
1F
100
AcDbEntity
  8
0
100
AcDbLine
 10
10.84489890421118
 20
11.86076665296798
 30
0.0
 11
10.84489890421119
 21
8.185986716654165
 31
0.0
  0
LINE
  5
8C4
330
1F
100
AcDbEntity
  8
0
100
AcDbLine
 10
6.397928904211184
 20
9.445766652967988
 30
0.0
 11
8.992668904211186
 21
9.445766652967989
 31
0.0
  0
ARC
  5
8C6
330
1F
100
AcDbEntity
  8
mod-01
100
AcDbCircle
 10
5.529898904211187
 20
8.693766652967987
 30
0.0
 40
0.197
100
AcDbArc
 50
108.6506459906343
 51
71.34935400936562
  0
CIRCLE
  5
8C7
330
1F
100
AcDbEntity
  8
0
100
AcDbCircle
 10
5.968428904211187
 20
8.63276665296799
 30
0.0
 40
0.045
  0
LINE
  5
8C8
330
1F
100
AcDbEntity
  8
0
100
AcDbLine
 10
5.968428904211187
 20
8.542766652967991
 30
0.0
 11
5.968428904211187
 21
8.72276665296799
 31
0.0
  0
LINE
  5
8C9
330
1F
100
AcDbEntity
  8
0
100
AcDbLine
 10
6.272928904211184
 20
8.499766652967988
 30
0.0
 11
6.272928904211184
 21
9.508266652967988
 31
0.0
  0
LINE
  5
8CA
330
1F
100
AcDbEntity
  8
0
100
AcDbLine
 10
5.772698904211186
 20
8.449766652967987
 30
0.0
 11
6.222928904211187
 21
8.449766652967989
 31
0.0
  0
LINE
  5
8CB
330
1F
100
AcDbEntity
  8
0
100
AcDbLine
 10
5.426698904211185
 20
8.324766652967989
 30
0.0
 11
5.426698904211185
 21
7.643526344341911
 31
0.0
  0
ARC
  5
8CC
330
1F
100
AcDbEntity
  8
mod-01
100
AcDbCircle
 10
5.411698904211185
 20
8.387266652967989
 30
0.0
 40
0.063
100
AcDbArc
 50
90.0
 51
270.0
  0
LINE
  5
8CD
330
1F
100
AcDbEntity
  8
0
100
AcDbLine
 10
5.411698904211185
 20
8.324766652967989
 30
0.0
 11
5.426698904211185
 21
8.324766652967989
 31
0.0
  0
ARC
  5
8CE
330
1F
100
AcDbEntity
  8
0
100
AcDbCircle
 10
6.222928904211187
 20
8.499766652967988
 30
0.0
 40
0.05
100
AcDbArc
 50
270.0
 51
0.0
  0
ARC
  5
8CF
330
1F
100
AcDbEntity
  8
mod-01
100
AcDbCircle
 10
5.529898904211187
 20
9.009366652967987
 30
0.0
 40
0.063
100
AcDbArc
 50
0.0
 51
180.0
  0
LINE
  5
8D0
330
1F
100
AcDbEntity
  8
mod-01
100
AcDbLine
 10
5.592898904211185
 20
9.009366652967987
 30
0.0
 11
5.592898904211185
 21
8.880421414493106
 31
0.0
  0
LINE
  5
8D1
330
1F
100
AcDbEntity
  8
mod-01
100
AcDbLine
 10
5.466898904211184
 20
9.009366652967987
 30
0.0
 11
5.466898904211184
 21
8.880421414493106
 31
0.0
  0
CIRCLE
  5
8D2
330
1F
100
AcDbEntity
  8
0
100
AcDbCircle
 10
5.968428904211187
 20
9.25776665296799
 30
0.0
 40
0.045
  0
LINE
  5
8D3
330
1F
100
AcDbEntity
  8
0
100
AcDbLine
 10
5.968428904211187
 20
9.167766652967991
 30
0.0
 11
5.968428904211187
 21
9.34776665296799
 31
0.0
  0
LINE
  5
8D4
330
1F
100
AcDbEntity
  8
0
100
AcDbLine
 10
5.878428904211183
 20
8.63276665296799
 30
0.0
 11
6.058428904211183
 21
8.63276665296799
 31
0.0
  0
LINE
  5
8D5
330
1F
100
AcDbEntity
  8
0
100
AcDbLine
 10
5.878428904211183
 20
9.25776665296799
 30
0.0
 11
6.058428904211183
 21
9.25776665296799
 31
0.0
  0
ARC
  5
8D6
330
1F
100
AcDbEntity
  8
0
100
AcDbCircle
 10
6.335428904211184
 20
9.508266652967988
 30
0.0
 40
0.0625
100
AcDbArc
 50
0.0000000000002036
 51
90.0
  0
ARC
  5
8D7
330
1F
100
AcDbEntity
  8
0
100
AcDbCircle
 10
6.335428904211184
 20
9.508266652967988
 30
0.0
 40
0.0625
100
AcDbArc
 50
90.0
 51
180.0
  0
LINE
  5
8D8
330
1F
100
AcDbEntity
  8
0
100
AcDbLine
 10
6.397928904211184
 20
9.445766652967988
 30
0.0
 11
6.397928904211184
 21
9.508266652967988
 31
0.0
  0
LINE
  5
8D9
330
1F
100
AcDbEntity
  8
0
100
AcDbLine
 10
6.335428904211184
 20
9.570766652967988
 30
0.0
 11
6.335428904211184
 21
9.570766652967988
 31
0.0
  0
ARC
  5
8DA
330
1F
100
AcDbEntity
  8
mod-01
100
AcDbCircle
 10
9.860698904211183
 20
9.009366652967987
 30
0.0
 40
0.063
100
AcDbArc
 50
0.0
 51
180.0
  0
ARC
  5
8DB
330
1F
100
AcDbEntity
  8
mod-01
100
AcDbCircle
 10
9.860698904211183
 20
8.693766652967987
 30
0.0
 40
0.197
100
AcDbArc
 50
108.6506459906341
 51
71.3493540093655
  0
CIRCLE
  5
8DC
330
1F
100
AcDbEntity
  8
0
100
AcDbCircle
 10
9.422168904211183
 20
8.632766652967989
 30
0.0
 40
0.045
  0
LINE
  5
8DD
330
1F
100
AcDbEntity
  8
0
100
AcDbLine
 10
9.422168904211183
 20
8.542766652967989
 30
0.0
 11
9.422168904211183
 21
8.722766652967989
 31
0.0
  0
LINE
  5
8DE
330
1F
100
AcDbEntity
  8
0
100
AcDbLine
 10
9.117668904211186
 20
8.499766652967988
 30
0.0
 11
9.117668904211186
 21
9.508266652967989
 31
0.0
  0
ARC
  5
8E1
330
1F
100
AcDbEntity
  8
0
100
AcDbCircle
 10
9.167668904211183
 20
8.499766652967988
 30
0.0
 40
0.05
100
AcDbArc
 50
180.0
 51
270.0
  0
ARC
  5
8E2
330
1F
100
AcDbEntity
  8
mod-01
100
AcDbCircle
 10
9.237224856938524
 20
8.386766652967988
 30
0.0
 40
0.063
100
AcDbArc
 50
270.0
 51
90.0
  0
ARC
  5
8E4
330
1F
100
AcDbEntity
  8
0
100
AcDbCircle
 10
9.055168904211186
 20
9.508266652967989
 30
0.0
 40
0.0625
100
AcDbArc
 50
0.0000000000000509
 51
90.0
  0
ARC
  5
8E5
330
1F
100
AcDbEntity
  8
0
100
AcDbCircle
 10
9.055168904211186
 20
9.508266652967989
 30
0.0
 40
0.0625
100
AcDbArc
 50
90.0
 51
180.0000000000004
  0
LINE
  5
8E6
330
1F
100
AcDbEntity
  8
0
100
AcDbLine
 10
8.992668904211186
 20
9.445766652967989
 30
0.0
 11
8.992668904211186
 21
9.508266652967988
 31
0.0
  0
LINE
  5
8E7
330
1F
100
AcDbEntity
  8
0
100
AcDbLine
 10
9.055168904211186
 20
9.570766652967989
 30
0.0
 11
9.055168904211186
 21
9.570766652967989
 31
0.0
  0
CIRCLE
  5
8E8
330
1F
100
AcDbEntity
  8
0
100
AcDbCircle
 10
9.422168904211183
 20
9.257766652967989
 30
0.0
 40
0.045
  0
LINE
  5
8E9
330
1F
100
AcDbEntity
  8
0
100
AcDbLine
 10
9.422168904211183
 20
9.167766652967989
 30
0.0
 11
9.422168904211183
 21
9.347766652967989
 31
0.0
  0
LINE
  5
8EA
330
1F
100
AcDbEntity
  8
0
100
AcDbLine
 10
9.332168904211187
 20
8.632766652967989
 30
0.0
 11
9.512168904211186
 21
8.632766652967989
 31
0.0
  0
LINE
  5
8EB
330
1F
100
AcDbEntity
  8
mod-01
100
AcDbLine
 10
9.797698904211188
 20
9.009366652967987
 30
0.0
 11
9.797698904211188
 21
8.88042141449311
 31
0.0
  0
LINE
  5
8EC
330
1F
100
AcDbEntity
  8
0
100
AcDbLine
 10
9.332168904211187
 20
9.257766652967989
 30
0.0
 11
9.512168904211186
 21
9.257766652967989
 31
0.0
  0
LINE
  5
8ED
330
1F
100
AcDbEntity
  8
mod-01
100
AcDbLine
 10
9.923698904211185
 20
9.009366652967987
 30
0.0
 11
9.923698904211185
 21
8.880421414493108
 31
0.0
  0
LINE
  5
8EE
330
1F
100
AcDbEntity
  8
mod-01
100
AcDbLine
 10
4.545698904211185
 20
11.86076665296798
 30
0.0
 11
10.84489890421118
 21
11.86076665296798
 31
0.0
  0
LINE
  5
8EF
330
1F
100
AcDbEntity
  8
0
100
AcDbLine
 10
6.247798904211187
 20
9.988367817040698
 30
0.0
 11
6.427798904211186
 21
9.988367817040698
 31
0.0
  0
LINE
  5
8F0
330
1F
100
AcDbEntity
  8
0
100
AcDbLine
 10
6.337798904211187
 20
9.898367817040698
 30
0.0
 11
6.337798904211187
 21
10.07836781704069
 31
0.0
  0
CIRCLE
  5
8F1
330
1F
100
AcDbEntity
  8
0
100
AcDbCircle
 10
6.337798904211187
 20
9.988367817040698
 30
0.0
 40
0.045
  0
LINE
  5
8F2
330
1F
100
AcDbEntity
  8
0
100
AcDbLine
 10
6.247798904211187
 20
11.6183678170407
 30
0.0
 11
6.427798904211186
 21
11.6183678170407
 31
0.0
  0
CIRCLE
  5
8F3
330
1F
100
AcDbEntity
  8
0
100
AcDbCircle
 10
6.337798904211187
 20
11.6183678170407
 30
0.0
 40
0.045
  0
LINE
  5
8F4
330
1F
100
AcDbEntity
  8
0
100
AcDbLine
 10
6.337798904211187
 20
11.52836781704069
 30
0.0
 11
6.337798904211187
 21
11.70836781704069
 31
0.0
  0
LINE
  5
8F5
330
1F
100
AcDbEntity
  8
0
100
AcDbLine
 10
7.546998904211186
 20
9.989866652967988
 30
0.0
 11
7.726998904211185
 21
9.989866652967988
 31
0.0
  0
CIRCLE
  5
8F6
330
1F
100
AcDbEntity
  8
0
100
AcDbCircle
 10
7.636998904211182
 20
9.989866652967988
 30
0.0
 40
0.045
  0
LINE
  5
8F7
330
1F
100
AcDbEntity
  8
0
100
AcDbLine
 10
7.636998904211182
 20
9.899866652967988
 30
0.0
 11
7.636998904211182
 21
10.07986665296798
 31
0.0
  0
CIRCLE
  5
8F8
330
1F
100
AcDbEntity
  8
0
100
AcDbCircle
 10
7.636998904211182
 20
11.61986665296798
 30
0.0
 40
0.045
  0
LINE
  5
8F9
330
1F
100
AcDbEntity
  8
0
100
AcDbLine
 10
7.546998904211186
 20
11.61986665296798
 30
0.0
 11
7.726998904211185
 21
11.61986665296798
 31
0.0
  0
LINE
  5
8FA
330
1F
100
AcDbEntity
  8
0
100
AcDbLine
 10
7.636998904211182
 20
11.52986665296799
 30
0.0
 11
7.636998904211182
 21
11.70986665296798
 31
0.0
  0
INSERT
  5
920
330
1F
100
AcDbEntity
  8
stereohybrid
100
AcDbBlockReference
  2
stereohybrid
 10
48.11262485693852
 20
18.9456563443419
 30
0.0
 50
180.0
  0
LINE
  5
92E
330
1F
100
AcDbEntity
  8
stereohybrid
100
AcDbLine
 10
6.443924856938526
 20
9.425956344341908
 30
0.0
 11
6.623924856938526
 21
9.425956344341908
 31
0.0
  0
LINE
  5
92F
330
1F
100
AcDbEntity
  8
stereohybrid
100
AcDbLine
 10
6.533924856938526
 20
9.335956344341909
 30
0.0
 11
6.533924856938526
 21
9.515956344341908
 31
0.0
  0
LINE
  5
930
330
1F
100
AcDbEntity
  8
stereohybrid
100
AcDbLine
 10
8.766724856938523
 20
9.425956344341908
 30
0.0
 11
8.94672485693853
 21
9.425956344341908
 31
0.0
  0
LINE
  5
931
330
1F
100
AcDbEntity
  8
stereohybrid
100
AcDbLine
 10
8.856724856938527
 20
9.335956344341909
 30
0.0
 11
8.856724856938527
 21
9.515956344341908
 31
0.0
  0
LINE
  5
932
330
1F
100
AcDbEntity
  8
stereohybrid
100
AcDbLine
 10
6.462824856938524
 20
8.410556344341909
 30
0.0
 11
6.642824856938524
 21
8.410556344341909
 31
0.0
  0
LINE
  5
933
330
1F
100
AcDbEntity
  8
stereohybrid
100
AcDbLine
 10
6.552824856938524
 20
8.320556344341909
 30
0.0
 11
6.552824856938524
 21
8.500556344341909
 31
0.0
  0
LINE
  5
934
330
1F
100
AcDbEntity
  8
stereohybrid
100
AcDbLine
 10
8.837824856938524
 20
8.320556344341909
 30
0.0
 11
8.837824856938524
 21
8.500556344341909
 31
0.0
  0
LINE
  5
935
330
1F
100
AcDbEntity
  8
stereohybrid
100
AcDbLine
 10
8.747824856938521
 20
8.410556344341909
 30
0.0
 11
8.927824856938528
 21
8.410556344341909
 31
0.0
  0
INSERT
  5
94D
330
1F
100
AcDbEntity
  8
stereopa
100
AcDbBlockReference
  2
stereopa
 10
-25.77406836882834
 20
4.606915639067826
 30
0.0
  0
LINE
  5
952
330
1F
100
AcDbEntity
  8
mod-01
100
AcDbLine
 10
5.436624856938525
 20
7.643526344341909
 30
0.0
 11
4.545698904211189
 21
7.643526344341909
 31
0.0
  0
LINE
  5
956
330
1F
100
AcDbEntity
  8
mod-01
100
AcDbLine
 10
5.436624856938525
 20
7.643526344341909
 30
0.0
 11
10.84489890421118
 21
8.185986716654165
 31
0.0
  0
LINE
  5
959
330
1F
100
AcDbEntity
  8
mod-01
100
AcDbLine
 10
9.222224856938524
 20
8.323766652967989
 30
0.0
 11
9.222224856938524
 21
8.023229363729555
 31
0.0
  0
LINE
  5
95C
330
1F
100
AcDbEntity
  8
mod-01
100
AcDbLine
 10
9.167668904211183
 20
8.449766652967987
 30
0.0
 11
9.237224856938524
 21
8.449766652967987
 31
0.0
  0
LINE
  5
95E
330
1F
100
AcDbEntity
  8
mod-01
100
AcDbLine
 10
9.237224856938524
 20
8.323766652967989
 30
0.0
 11
9.222224856938524
 21
8.323766652967989
 31
0.0
  0
LINE
  5
95F
330
1F
100
AcDbEntity
  8
mod-01
100
AcDbLine
 10
5.772698904211186
 20
8.449766652967987
 30
0.0
 11
5.411698904211185
 21
8.450266652967989
 31
0.0
  0
LINE
  5
967
330
1F
100
AcDbEntity
  8
stereodim
100
AcDbLine
 10
5.439898904211187
 20
9.009366652967987
 30
0.0
 11
5.619898904211186
 21
9.009366652967987
 31
0.0
  0
LINE
  5
968
330
1F
100
AcDbEntity
  8
stereodim
100
AcDbLine
 10
5.529898904211187
 20
8.919366652967987
 30
0.0
 11
5.529898904211187
 21
9.099366652967987
 31
0.0
  0
LINE
  5
969
330
1F
100
AcDbEntity
  8
stereodim
100
AcDbLine
 10
5.439898904211187
 20
8.693766652967987
 30
0.0
 11
5.619898904211186
 21
8.693766652967987
 31
0.0
  0
LINE
  5
96A
330
1F
100
AcDbEntity
  8
stereodim
100
AcDbLine
 10
5.529898904211187
 20
8.603766652967987
 30
0.0
 11
5.529898904211187
 21
8.783766652967987
 31
0.0
  0
LINE
  5
96B
330
1F
100
AcDbEntity
  8
stereodim
100
AcDbLine
 10
9.77069890421118
 20
9.009366652967987
 30
0.0
 11
9.950698904211186
 21
9.009366652967987
 31
0.0
  0
LINE
  5
96C
330
1F
100
AcDbEntity
  8
stereodim
100
AcDbLine
 10
9.860698904211183
 20
8.919366652967987
 30
0.0
 11
9.860698904211183
 21
9.099366652967987
 31
0.0
  0
LINE
  5
96D
330
1F
100
AcDbEntity
  8
stereodim
100
AcDbLine
 10
9.77069890421118
 20
8.693766652967987
 30
0.0
 11
9.950698904211186
 21
8.693766652967987
 31
0.0
  0
LINE
  5
96E
330
1F
100
AcDbEntity
  8
stereodim
100
AcDbLine
 10
9.860698904211183
 20
8.603766652967987
 30
0.0
 11
9.860698904211183
 21
8.783766652967987
 31
0.0
  0
LINE
  5
96F
330
1F
100
AcDbEntity
  8
stereodim
100
AcDbLine
 10
5.321698904211185
 20
8.387266652967989
 30
0.0
 11
5.501698904211185
 21
8.387266652967989
 31
0.0
  0
LINE
  5
970
330
1F
100
AcDbEntity
  8
stereodim
100
AcDbLine
 10
5.411698904211185
 20
8.297266652967989
 30
0.0
 11
5.411698904211185
 21
8.477266652967989
 31
0.0
  0
LINE
  5
971
330
1F
100
AcDbEntity
  8
stereodim
100
AcDbLine
 10
6.245428904211184
 20
9.508266652967988
 30
0.0
 11
6.425428904211184
 21
9.508266652967988
 31
0.0
  0
LINE
  5
972
330
1F
100
AcDbEntity
  8
stereodim
100
AcDbLine
 10
6.335428904211184
 20
9.418266652967988
 30
0.0
 11
6.335428904211184
 21
9.598266652967987
 31
0.0
  0
LINE
  5
973
330
1F
100
AcDbEntity
  8
stereodim
100
AcDbLine
 10
8.965168904211182
 20
9.508266652967989
 30
0.0
 11
9.145168904211189
 21
9.508266652967989
 31
0.0
  0
LINE
  5
974
330
1F
100
AcDbEntity
  8
stereodim
100
AcDbLine
 10
9.055168904211186
 20
9.418266652967989
 30
0.0
 11
9.055168904211186
 21
9.598266652967989
 31
0.0
  0
LINE
  5
975
330
1F
100
AcDbEntity
  8
stereodim
100
AcDbLine
 10
9.147224856938521
 20
8.386766652967988
 30
0.0
 11
9.327224856938528
 21
8.386766652967988
 31
0.0
  0
LINE
  5
976
330
1F
100
AcDbEntity
  8
stereodim
100
AcDbLine
 10
9.237224856938524
 20
8.296766652967988
 30
0.0
 11
9.237224856938524
 21
8.476766652967988
 31
0.0
  0
DIMENSION
  5
985
330
1F
100
AcDbEntity
  8
stereodim
100
AcDbDimension
  2
*D49
 10
4.545698904211189
 20
6.891456790931719
 30
0.0
 11
4.999005647240338
 21
6.891456790931719
 31
0.0
 70
   160
 71
     5
 42
0.8909259527273363
  3
SU1
100
AcDbAlignedDimension
 13
5.436624856938525
 23
7.643526344341909
 33
0.0
 14
4.545698904211189
 24
7.643526344341909
 34
0.0
100
AcDbRotatedDimension
  0
DIMENSION
  5
993
330
1F
100
AcDbEntity
  8
stereodim
100
AcDbDimension
  2
*D50
 10
4.545698904211189
 20
6.470697309773477
 30
0.0
 11
5.041812032010014
 21
6.470697309773477
 31
0.0
 70
   160
 71
     5
 42
0.9841999999999977
  3
SU1
100
AcDbAlignedDimension
 13
5.529898904211187
 23
8.603766652967987
 33
0.0
 14
4.545698904211189
 24
7.643526344341909
 34
0.0
100
AcDbRotatedDimension
  0
DIMENSION
  5
9A1
330
1F
100
AcDbEntity
  8
stereodim
100
AcDbDimension
  2
*D51
 10
4.545698904211189
 20
6.135516048552055
 30
0.0
 11
5.198768498360351
 21
6.135516048552055
 31
0.0
 70
   160
 71
     5
 42
1.422729999999997
  3
SU1
100
AcDbAlignedDimension
 13
5.968428904211187
 23
8.542766652967991
 33
0.0
 14
4.545698904211189
 24
7.643526344341909
 34
0.0
100
AcDbRotatedDimension
  0
DIMENSION
  5
9AF
330
1F
100
AcDbEntity
  8
stereodim
100
AcDbDimension
  2
*D52
 10
4.545698904211189
 20
5.800334787330626
 30
0.0
 11
5.412800088842558
 21
5.800334787330626
 31
0.0
 70
   160
 71
     5
 42
1.727229999999998
  3
SU1
100
AcDbAlignedDimension
 13
6.272928904211187
 23
8.499766652967988
 33
0.0
 14
4.545698904211189
 24
7.643526344341909
 34
0.0
100
AcDbRotatedDimension
  0
DIMENSION
  5
9BD
330
1F
100
AcDbEntity
  8
stereodim
100
AcDbDimension
  2
*D53
 10
4.545698904211189
 20
5.470816417237735
 30
0.0
 11
5.391396979799267
 21
5.470816417237735
 31
0.0
 70
   160
 71
     5
 42
1.789729999999995
  3
SU1
100
AcDbAlignedDimension
 13
6.335428904211184
 23
9.418266652967988
 33
0.0
 14
4.545698904211189
 24
7.643526344341909
 34
0.0
100
AcDbRotatedDimension
  0
DIMENSION
  5
9CB
330
1F
100
AcDbEntity
  8
stereodim
100
AcDbDimension
  2
*D54
 10
4.545698904211189
 20
5.235476326725461
 30
0.0
 11
6.882483826835155
 21
5.235476326725461
 31
0.0
 70
   160
 71
     5
 42
4.509469999999996
  3
SU1
100
AcDbAlignedDimension
 13
9.055168904211186
 23
9.418266652967989
 33
0.0
 14
4.545698904211189
 24
7.643526344341909
 34
0.0
100
AcDbRotatedDimension
  0
DIMENSION
  5
9D9
330
1F
100
AcDbEntity
  8
stereodim
100
AcDbDimension
  2
*D55
 10
4.545698904211189
 20
4.92882113881631
 30
0.0
 11
6.889975565064361
 21
4.92882113881631
 31
0.0
 70
   160
 71
     5
 42
4.571969999999996
  3
SU1
100
AcDbAlignedDimension
 13
9.117668904211186
 23
8.499766652967988
 33
0.0
 14
4.545698904211189
 24
7.643526344341909
 34
0.0
100
AcDbRotatedDimension
  0
DIMENSION
  5
9E7
330
1F
100
AcDbEntity
  8
stereodim
100
AcDbDimension
  2
*D56
 10
4.545698904211189
 20
4.615034389637187
 30
0.0
 11
6.87570674236062
 21
4.615034389637187
 31
0.0
 70
   160
 71
     5
 42
4.676525952727335
  3
SU1
100
AcDbAlignedDimension
 13
9.222224856938524
 23
8.023229363729555
 33
0.0
 14
4.545698904211189
 24
7.643526344341909
 34
0.0
100
AcDbRotatedDimension
  0
DIMENSION
  5
9F5
330
1F
100
AcDbEntity
  8
stereodim
100
AcDbDimension
  2
*D57
 10
4.545698904211189
 20
4.305544521207508
 30
0.0
 11
6.882841112041717
 21
4.305544521207508
 31
0.0
 70
   160
 71
     5
 42
4.691525952727335
  3
SU1
100
AcDbAlignedDimension
 13
9.237224856938524
 23
8.386766652967988
 33
0.0
 14
4.545698904211189
 24
7.643526344341909
 34
0.0
100
AcDbRotatedDimension
  0
DIMENSION
  5
A03
330
1F
100
AcDbEntity
  8
stereodim
100
AcDbDimension
  2
*D58
 10
4.545698904211189
 20
4.013152341326552
 30
0.0
 11
6.882841112041717
 21
4.013152341326552
 31
0.0
 70
   160
 71
     5
 42
4.876469999999994
  3
SU1
100
AcDbAlignedDimension
 13
9.422168904211183
 23
8.542766652967989
 33
0.0
 14
4.545698904211189
 24
7.643526344341909
 34
0.0
100
AcDbRotatedDimension
  0
DIMENSION
  5
A11
330
1F
100
AcDbEntity
  8
stereodim
100
AcDbDimension
  2
*D59
 10
4.545698904211189
 20
3.799206762856584
 30
0.0
 11
7.853117722234287
 21
3.799206762856584
 31
0.0
 70
   160
 71
     5
 42
5.314999999999994
  3
SU1
100
AcDbAlignedDimension
 13
9.860698904211183
 23
8.532451441059375
 33
0.0
 14
4.545698904211189
 24
7.572211132433297
 34
0.0
100
AcDbRotatedDimension
  0
DIMENSION
  5
A29
330
1F
100
AcDbEntity
  8
stereodim
100
AcDbDimension
  2
*D60
 10
4.545698904211189
 20
3.553130739987722
 30
0.0
 11
6.943155138665488
 21
3.553130739987722
 31
0.0
 70
   160
 71
     5
 42
6.299200000000002
  3
SU1
100
AcDbAlignedDimension
 13
10.84489890421119
 23
8.185986716654165
 33
0.0
 14
4.545698904211189
 24
7.643526344341909
 34
0.0
100
AcDbRotatedDimension
  0
DIMENSION
  5
A37
330
1F
100
AcDbEntity
  8
stereodim
100
AcDbDimension
  2
*D61
 10
4.545698904211185
 20
12.32240785386678
 30
0.0
 11
5.328905988659343
 21
12.32240785386678
 31
0.0
 70
   160
 71
     5
 42
1.792100000000001
  3
SU1
100
AcDbAlignedDimension
 13
6.337798904211187
 23
11.70836781704069
 33
0.0
 14
4.545698904211185
 24
11.86076665296798
 34
0.0
100
AcDbRotatedDimension
  0
DIMENSION
  5
A45
330
1F
100
AcDbEntity
  8
stereodim
100
AcDbDimension
  2
*D62
 10
4.545698904211185
 20
12.75352228686932
 30
0.0
 11
6.055934296047581
 21
12.75352228686932
 31
0.0
 70
   160
 71
     5
 42
3.091299999999996
  3
SU1
100
AcDbAlignedDimension
 13
7.636998904211182
 23
11.70986665296798
 33
0.0
 14
4.545698904211185
 24
11.86076665296798
 34
0.0
100
AcDbRotatedDimension
  0
DIMENSION
  5
A70
330
1F
100
AcDbEntity
  8
stereodim
100
AcDbDimension
  2
*D65
 10
11.16393511260843
 20
11.86076665296798
 30
0.0
 11
11.74893511260843
 21
12.5441238545259
 31
0.0
 70
   160
 71
     5
 42
0.2408999999999981
  3
SU1
100
AcDbAlignedDimension
 13
7.726998904211185
 23
11.61986665296798
 33
0.0
 14
10.84489890421118
 24
11.86076665296798
 34
0.0
 50
90.0
100
AcDbRotatedDimension
  0
DIMENSION
  5
A7F
330
1F
100
AcDbEntity
  8
stereodim
100
AcDbDimension
  2
*D66
 10
11.47783981578611
 20
11.86076665296798
 30
0.0
 11
11.47783981578611
 21
10.89357147515408
 31
0.0
 70
   160
 71
     5
 42
1.870899999999998
  3
SU1
100
AcDbAlignedDimension
 13
7.726998904211185
 23
9.989866652967988
 33
0.0
 14
10.84489890421118
 24
11.86076665296798
 34
0.0
 50
90.0
100
AcDbRotatedDimension
  0
DIMENSION
  5
A8D
330
1F
100
AcDbEntity
  8
stereodim
100
AcDbDimension
  2
*D67
 10
11.95841783818287
 20
11.86076665296798
 30
0.0
 11
11.95841783818286
 21
10.52404482647417
 31
0.0
 70
   160
 71
     5
 42
2.352499999999997
  3
SU1
100
AcDbAlignedDimension
 13
9.145168904211189
 23
9.508266652967989
 33
0.0
 14
10.84489890421118
 24
11.86076665296798
 34
0.0
 50
90.0
100
AcDbRotatedDimension
  0
DIMENSION
  5
A9B
330
1F
100
AcDbEntity
  8
stereodim
100
AcDbDimension
  2
*D68
 10
12.41435076540725
 20
11.86076665296798
 30
0.0
 11
12.41435076540724
 21
10.89357147515408
 31
0.0
 70
   160
 71
     5
 42
2.414999999999997
  3
SU1
100
AcDbAlignedDimension
 13
8.992668904211186
 23
9.445766652967989
 33
0.0
 14
10.84489890421118
 24
11.86076665296798
 34
0.0
 50
90.0
100
AcDbRotatedDimension
  0
DIMENSION
  5
AA9
330
1F
100
AcDbEntity
  8
stereodim
100
AcDbDimension
  2
*D69
 10
12.88260632355936
 20
11.86076665296798
 30
0.0
 11
12.88260632355935
 21
10.52404482647417
 31
0.0
 70
   160
 71
     5
 42
2.602999999999997
  3
SU1
100
AcDbAlignedDimension
 13
9.512168904211186
 23
9.257766652967989
 33
0.0
 14
10.84489890421118
 24
11.86076665296798
 34
0.0
 50
90.0
100
AcDbRotatedDimension
  0
DIMENSION
  5
AB7
330
1F
100
AcDbEntity
  8
stereodim
100
AcDbDimension
  2
*D70
 10
13.36643099921177
 20
11.86076665296798
 30
0.0
 11
13.36643099921177
 21
10.89365071726845
 31
0.0
 70
   160
 71
     5
 42
2.851399999999999
  3
SU1
100
AcDbAlignedDimension
 13
9.950698904211186
 23
9.009366652967987
 33
0.0
 14
10.84489890421118
 24
11.86076665296798
 34
0.0
 50
90.0
100
AcDbRotatedDimension
  0
DIMENSION
  5
AC5
330
1F
100
AcDbEntity
  8
stereodim
100
AcDbDimension
  2
*D71
 10
13.82236392643614
 20
11.86076665296798
 30
0.0
 11
13.82236392643614
 21
10.53644163690424
 31
0.0
 70
   160
 71
     5
 42
3.166999999999999
  3
SU1
100
AcDbAlignedDimension
 13
9.950698904211186
 23
8.693766652967987
 33
0.0
 14
10.84489890421118
 24
11.86076665296798
 34
0.0
 50
90.0
100
AcDbRotatedDimension
  0
DIMENSION
  5
AD3
330
1F
100
AcDbEntity
  8
stereodim
100
AcDbDimension
  2
*D72
 10
14.32758696066374
 20
11.86076665296798
 30
0.0
 11
14.32758696066373
 21
10.91828579664398
 31
0.0
 70
   160
 71
     5
 42
3.227999999999997
  3
SU1
100
AcDbAlignedDimension
 13
9.512168904211186
 23
8.632766652967989
 33
0.0
 14
10.84489890421118
 24
11.86076665296798
 34
0.0
 50
90.0
100
AcDbRotatedDimension
  0
DIMENSION
  5
AE1
330
1F
100
AcDbEntity
  8
stereodim
100
AcDbDimension
  2
*D73
 10
14.80816498306049
 20
11.86076665296798
 30
0.0
 11
14.80816498306049
 21
10.52412406858854
 31
0.0
 70
   160
 71
     5
 42
3.473999999999998
  3
SU1
100
AcDbAlignedDimension
 13
9.327224856938528
 23
8.386766652967988
 33
0.0
 14
10.84489890421118
 24
11.86076665296798
 34
0.0
 50
90.0
100
AcDbRotatedDimension
  0
DIMENSION
  5
AEF
330
1F
100
AcDbEntity
  8
stereodim
100
AcDbDimension
  2
*D74
 10
15.30106546970189
 20
11.86076665296798
 30
0.0
 11
15.30106546970189
 21
10.89365071726845
 31
0.0
 70
   160
 71
     5
 42
3.67477993631382
  3
SU1
100
AcDbAlignedDimension
 13
10.84489890421119
 23
8.185986716654166
 33
0.0
 14
10.84489890421118
 24
11.86076665296798
 34
0.0
 50
90.0
100
AcDbRotatedDimension
  0
DIMENSION
  5
AFD
330
1F
100
AcDbEntity
  8
stereodim
100
AcDbDimension
  2
*D75
 10
3.969620545883062
 20
11.86076665296799
 30
0.0
 11
3.96962054588306
 21
9.883611203242587
 31
0.0
 70
   160
 71
     5
 42
4.21724030862608
  3
SU1
100
AcDbAlignedDimension
 13
4.545698904211189
 23
7.643526344341909
 33
0.0
 14
4.545698904211185
 24
11.86076665296798
 34
0.0
 50
90.0
100
AcDbRotatedDimension
  0
DIMENSION
  5
B0B
330
1F
100
AcDbEntity
  8
stereodim
100
AcDbDimension
  2
*D76
 10
10.84489890421118
 20
8.185986716654165
 30
0.0
 11
11.49277045370453
 21
7.701993059878686
 31
0.0
 70
   162
 71
     5
 42
1.670763919612331
  3
SU1
100
AcDb2LineAngularDimension
 13
10.84489890421118
 23
11.86076665296798
 33
0.0
 14
10.84489890421119
 24
8.185986716654165
 34
0.0
 15
5.436624856938525
 25
7.643526344341909
 35
0.0
 16
11.27235499778515
 26
7.499496591081854
 36
0.0
  0
DIMENSION
  5
B1B
330
1F
100
AcDbEntity
  8
stereodim
100
AcDbDimension
  2
*D77
 10
5.529898904211155
 20
9.009366652968017
 30
0.0
 11
3.532427215241827
 21
12.77682582389527
 31
0.0
 70
   164
 71
     5
 42
0.0629999999999615
  3
SU1
100
AcDbRadialDimension
 15
5.509243668185153
 25
9.068884391707868
 35
0.0
 40
0.0
  0
DIMENSION
  5
B27
330
1F
100
AcDbEntity
  8
stereodim
100
AcDbDimension
  2
*D78
 10
5.652522114149122
 20
8.539583163629751
 30
0.0
 11
2.566629963107884
 21
11.53325997058477
 31
0.0
 70
   163
 71
     5
 42
0.3939999999999926
  3
SU1
100
AcDbDiametricDimension
 15
5.407275694273253
 25
8.847950142306236
 35
0.0
 40
0.0
  0
DIMENSION
  5
B33
330
1F
100
AcDbEntity
  8
stereodim
100
AcDbDimension
  2
*D79
 10
6.222928904211228
 20
8.499766652968055
 30
0.0
 11
8.210504105436697
 21
7.434145609621479
 31
0.0
 70
   164
 71
     5
 42
0.0499999999999954
  3
SU1
100
AcDbRadialDimension
 15
6.261746850581757
 25
8.468252100146001
 35
0.0
 40
0.0
  0
DIMENSION
  5
B3F
330
1F
100
AcDbEntity
  8
stereodim
100
AcDbDimension
  2
*D80
 10
4.545698904211189
 20
7.307457292810475
 30
0.0
 11
4.950283431578753
 21
7.307457292810475
 31
0.0
 70
   160
 71
     5
 42
0.8809999999999966
  3
SU1
100
AcDbAlignedDimension
 13
5.426698904211185
 23
7.643526344341911
 33
0.0
 14
4.545698904211189
 24
7.643526344341909
 34
0.0
100
AcDbRotatedDimension
  0
LEADER
  5
B4D
330
1F
100
AcDbEntity
  8
stereodim
100
AcDbLeader
  3
SU1
 73
     0
 40
0.24
 41
1.889999999999999
 76
     3
 10
7.636998904211182
 20
11.61986665296798
 30
0.0
 10
8.880576799823643
 20
13.89988064872688
 30
0.0
 10
9.528315993722731
 20
13.89988064872688
 30
0.0
340
B4E
213
0.0
223
-0.09
233
0.0
1001
ACAD
1000
DSTYLE
1002
{
1070
   147
1040
0.09
1070
    77
1070
     0
1002
}
  0
MTEXT
  5
B4E
102
{ACAD_REACTORS
330
B4D
102
}
330
1F
100
AcDbEntity
  8
stereodim
100
AcDbMText
 10
9.618315993722731
 20
13.98988064872688
 30
0.0
 40
0.18
 41
0.0
 71
     1
 72
     1
  1
\A1;4-40 tap 8x
 73
     1
 44
1.0
  0
LINE
  5
B52
330
1F
100
AcDbEntity
  8
stereodim
100
AcDbLine
 10
7.514971363171355
 20
8.357681446174304
 30
0.0
 11
7.747865816507371
 21
8.655666421883275
 31
0.0
  0
LINE
  5
B53
330
1F
100
AcDbEntity
  8
stereodim
100
AcDbLine
 10
7.747865816507371
 20
8.655666421883275
 30
0.0
 11
7.747865816507371
 21
8.450801738629387
 31
0.0
  0
LINE
  5
B54
330
1F
100
AcDbEntity
  8
stereodim
100
AcDbLine
 10
7.747865816507371
 20
8.450801738629387
 30
0.0
 11
7.952812919973851
 21
8.716194641868604
 31
0.0
  0
LEADER
  5
B55
330
1F
100
AcDbEntity
  8
stereodim
100
AcDbLeader
  3
SU1
 73
     0
 40
0.24
 41
2.58
 76
     3
 10
7.850339368240611
 20
8.583498190248995
 30
0.0
 10
11.45145608897824
 20
6.539280354727189
 30
0.0
 10
11.92576582273192
 20
6.539280354727189
 30
0.0
340
B56
213
0.0
223
-0.09
233
0.0
1001
ACAD
1000
DSTYLE
1002
{
1070
   147
1040
0.09
1070
    77
1070
     0
1002
}
  0
MTEXT
  5
B56
102
{ACAD_REACTORS
330
B55
102
}
330
1F
100
AcDbEntity
  8
stereodim
100
AcDbMText
 10
12.01576582273192
 20
6.629280354727189
 30
0.0
 40
0.18
 41
0.0
 71
     1
 72
     1
  1
\A1;pocket .010 deep
 73
     1
 44
1.0
  0
TEXT
  5
B58
330
1F
100
AcDbEntity
  8
stereotext
100
AcDbText
 10
13.20939062097492
 20
4.296069253833877
 30
0.0
 40
0.2
  1
STEREO HYBRID PICH ADAPTOR
100
AcDbText
  0
TEXT
  5
B59
330
1F
100
AcDbEntity
  8
stereotext
100
AcDbText
 10
13.20939062097492
 20
3.962735920500543
 30
0.0
 40
0.2
  1
TEST AND WIREBONDING FIXTURE
100
AcDbText
  0
TEXT
  5
B5A
330
1F
100
AcDbEntity
  8
stereotext
100
AcDbText
 10
13.20939062097492
 20
3.629402587167209
 30
0.0
 40
0.2
  1
.125 THICK AL.
100
AcDbText
  0
ENDSEC
  0
SECTION
  2
OBJECTS
  0
DICTIONARY
  5
C
330
0
100
AcDbDictionary
281
     1
  3
ACAD_GROUP
350
D
  3
ACAD_LAYOUT
350
1A
  3
ACAD_MLINESTYLE
350
17
  3
ACAD_PLOTSETTINGS
350
19
  3
ACAD_PLOTSTYLENAME
350
E
  0
DICTIONARY
  5
D
102
{ACAD_REACTORS
330
C
102
}
330
C
100
AcDbDictionary
281
     1
  0
DICTIONARY
  5
1A
102
{ACAD_REACTORS
330
C
102
}
330
C
100
AcDbDictionary
281
     1
  3
Layout1
350
1E
  3
Layout2
350
26
  3
Model
350
22
  0
DICTIONARY
  5
17
102
{ACAD_REACTORS
330
C
102
}
330
C
100
AcDbDictionary
281
     1
  3
Standard
350
18
  0
DICTIONARY
  5
19
102
{ACAD_REACTORS
330
C
102
}
330
C
100
AcDbDictionary
281
     1
  3
C-1_TO_1
350
15A
  0
ACDBDICTIONARYWDFLT
  5
E
102
{ACAD_REACTORS
330
C
102
}
330
C
100
AcDbDictionary
281
     1
  3
Normal
350
F
100
AcDbDictionaryWithDefault
340
F
  0
LAYOUT
  5
1E
102
{ACAD_REACTORS
330
1A
102
}
330
1A
100
AcDbPlotSettings
  1

  2
HP OfficeJet R80xi
  4

  6

 40
0.0
 41
0.0
 42
0.0
 43
0.0
 44
0.0
 45
0.0
 46
0.0
 47
0.0
 48
0.0
 49
0.0
140
0.0
141
0.0
142
1.0
143
1.0
 70
   688
 72
     0
 73
     0
 74
     5
  7

 75
    16
147
1.0
148
0.0
149
0.0
100
AcDbLayout
  1
Layout1
 70
     1
 71
     1
 10
0.0
 20
0.0
 11
12.0
 21
9.0
 12
0.0
 22
0.0
 32
0.0
 14
1.000000000000000E+20
 24
1.000000000000000E+20
 34
1.000000000000000E+20
 15
-1.000000000000000E+20
 25
-1.000000000000000E+20
 35
-1.000000000000000E+20
146
0.0
 13
0.0
 23
0.0
 33
0.0
 16
1.0
 26
0.0
 36
0.0
 17
0.0
 27
1.0
 37
0.0
 76
     0
330
1B
  0
LAYOUT
  5
26
102
{ACAD_REACTORS
330
1A
102
}
330
1A
100
AcDbPlotSettings
  1

  2
HP OfficeJet R80xi
  4

  6

 40
0.0
 41
0.0
 42
0.0
 43
0.0
 44
0.0
 45
0.0
 46
0.0
 47
0.0
 48
0.0
 49
0.0
140
0.0
141
0.0
142
1.0
143
1.0
 70
   688
 72
     0
 73
     0
 74
     5
  7

 75
    16
147
1.0
148
0.0
149
0.0
100
AcDbLayout
  1
Layout2
 70
     1
 71
     2
 10
0.0
 20
0.0
 11
12.0
 21
9.0
 12
0.0
 22
0.0
 32
0.0
 14
0.0
 24
0.0
 34
0.0
 15
0.0
 25
0.0
 35
0.0
146
0.0
 13
0.0
 23
0.0
 33
0.0
 16
1.0
 26
0.0
 36
0.0
 17
0.0
 27
1.0
 37
0.0
 76
     0
330
23
  0
LAYOUT
  5
22
102
{ACAD_REACTORS
330
1A
102
}
330
1A
100
AcDbPlotSettings
  1

  2
HP OfficeJet R80xi
  4
Letter
  6

 40
7.143749713897705
 41
13.49374771118164
 42
7.14373779296875
 43
3.17498779296875
 44
215.8999938964843
 45
279.3999938964843
 46
0.0
 47
0.0
 48
14.45303134965358
 49
4.490131031985583
140
20.5
141
14.625
142
1.0
143
1.0
 70
 11952
 72
     0
 73
     1
 74
     4
  7

 75
    16
147
1.0
148
-367.106996281201
149
-114.0493282124338
100
AcDbLayout
  1
Model
 70
     1
 71
     0
 10
0.0
 20
0.0
 11
12.0
 21
9.0
 12
0.0
 22
0.0
 32
0.0
 14
0.0
 24
0.0
 34
0.0
 15
0.0
 25
0.0
 35
0.0
146
0.0
 13
0.0
 23
0.0
 33
0.0
 16
1.0
 26
0.0
 36
0.0
 17
0.0
 27
1.0
 37
0.0
 76
     0
330
1F
  0
MLINESTYLE
  5
18
102
{ACAD_REACTORS
330
17
102
}
330
17
100
AcDbMlineStyle
  2
STANDARD
 70
     0
  3

 62
   256
 51
90.0
 52
90.0
 71
     2
 49
0.5
 62
   256
  6
BYLAYER
 49
-0.5
 62
   256
  6
BYLAYER
  0
PLOTSETTINGS
  5
15A
102
{ACAD_REACTORS
330
19
102
}
330
19
100
AcDbPlotSettings
  1
C-1_TO_1
  2
Draftmaster 2 (7596A).pc3
  4
ANSI_C_(22.00_x_17.00_Inches)
  6

 40
16.79375076293945
 41
40.79375076293945
 42
16.8187255859375
 43
16.81875610351562
 44
558.7999877929687
 45
431.7999877929687
 46
0.0
 47
0.0
 48
0.0
 49
0.0
140
0.0
141
0.0
142
1.0
143
1.0
 70
   688
 72
     0
 73
     0
 74
     5
  7

 75
    16
147
1.0
148
0.0
149
0.0
  0
ACDBPLACEHOLDER
  5
F
102
{ACAD_REACTORS
330
E
102
}
330
E
  0
ENDSEC
  0
EOF
