  0
SECTION
  2
HEADER
  9
$ACADVER
  1
AC1015
  9
$ACADMAINTVER
 70
     6
  9
$DWGCODEPAGE
  3
ANSI_1252
  9
$INSBASE
 10
0.0
 20
0.0
 30
0.0
  9
$EXTMIN
 10
0.2495727821364682
 20
0.0622101040349925
 30
-0.0000000000000058
  9
$EXTMAX
 10
10.25079348293458
 20
7.302886981869683
 30
0.0000000000000104
  9
$LIMMIN
 10
0.0
 20
0.0
  9
$LIMMAX
 10
12.0
 20
9.0
  9
$ORTHOMODE
 70
     1
  9
$REGENMODE
 70
     1
  9
$FILLMODE
 70
     1
  9
$QTEXTMODE
 70
     0
  9
$MIRRTEXT
 70
     1
  9
$LTSCALE
 40
0.25
  9
$ATTMODE
 70
     1
  9
$TEXTSIZE
 40
0.2
  9
$TRACEWID
 40
0.05
  9
$TEXTSTYLE
  7
Standard
  9
$CLAYER
  8
TEXT
  9
$CELTYPE
  6
ByLayer
  9
$CECOLOR
 62
   256
  9
$CELTSCALE
 40
1.0
  9
$DISPSILH
 70
     0
  9
$DIMSCALE
 40
0.5
  9
$DIMASZ
 40
0.18
  9
$DIMEXO
 40
0.0625
  9
$DIMDLI
 40
0.38
  9
$DIMRND
 40
0.0
  9
$DIMDLE
 40
0.0
  9
$DIMEXE
 40
0.18
  9
$DIMTP
 40
0.001
  9
$DIMTM
 40
0.001
  9
$DIMTXT
 40
0.18
  9
$DIMCEN
 40
0.09
  9
$DIMTSZ
 40
0.0
  9
$DIMTOL
 70
     0
  9
$DIMLIM
 70
     0
  9
$DIMTIH
 70
     1
  9
$DIMTOH
 70
     1
  9
$DIMSE1
 70
     0
  9
$DIMSE2
 70
     0
  9
$DIMTAD
 70
     0
  9
$DIMZIN
 70
     0
  9
$DIMBLK
  1

  9
$DIMASO
 70
     1
  9
$DIMSHO
 70
     1
  9
$DIMPOST
  1

  9
$DIMAPOST
  1
mm
  9
$DIMALT
 70
     0
  9
$DIMALTD
 70
     2
  9
$DIMALTF
 40
25.4
  9
$DIMLFAC
 40
1.0
  9
$DIMTOFL
 70
     0
  9
$DIMTVP
 40
0.0
  9
$DIMTIX
 70
     0
  9
$DIMSOXD
 70
     0
  9
$DIMSAH
 70
     0
  9
$DIMBLK1
  1

  9
$DIMBLK2
  1

  9
$DIMSTYLE
  2
SU1
  9
$DIMCLRD
 70
     0
  9
$DIMCLRE
 70
     0
  9
$DIMCLRT
 70
     0
  9
$DIMTFAC
 40
1.0
  9
$DIMGAP
 40
0.09
  9
$DIMJUST
 70
     0
  9
$DIMSD1
 70
     0
  9
$DIMSD2
 70
     0
  9
$DIMTOLJ
 70
     1
  9
$DIMTZIN
 70
     0
  9
$DIMALTZ
 70
     0
  9
$DIMALTTZ
 70
     0
  9
$DIMUPT
 70
     0
  9
$DIMDEC
 70
     3
  9
$DIMTDEC
 70
     3
  9
$DIMALTU
 70
     2
  9
$DIMALTTD
 70
     2
  9
$DIMTXSTY
  7
Standard
  9
$DIMAUNIT
 70
     0
  9
$DIMADEC
 70
     0
  9
$DIMALTRND
 40
0.0
  9
$DIMAZIN
 70
     0
  9
$DIMDSEP
 70
    46
  9
$DIMATFIT
 70
     0
  9
$DIMFRAC
 70
     0
  9
$DIMLDRBLK
  1

  9
$DIMLUNIT
 70
     2
  9
$DIMLWD
 70
    -2
  9
$DIMLWE
 70
    -2
  9
$DIMTMOVE
 70
     0
  9
$LUNITS
 70
     2
  9
$LUPREC
 70
     4
  9
$SKETCHINC
 40
0.1
  9
$FILLETRAD
 40
0.5
  9
$AUNITS
 70
     0
  9
$AUPREC
 70
     0
  9
$MENU
  1
.
  9
$ELEVATION
 40
0.0
  9
$PELEVATION
 40
0.0
  9
$THICKNESS
 40
0.0
  9
$LIMCHECK
 70
     0
  9
$CHAMFERA
 40
0.5
  9
$CHAMFERB
 40
0.5
  9
$CHAMFERC
 40
1.0
  9
$CHAMFERD
 40
0.0
  9
$SKPOLY
 70
     0
  9
$TDCREATE
 40
2452950.356544768
  9
$TDUCREATE
 40
2452950.689878102
  9
$TDUPDATE
 40
2453014.489389097
  9
$TDUUPDATE
 40
2453014.822722430
  9
$TDINDWG
 40
0.0133879514
  9
$TDUSRTIMER
 40
0.0133877778
  9
$USRTIMER
 70
     1
  9
$ANGBASE
 50
0.0
  9
$ANGDIR
 70
     0
  9
$PDMODE
 70
     0
  9
$PDSIZE
 40
0.0
  9
$PLINEWID
 40
0.0
  9
$SPLFRAME
 70
     0
  9
$SPLINETYPE
 70
     6
  9
$SPLINESEGS
 70
     8
  9
$HANDSEED
  5
236
  9
$SURFTAB1
 70
     6
  9
$SURFTAB2
 70
     6
  9
$SURFTYPE
 70
     6
  9
$SURFU
 70
     6
  9
$SURFV
 70
     6
  9
$UCSBASE
  2

  9
$UCSNAME
  2

  9
$UCSORG
 10
0.0
 20
0.0
 30
0.0
  9
$UCSXDIR
 10
1.0
 20
0.0
 30
0.0
  9
$UCSYDIR
 10
0.0
 20
1.0
 30
0.0
  9
$UCSORTHOREF
  2

  9
$UCSORTHOVIEW
 70
     0
  9
$UCSORGTOP
 10
0.0
 20
0.0
 30
0.0
  9
$UCSORGBOTTOM
 10
0.0
 20
0.0
 30
0.0
  9
$UCSORGLEFT
 10
0.0
 20
0.0
 30
0.0
  9
$UCSORGRIGHT
 10
0.0
 20
0.0
 30
0.0
  9
$UCSORGFRONT
 10
0.0
 20
0.0
 30
0.0
  9
$UCSORGBACK
 10
0.0
 20
0.0
 30
0.0
  9
$PUCSBASE
  2

  9
$PUCSNAME
  2

  9
$PUCSORG
 10
0.0
 20
0.0
 30
0.0
  9
$PUCSXDIR
 10
1.0
 20
0.0
 30
0.0
  9
$PUCSYDIR
 10
0.0
 20
1.0
 30
0.0
  9
$PUCSORTHOREF
  2

  9
$PUCSORTHOVIEW
 70
     0
  9
$PUCSORGTOP
 10
0.0
 20
0.0
 30
0.0
  9
$PUCSORGBOTTOM
 10
0.0
 20
0.0
 30
0.0
  9
$PUCSORGLEFT
 10
0.0
 20
0.0
 30
0.0
  9
$PUCSORGRIGHT
 10
0.0
 20
0.0
 30
0.0
  9
$PUCSORGFRONT
 10
0.0
 20
0.0
 30
0.0
  9
$PUCSORGBACK
 10
0.0
 20
0.0
 30
0.0
  9
$USERI1
 70
     0
  9
$USERI2
 70
     0
  9
$USERI3
 70
     0
  9
$USERI4
 70
     0
  9
$USERI5
 70
     0
  9
$USERR1
 40
0.0
  9
$USERR2
 40
0.0
  9
$USERR3
 40
0.0
  9
$USERR4
 40
0.0
  9
$USERR5
 40
0.0
  9
$WORLDVIEW
 70
     1
  9
$SHADEDGE
 70
     3
  9
$SHADEDIF
 70
    70
  9
$TILEMODE
 70
     1
  9
$MAXACTVP
 70
    64
  9
$PINSBASE
 10
0.0
 20
0.0
 30
0.0
  9
$PLIMCHECK
 70
     0
  9
$PEXTMIN
 10
1.000000000000000E+20
 20
1.000000000000000E+20
 30
1.000000000000000E+20
  9
$PEXTMAX
 10
-1.000000000000000E+20
 20
-1.000000000000000E+20
 30
-1.000000000000000E+20
  9
$PLIMMIN
 10
0.0
 20
0.0
  9
$PLIMMAX
 10
12.0
 20
9.0
  9
$UNITMODE
 70
     0
  9
$VISRETAIN
 70
     1
  9
$PLINEGEN
 70
     0
  9
$PSLTSCALE
 70
     1
  9
$TREEDEPTH
 70
  3020
  9
$CMLSTYLE
  2
Standard
  9
$CMLJUST
 70
     0
  9
$CMLSCALE
 40
1.0
  9
$PROXYGRAPHICS
 70
     1
  9
$MEASUREMENT
 70
     0
  9
$CELWEIGHT
370
    -1
  9
$ENDCAPS
280
     0
  9
$JOINSTYLE
280
     0
  9
$LWDISPLAY
290
     0
  9
$INSUNITS
 70
     1
  9
$HYPERLINKBASE
  1

  9
$STYLESHEET
  1
style-1.ctb
  9
$XEDIT
290
     1
  9
$CEPSNTYPE
380
     0
  9
$PSTYLEMODE
290
     1
  9
$FINGERPRINTGUID
  2
{FDEAD576-A652-11D2-9A35-0060089B3A3F}
  9
$VERSIONGUID
  2
{2E47D500-2D64-4C1C-9E19-B34C1E45ED52}
  9
$EXTNAMES
290
     1
  9
$PSVPSCALE
 40
0.0
  9
$OLESTARTUP
290
     0
  0
ENDSEC
  0
SECTION
  2
CLASSES
  0
CLASS
  1
ACDBDICTIONARYWDFLT
  2
AcDbDictionaryWithDefault
  3
AutoCAD 2000
 90
        0
280
     0
281
     0
  0
CLASS
  1
ACDBPLACEHOLDER
  2
AcDbPlaceHolder
  3
AutoCAD 2000
 90
        0
280
     0
281
     0
  0
CLASS
  1
LAYOUT
  2
AcDbLayout
  3
AutoCAD 2000
 90
        0
280
     0
281
     0
  0
ENDSEC
  0
SECTION
  2
TABLES
  0
TABLE
  2
VPORT
  5
8
330
0
100
AcDbSymbolTable
 70
     2
  0
VPORT
  5
235
330
8
100
AcDbSymbolTableRecord
100
AcDbViewportTableRecord
  2
*Active
 70
     0
 10
0.0
 20
0.0
 11
1.0
 21
1.0
 12
5.250183132535526
 22
3.682548542952337
 13
0.0
 23
0.0
 14
0.125
 24
0.125
 15
1.0
 25
1.0
 16
0.0
 26
0.0
 36
1.0
 17
0.0
 27
0.0
 37
0.0
 40
7.286359381795792
 41
1.629473684210526
 42
50.0
 43
0.0
 44
0.0
 50
0.0
 51
0.0
 71
     0
 72
   100
 73
     1
 74
     3
 75
     0
 76
     1
 77
     0
 78
     0
281
     0
 65
     1
110
0.0
120
0.0
130
0.0
111
1.0
121
0.0
131
0.0
112
0.0
122
1.0
132
0.0
 79
     0
146
0.0
  0
ENDTAB
  0
TABLE
  2
LTYPE
  5
5
330
0
100
AcDbSymbolTable
 70
     3
  0
LTYPE
  5
14
330
5
100
AcDbSymbolTableRecord
100
AcDbLinetypeTableRecord
  2
ByBlock
 70
     0
  3

 72
    65
 73
     0
 40
0.0
  0
LTYPE
  5
15
330
5
100
AcDbSymbolTableRecord
100
AcDbLinetypeTableRecord
  2
ByLayer
 70
     0
  3

 72
    65
 73
     0
 40
0.0
  0
LTYPE
  5
16
330
5
100
AcDbSymbolTableRecord
100
AcDbLinetypeTableRecord
  2
Continuous
 70
     0
  3
Solid line
 72
    65
 73
     0
 40
0.0
  0
LTYPE
  5
48
330
5
100
AcDbSymbolTableRecord
100
AcDbLinetypeTableRecord
  2
CENTER
 70
     0
  3
____ _ ____ _ ____ _ ____ _ ____ _ ____ _ ____ 
 72
    65
 73
     4
 40
2.0
 49
1.25
 74
     0
 49
-0.25
 74
     0
 49
0.25
 74
     0
 49
-0.25
 74
     0
  0
LTYPE
  5
F9
330
5
100
AcDbSymbolTableRecord
100
AcDbLinetypeTableRecord
  2
HIDDEN
 70
     0
  3
Hidden __ __ __ __ __ __ __ __ __ __ __ __ __ _
 72
    65
 73
     2
 40
0.375
 49
0.25
 74
     0
 49
-0.125
 74
     0
  0
ENDTAB
  0
TABLE
  2
LAYER
  5
2
330
0
100
AcDbSymbolTable
 70
     9
  0
LAYER
  5
10
330
2
100
AcDbSymbolTableRecord
100
AcDbLayerTableRecord
  2
0
 70
     0
 62
     7
  6
Continuous
370
    -3
390
F
  0
LAYER
  5
49
330
2
100
AcDbSymbolTableRecord
100
AcDbLayerTableRecord
  2
TEXT
 70
     0
 62
     7
  6
Continuous
370
    -3
390
F
  0
LAYER
  5
4A
330
2
100
AcDbSymbolTableRecord
100
AcDbLayerTableRecord
  2
BORDER
 70
     0
 62
     8
  6
Continuous
370
    -3
390
F
  0
LAYER
  5
A1
330
2
100
AcDbSymbolTableRecord
100
AcDbLayerTableRecord
  2
Defpoints
 70
     0
 62
     7
  6
Continuous
290
     0
370
    -3
390
F
  0
LAYER
  5
D8
330
2
100
AcDbSymbolTableRecord
100
AcDbLayerTableRecord
  2
DIM
 70
     0
 62
     3
  6
Continuous
370
    -3
390
F
  0
LAYER
  5
D9
330
2
100
AcDbSymbolTableRecord
100
AcDbLayerTableRecord
  2
CENTER
 70
     0
 62
     1
  6
CENTER
370
    -3
390
F
  0
LAYER
  5
168
330
2
100
AcDbSymbolTableRecord
100
AcDbLayerTableRecord
  2
clamp
 70
     0
 62
     5
  6
Continuous
370
    -3
390
F
  0
LAYER
  5
169
330
2
100
AcDbSymbolTableRecord
100
AcDbLayerTableRecord
  2
clamp-1
 70
     0
 62
     7
  6
Continuous
370
    -3
390
F
  0
LAYER
  5
183
330
2
100
AcDbSymbolTableRecord
100
AcDbLayerTableRecord
  2
stereotext
 70
     0
 62
     7
  6
Continuous
370
    -3
390
F
  0
ENDTAB
  0
TABLE
  2
STYLE
  5
3
330
0
100
AcDbSymbolTable
 70
     3
  0
STYLE
  5
11
330
3
100
AcDbSymbolTableRecord
100
AcDbTextStyleTableRecord
  2
Standard
 70
     0
 40
0.0
 41
1.0
 50
0.0
 71
     0
 42
0.2
  3
txt
  4

  0
STYLE
  5
4B
330
3
100
AcDbSymbolTableRecord
100
AcDbTextStyleTableRecord
  2
ADESK2
 70
     0
 40
0.0
 41
1.0
 50
0.0
 71
     0
 42
0.065
  3
romans
  4

  0
STYLE
  5
F8
330
3
100
AcDbSymbolTableRecord
100
AcDbTextStyleTableRecord
  2

 70
     1
 40
0.0
 41
1.0
 50
0.0
 71
     0
 42
0.2
  3
ltypeshp.shx
  4

  0
ENDTAB
  0
TABLE
  2
VIEW
  5
6
330
0
100
AcDbSymbolTable
 70
     0
  0
ENDTAB
  0
TABLE
  2
UCS
  5
7
330
0
100
AcDbSymbolTable
 70
     0
  0
ENDTAB
  0
TABLE
  2
APPID
  5
9
330
0
100
AcDbSymbolTable
 70
     1
  0
APPID
  5
12
330
9
100
AcDbSymbolTableRecord
100
AcDbRegAppTableRecord
  2
ACAD
 70
     0
  0
ENDTAB
  0
TABLE
  2
DIMSTYLE
  5
A
330
0
100
AcDbSymbolTable
 70
     4
100
AcDbDimStyleTable
 71
     4
340
E0
340
4C
340
DF
340
27
  0
DIMSTYLE
105
27
330
A
100
AcDbSymbolTableRecord
100
AcDbDimStyleTableRecord
  2
Standard
 70
     0
340
11
  0
DIMSTYLE
105
4C
102
{ACAD_REACTORS
330
192
330
1A0
330
1AE
330
1BC
330
1CB
330
1D9
330
1E7
330
1F6
330
205
102
}
330
A
100
AcDbSymbolTableRecord
100
AcDbDimStyleTableRecord
  2
SU1
 70
     0
  4
mm
 40
0.5
 47
0.001
 48
0.001
271
     3
272
     3
289
     0
340
11
  0
DIMSTYLE
105
DF
330
A
100
AcDbSymbolTableRecord
100
AcDbDimStyleTableRecord
  2
SU1$4
 70
     0
  4
mm
 40
0.5
 47
0.001
 48
0.001
271
     3
272
     3
288
     1
289
     0
340
11
  0
DIMSTYLE
105
E0
102
{ACAD_REACTORS
330
213
102
}
330
A
100
AcDbSymbolTableRecord
100
AcDbDimStyleTableRecord
  2
SU1$3
 70
     0
  4
mm
 40
0.5
 47
0.001
 48
0.001
271
     3
272
     3
288
     1
289
     0
340
11
  0
ENDTAB
  0
TABLE
  2
BLOCK_RECORD
  5
1
330
0
100
AcDbSymbolTable
 70
    13
  0
BLOCK_RECORD
  5
1F
330
1
100
AcDbSymbolTableRecord
100
AcDbBlockTableRecord
  2
*Model_Space
340
22
  0
BLOCK_RECORD
  5
1B
330
1
100
AcDbSymbolTableRecord
100
AcDbBlockTableRecord
  2
*Paper_Space
340
1E
  0
BLOCK_RECORD
  5
23
330
1
100
AcDbSymbolTableRecord
100
AcDbBlockTableRecord
  2
*Paper_Space0
340
26
  0
BLOCK_RECORD
  5
108
330
1
100
AcDbSymbolTableRecord
100
AcDbBlockTableRecord
  2
a-border
340
0
102
{BLKREFS
331
152
102
}
  0
BLOCK_RECORD
  5
159
330
1
100
AcDbSymbolTableRecord
100
AcDbBlockTableRecord
  2
clamp
340
0
310
2800000020000000200000000100080000000000000400000000000000000000000000000000000000000000000080000080000000808000800000008000800080800000C0C0C000C0DCC000F0CAA6000020400000206000002080000020A0000020C0000020E00000400000004020000040400000406000004080000040A0
310
000040C0000040E00000600000006020000060400000606000006080000060A0000060C0000060E00000800000008020000080400000806000008080000080A0000080C0000080E00000A0000000A0200000A0400000A0600000A0800000A0A00000A0C00000A0E00000C0000000C0200000C0400000C0600000C0800000C0
310
A00000C0C00000C0E00000E0000000E0200000E0400000E0600000E0800000E0A00000E0C00000E0E00040000000400020004000400040006000400080004000A0004000C0004000E00040200000402020004020400040206000402080004020A0004020C0004020E000404000004040200040404000404060004040800040
310
40A0004040C0004040E00040600000406020004060400040606000406080004060A0004060C0004060E00040800000408020004080400040806000408080004080A0004080C0004080E00040A0000040A0200040A0400040A0600040A0800040A0A00040A0C00040A0E00040C0000040C0200040C0400040C0600040C08000
310
40C0A00040C0C00040C0E00040E0000040E0200040E0400040E0600040E0800040E0A00040E0C00040E0E00080000000800020008000400080006000800080008000A0008000C0008000E00080200000802020008020400080206000802080008020A0008020C0008020E00080400000804020008040400080406000804080
310
008040A0008040C0008040E00080600000806020008060400080606000806080008060A0008060C0008060E00080800000808020008080400080806000808080008080A0008080C0008080E00080A0000080A0200080A0400080A0600080A0800080A0A00080A0C00080A0E00080C0000080C0200080C0400080C0600080C0
310
800080C0A00080C0C00080C0E00080E0000080E0200080E0400080E0600080E0800080E0A00080E0C00080E0E000C0000000C0002000C0004000C0006000C0008000C000A000C000C000C000E000C0200000C0202000C0204000C0206000C0208000C020A000C020C000C020E000C0400000C0402000C0404000C0406000C0
310
408000C040A000C040C000C040E000C0600000C0602000C0604000C0606000C0608000C060A000C060C000C060E000C0800000C0802000C0804000C0806000C0808000C080A000C080C000C080E000C0A00000C0A02000C0A04000C0A06000C0A08000C0A0A000C0A0C000C0A0E000C0C00000C0C02000C0C04000C0C06000
310
C0C08000C0C0A000F0FBFF00A4A0A000808080000000FF0000FF000000FFFF00FF000000FF00FF00FFFF0000FFFFFF000000000000000000000000000000000000000000000000000000000000000000000000000000FCFCFCFCFCFCFCFCFCFCFCFCFCFCFCFCFCFCFCFC000000000000000000000000FC0000000000000000
310
00000000000000000000FC000000000000000000000000FC000000000000000000000000000000000000FC000000000000000000000000FC0000000000000000FCFCFCFCFCFC00000000FC000000000000000000000000FC00000000000000FCFC00000000FCFC000000FC000000000000000000000000FC00000000000000
310
FC000000000000FC000000FC000000000000000000000000FC00000000000000FC000000000000FC000000FC000000000000000000000000FC0000000000000000FCFCFCFCFCFC00000000FC000000000000000000000000FC000000000000000000000000000000000000FC000000000000000000000000FC000000000000
310
000000000000000000000000FC000000000000000000000000FC000000000000000000000000000000000000FC000000000000000000000000FC000000000000000000000000000000000000FC000000000000000000000000FC000000000000000000000000000000000000FC000000000000000000000000FC0000000000
310
00000000000000000000000000FC000000000000000000000000FC000000000000000000000000000000000000FC000000000000000000000000FC000000000000000000000000000000000000FC000000000000000000000000FC000000000000000000000000000000000000FC000000000000000000000000FC00000000
310
0000000000000000000000000000FC000000000000000000000000FC000000000000000000000000000000000000FC000000000000000000000000FC000000000000000000000000000000000000FC000000000000000000000000FC000000000000000000000000000000000000FC000000000000000000000000FC000000
310
000000000000000000000000000000FC000000000000000000000000FC0000000000000000FCFCFCFCFCFC00000000FC000000000000000000000000FC00000000000000FC000000000000FC000000FC000000000000000000000000FC00000000000000FC000000000000FC000000FC000000000000000000000000FC0000
310
0000000000FCFC00000000FCFC000000FC000000000000000000000000FC0000000000000000FCFCFCFCFCFC00000000FC000000000000000000000000FC000000000000000000000000000000000000FC000000000000000000000000FC000000000000000000000000000000000000FC000000000000000000000000FCFC
310
FCFCFCFCFCFCFCFCFCFCFCFCFCFCFCFCFCFC0000000000000000000000000000000000000000000000000000000000000000000000000000
1001
ACAD
1000
DesignCenter Data
1002
{
1070
     1
1070
     1
1002
}
  0
BLOCK_RECORD
  5
193
330
1
100
AcDbSymbolTableRecord
100
AcDbBlockTableRecord
  2
*D3
340
0
  0
BLOCK_RECORD
  5
1A1
330
1
100
AcDbSymbolTableRecord
100
AcDbBlockTableRecord
  2
*D4
340
0
  0
BLOCK_RECORD
  5
1AF
330
1
100
AcDbSymbolTableRecord
100
AcDbBlockTableRecord
  2
*D5
340
0
  0
BLOCK_RECORD
  5
1BD
330
1
100
AcDbSymbolTableRecord
100
AcDbBlockTableRecord
  2
*D6
340
0
  0
BLOCK_RECORD
  5
1CC
330
1
100
AcDbSymbolTableRecord
100
AcDbBlockTableRecord
  2
*D7
340
0
  0
BLOCK_RECORD
  5
1DA
330
1
100
AcDbSymbolTableRecord
100
AcDbBlockTableRecord
  2
*D8
340
0
  0
BLOCK_RECORD
  5
1E8
330
1
100
AcDbSymbolTableRecord
100
AcDbBlockTableRecord
  2
*D9
340
0
  0
BLOCK_RECORD
  5
1F7
330
1
100
AcDbSymbolTableRecord
100
AcDbBlockTableRecord
  2
*D10
340
0
  0
BLOCK_RECORD
  5
206
330
1
100
AcDbSymbolTableRecord
100
AcDbBlockTableRecord
  2
*D11
340
0
  0
BLOCK_RECORD
  5
214
330
1
100
AcDbSymbolTableRecord
100
AcDbBlockTableRecord
  2
*D12
340
0
  0
ENDTAB
  0
ENDSEC
  0
SECTION
  2
BLOCKS
  0
BLOCK
  5
20
330
1F
100
AcDbEntity
  8
0
100
AcDbBlockBegin
  2
*Model_Space
 70
     0
 10
0.0
 20
0.0
 30
0.0
  3
*Model_Space
  1

  0
ENDBLK
  5
21
330
1F
100
AcDbEntity
  8
0
100
AcDbBlockEnd
  0
BLOCK
  5
1C
330
1B
100
AcDbEntity
 67
     1
  8
0
100
AcDbBlockBegin
  2
*Paper_Space
 70
     0
 10
0.0
 20
0.0
 30
0.0
  3
*Paper_Space
  1

  0
ENDBLK
  5
1D
330
1B
100
AcDbEntity
 67
     1
  8
0
100
AcDbBlockEnd
  0
BLOCK
  5
24
330
23
100
AcDbEntity
  8
0
100
AcDbBlockBegin
  2
*Paper_Space0
 70
     0
 10
0.0
 20
0.0
 30
0.0
  3
*Paper_Space0
  1

  0
ENDBLK
  5
25
330
23
100
AcDbEntity
  8
0
100
AcDbBlockEnd
  0
BLOCK
  5
150
330
108
100
AcDbEntity
  8
0
100
AcDbBlockBegin
  2
a-border
 70
     2
 10
0.0
 20
0.0
 30
0.0
  3
a-border
  1

  0
ATTDEF
  5
109
330
108
100
AcDbEntity
  8
TEXT
100
AcDbText
 10
9.166299999999999
 20
0.2313
 30
0.0
 40
0.06
  1

100
AcDbAttributeDefinition
  3
Enter File Name
  2
FILE
 70
     0
  0
ATTDEF
  5
10A
330
108
100
AcDbEntity
  8
TEXT
100
AcDbText
 10
7.8768
 20
0.4075
 30
0.0
 40
0.03
  1

100
AcDbAttributeDefinition
  3
Enter the Date
  2
DATE
 70
     0
  0
ATTDEF
  5
10B
330
108
100
AcDbEntity
  8
TEXT
100
AcDbText
 10
7.381999999999999
 20
0.4188
 30
0.0
 40
0.06
  1
S. KYRE
100
AcDbAttributeDefinition
  3
Enter Your Name
  2
NAME
 70
     0
  0
ATTDEF
  5
10C
330
108
100
AcDbEntity
  8
TEXT
100
AcDbText
 10
8.3488
 20
0.0891
 30
0.0
 40
0.06
  1

100
AcDbAttributeDefinition
  3
Enter Drawing Scale
  2
SCALE
 70
     0
  0
ATTDEF
  5
10D
330
108
100
AcDbEntity
  8
TEXT
100
AcDbText
 10
8.3602
 20
0.2256
 30
0.0
 40
0.06
  1

100
AcDbAttributeDefinition
  3
Enter Drawing Directory
  2
DIRECTORY
 70
     0
  0
TEXT
  5
10E
330
108
100
AcDbEntity
  8
TEXT
100
AcDbText
 10
9.806017901868278
 20
0.1221884730513363
 30
0.0
 40
0.0325
  1
OF
  7
ADESK2
100
AcDbText
  0
TEXT
  5
10F
330
108
100
AcDbEntity
  8
TEXT
100
AcDbText
 10
7.926233901868277
 20
0.4874754730513367
 30
0.0
 40
0.0325
  1
DATE
  7
ADESK2
100
AcDbText
  0
LINE
  5
110
330
108
100
AcDbEntity
  8
TEXT
100
AcDbLine
 10
7.864524401868278
 20
0.5457504730513368
 30
0.0
 11
7.864524401868278
 21
0.0625
 31
0.0
  0
TEXT
  5
111
330
108
100
AcDbEntity
  8
TEXT
100
AcDbText
 10
7.154532401868278
 20
0.1782504730513361
 30
0.0
 40
0.0325
  1
DESIGN
  7
ADESK2
100
AcDbText
  0
TEXT
  5
112
330
108
100
AcDbEntity
  8
TEXT
100
AcDbText
 10
7.154532401868278
 20
0.3357504730513368
 30
0.0
 40
0.0325
  1
CHECKED
  7
ADESK2
100
AcDbText
  0
LINE
  5
113
330
108
100
AcDbEntity
  8
TEXT
100
AcDbLine
 10
7.114532401868278
 20
0.5457504730513368
 30
0.0
 11
8.114532401868279
 21
0.5457504730513368
 31
0.0
  0
TEXT
  5
114
330
108
100
AcDbEntity
  8
TEXT
100
AcDbText
 10
9.848673055561846
 20
7.044547729948104
 30
0.0
 40
0.0325
  1
APPROVED
  7
ADESK2
100
AcDbText
  0
TEXT
  5
115
330
108
100
AcDbEntity
  8
TEXT
100
AcDbText
 10
9.451823055561847
 20
7.044547729948104
 30
0.0
 40
0.0325
  1
DATE
  7
ADESK2
100
AcDbText
  0
TEXT
  5
116
330
108
100
AcDbEntity
  8
TEXT
100
AcDbText
 10
8.418973055561847
 20
7.044547729948104
 30
0.0
 40
0.0325
  1
DESCRIPTION
  7
ADESK2
100
AcDbText
  0
TEXT
  5
117
330
108
100
AcDbEntity
  8
TEXT
100
AcDbText
 10
7.768023055561846
 20
7.044547729948104
 30
0.0
 40
0.0325
  1
REV
  7
ADESK2
100
AcDbText
  0
TEXT
  5
118
330
108
100
AcDbEntity
  8
TEXT
100
AcDbText
 10
8.833073055561845
 20
7.165647729948104
 30
0.0
 40
0.0325
  1
REVISIONS
  7
ADESK2
100
AcDbText
  0
LINE
  5
119
330
108
100
AcDbEntity
  8
TEXT
100
AcDbLine
 10
9.727973055561847
 20
6.999397729948103
 30
0.0
 11
9.727973055561847
 21
7.124397729948103
 31
0.0
  0
LINE
  5
11A
330
108
100
AcDbEntity
  8
TEXT
100
AcDbLine
 10
9.287973055561847
 20
6.999397729948103
 30
0.0
 11
9.287973055561847
 21
7.124397729948103
 31
0.0
  0
LINE
  5
11B
330
108
100
AcDbEntity
  8
TEXT
100
AcDbLine
 10
7.917973055561846
 20
6.999397729948103
 30
0.0
 11
7.917973055561846
 21
7.124397729948103
 31
0.0
  0
LINE
  5
11C
330
108
100
AcDbEntity
  8
TEXT
100
AcDbLine
 10
7.722846844446165
 20
7.279429703003084
 30
0.0
 11
7.722846844446165
 21
6.999397729948103
 31
0.0
  0
LINE
  5
11D
330
108
100
AcDbEntity
  8
TEXT
100
AcDbLine
 10
7.722846844446165
 20
6.999397729948103
 30
0.0
 11
10.25
 21
6.999397729948104
 31
0.0
  0
LINE
  5
11E
330
108
100
AcDbEntity
  8
TEXT
100
AcDbLine
 10
7.722846844446165
 20
7.124397729948103
 30
0.0
 11
10.25
 21
7.124397729948104
 31
0.0
  0
TEXT
  5
11F
330
108
100
AcDbEntity
  8
TEXT
100
AcDbText
 10
10.08978240186827
 20
0.3337004730513362
 30
0.0
 40
0.0325
  1
REV
  7
ADESK2
100
AcDbText
  0
TEXT
  5
120
330
108
100
AcDbEntity
  8
TEXT
100
AcDbText
 10
8.900032401868278
 20
0.3337004730513362
 30
0.0
 40
0.0325
  1
DWG NO.
  7
ADESK2
100
AcDbText
  0
TEXT
  5
121
330
108
100
AcDbEntity
  8
TEXT
100
AcDbText
 10
8.158482401868278
 20
0.3337004730513362
 30
0.0
 40
0.0325
  1
SIZE
  7
ADESK2
100
AcDbText
  0
TEXT
  5
122
330
108
100
AcDbEntity
  8
TEXT
100
AcDbText
 10
9.390932401868278
 20
0.1220004730513366
 30
0.0
 40
0.0325
  1
SHEET
  7
ADESK2
100
AcDbText
  0
TEXT
  5
123
330
108
100
AcDbEntity
  8
TEXT
100
AcDbText
 10
8.140682401868277
 20
0.1220004730513366
 30
0.0
 40
0.0325
  1
SCALE
  7
ADESK2
100
AcDbText
  0
LINE
  5
124
330
108
100
AcDbEntity
  8
TEXT
100
AcDbLine
 10
10.04953240186827
 20
0.200750473051337
 30
0.0
 11
10.04953240186827
 21
0.3907504730513365
 31
0.0
  0
LINE
  5
125
330
108
100
AcDbEntity
  8
TEXT
100
AcDbLine
 10
8.864532401868279
 20
0.200750473051337
 30
0.0
 11
8.864532401868279
 21
0.3907504730513365
 31
0.0
  0
LINE
  5
126
330
108
100
AcDbEntity
  8
TEXT
100
AcDbLine
 10
8.304532401868277
 20
0.200750473051337
 30
0.0
 11
8.304532401868277
 21
0.3907504730513365
 31
0.0
  0
LINE
  5
127
330
108
100
AcDbEntity
  8
TEXT
100
AcDbLine
 10
9.364532401868279
 20
0.0625
 30
0.0
 11
9.364532401868279
 21
0.200750473051337
 31
0.0
  0
LINE
  5
128
330
108
100
AcDbEntity
  8
TEXT
100
AcDbLine
 10
8.614532401868279
 20
0.0625
 30
0.0
 11
8.614532401868279
 21
0.200750473051337
 31
0.0
  0
LINE
  5
129
330
108
100
AcDbEntity
  8
BORDER
100
AcDbLine
 10
8.114532401868279
 20
0.0625
 30
0.0
 11
8.114532401868279
 21
0.9507504730513369
 31
0.0
  0
LINE
  5
12A
330
108
100
AcDbEntity
  8
BORDER
100
AcDbLine
 10
8.114532401868279
 20
0.700750473051337
 30
0.0
 11
10.25043121410005
 21
0.700750473051337
 31
0.0
  0
LINE
  5
12B
330
108
100
AcDbEntity
  8
TEXT
100
AcDbLine
 10
8.114532401868279
 20
0.200750473051337
 30
0.0
 11
10.25043121410005
 21
0.200750473051337
 31
0.0
  0
LINE
  5
12C
330
108
100
AcDbEntity
  8
TEXT
100
AcDbLine
 10
7.114532401868278
 20
0.3907504730513365
 30
0.0
 11
10.25043121410005
 21
0.3907504730513365
 31
0.0
  0
LINE
  5
12D
330
108
100
AcDbEntity
  8
TEXT
100
AcDbLine
 10
7.114532401868278
 20
0.2332504730513367
 30
0.0
 11
8.114532401868279
 21
0.2332504730513367
 31
0.0
  0
LINE
  5
12E
330
108
100
AcDbEntity
  8
BORDER
100
AcDbLine
 10
7.114532401868278
 20
0.9507504730513369
 30
0.0
 11
10.25043121410005
 21
0.9507504730513369
 31
0.0
  0
LINE
  5
12F
330
108
100
AcDbEntity
  8
BORDER
100
AcDbLine
 10
7.114532401868278
 20
0.0625
 30
0.0
 11
7.114532401868278
 21
1.162073490813602
 31
0.0
  0
TEXT
  5
130
330
108
100
AcDbEntity
  8
TEXT
100
AcDbText
 10
7.148687401868278
 20
0.4899819730513367
 30
0.0
 40
0.0325
  1
DRAWN
  7
ADESK2
100
AcDbText
  0
TEXT
  5
131
330
108
100
AcDbEntity
  8
BORDER
100
AcDbText
 10
7.203514652868109
 20
1.024613929072771
 30
0.0
 40
0.075
  1
UNIVERSITY OF CALIFORNIA @ SANTA BARBARA
100
AcDbText
  0
LINE
  5
132
330
108
100
AcDbEntity
  8
BORDER
100
AcDbLine
 10
7.114012285752607
 20
1.162073490813602
 30
0.0
 11
10.25043121410005
 21
1.162073490813602
 31
0.0
  0
LINE
  5
133
330
108
100
AcDbEntity
  8
BORDER
100
AcDbLine
 10
10.25
 20
0.0625
 30
0.0
 11
10.25
 21
7.3025
 31
0.0
  0
LINE
  5
134
330
108
100
AcDbEntity
  8
BORDER
100
AcDbLine
 10
0.25
 20
7.3025
 30
0.0
 11
0.25
 21
0.0625
 31
0.0
  0
LINE
  5
135
330
108
100
AcDbEntity
  8
BORDER
100
AcDbLine
 10
0.25
 20
0.0625
 30
0.0
 11
10.25
 21
0.0625
 31
0.0
  0
TEXT
  5
136
330
108
100
AcDbEntity
  8
BORDER
100
AcDbText
 10
8.183852051433854
 20
0.2259812000243528
 30
0.0
 40
0.075
  1
A
100
AcDbText
  0
TEXT
  5
137
330
108
100
AcDbEntity
  8
TEXT
100
AcDbText
 10
8.340068360089324
 20
0.3326771653542698
 30
0.0
 40
0.0375
  1
DIRECTORY
100
AcDbText
  0
LINE
  5
138
330
108
100
AcDbEntity
  8
BORDER
100
AcDbLine
 10
0.25
 20
7.3025
 30
0.0
 11
10.25
 21
7.3025
 31
0.0
  0
TEXT
  5
139
330
108
100
AcDbEntity
  8
BORDER
100
AcDbText
 10
8.458303959452241
 20
0.7877830678141449
 30
0.0
 40
0.075
  1
HIGH ENERGY PHYSICS
100
AcDbText
  0
TEXT
  5
13A
330
108
100
AcDbEntity
  8
TEXT
100
AcDbText
 10
7.229175259011135
 20
0.8925444730513369
 30
0.0
 40
0.0325
  1
UNLESS OTHERWISE SPECIFIED:
  7
ADESK2
 72
     1
 11
7.614532401868278
 21
0.8925444730513369
 31
0.0
100
AcDbText
  0
TEXT
  5
13B
330
108
100
AcDbEntity
  8
TEXT
100
AcDbText
 10
7.266318116153993
 20
0.8399254730513369
 30
0.0
 40
0.0325
  1
DIMENSIONS ARE IN INCHES
  7
ADESK2
 72
     1
 11
7.614532401868278
 21
0.8399254730513369
 31
0.0
100
AcDbText
  0
TEXT
  5
13C
330
108
100
AcDbEntity
  8
TEXT
100
AcDbText
 10
7.46518716377304
 20
0.787306473051337
 30
0.0
 40
0.0325
  1
TOLERANCES
  7
ADESK2
 72
     1
 11
7.614532401868278
 21
0.787306473051337
 31
0.0
100
AcDbText
  0
TEXT
  5
13D
330
108
100
AcDbEntity
  8
TEXT
100
AcDbText
 10
7.272011401868279
 20
0.733371473051337
 30
0.0
 40
0.0325
  1
DECIMALS
  7
ADESK2
100
AcDbText
  0
TEXT
  5
13E
330
108
100
AcDbEntity
  8
TEXT
100
AcDbText
 10
7.272011401868279
 20
0.680752473051337
 30
0.0
 40
0.0325
  1
.XX  %%P .05
  7
ADESK2
100
AcDbText
  0
TEXT
  5
13F
330
108
100
AcDbEntity
  8
TEXT
100
AcDbText
 10
7.272011401868279
 20
0.628133473051337
 30
0.0
 40
0.0325
  1
.XXX %%P .005
  7
ADESK2
100
AcDbText
  0
TEXT
  5
140
330
108
100
AcDbEntity
  8
TEXT
100
AcDbText
 10
7.307330020915897
 20
0.576871973051337
 30
0.0
 40
0.0325
  1
DO NOT SCALE DRAWING
  7
ADESK2
 72
     1
 11
7.614532401868278
 21
0.576871973051337
 31
0.0
100
AcDbText
  0
TEXT
  5
141
330
108
100
AcDbEntity
  8
TEXT
100
AcDbText
 10
7.703959901868278
 20
0.733371473051337
 30
0.0
 40
0.0325
  1
ANGULAR
  7
ADESK2
100
AcDbText
  0
TEXT
  5
142
330
108
100
AcDbEntity
  8
TEXT
100
AcDbText
 10
7.703959901868278
 20
0.680752473051337
 30
0.0
 40
0.0325
  1
  %%P 0.5%%D
  7
ADESK2
100
AcDbText
  0
LINE
  5
143
330
108
100
AcDbEntity
  8
TEXT
100
AcDbLine
 10
1.53125
 20
6.9275
 30
0.0
 11
0.25
 21
6.9275
 31
0.0
  0
LINE
  5
144
330
108
100
AcDbEntity
  8
TEXT
100
AcDbLine
 10
1.53125
 20
7.0525
 30
0.0
 11
1.53125
 21
6.9275
 31
0.0
  0
TEXT
  5
145
330
108
100
AcDbEntity
  8
TEXT
100
AcDbText
 10
0.34375
 20
6.959913795125819
 30
0.0
 40
0.05
  1
THIRD ANGLE PROJECTION
100
AcDbText
  0
LINE
  5
146
330
108
100
AcDbEntity
  8
TEXT
100
AcDbLine
 10
1.065631518781287
 20
7.26448044872969
 30
0.0
 11
1.065631518781287
 21
7.07698044872969
 31
0.0
  0
LINE
  5
147
330
108
100
AcDbEntity
  8
TEXT
100
AcDbLine
 10
0.8233106911879986
 20
7.12385544872969
 30
0.0
 11
0.8233106911879986
 21
7.21760544872969
 31
0.0
  0
LINE
  5
148
330
108
100
AcDbEntity
  8
TEXT
100
AcDbLine
 10
0.8233106911879986
 20
7.12385544872969
 30
0.0
 11
1.065631518781287
 21
7.07698044872969
 31
0.0
  0
LINE
  5
149
330
108
100
AcDbEntity
  8
TEXT
100
AcDbLine
 10
0.8233106911879986
 20
7.21760544872969
 30
0.0
 11
1.065631518781287
 21
7.26448044872969
 31
0.0
  0
LINE
  5
14A
330
108
100
AcDbEntity
  8
TEXT
  6
CENTER
100
AcDbLine
 10
0.5889356911879986
 20
7.056389515976311
 30
0.0
 11
0.5889356911879986
 21
7.290327922590398
 31
0.0
  0
LINE
  5
14B
330
108
100
AcDbEntity
  8
TEXT
  6
CENTER
100
AcDbLine
 10
0.4719755965241177
 20
7.17073044872969
 30
0.0
 11
1.198310691187998
 21
7.17073044872969
 31
0.0
  0
CIRCLE
  5
14C
330
108
100
AcDbEntity
  8
TEXT
100
AcDbCircle
 10
0.5889356911879986
 20
7.17073044872969
 30
0.0
 40
0.046875
  0
CIRCLE
  5
14D
330
108
100
AcDbEntity
  8
TEXT
100
AcDbCircle
 10
0.5889356911879986
 20
7.17073044872969
 30
0.0
 40
0.09375
  0
LINE
  5
14E
330
108
100
AcDbEntity
  8
TEXT
100
AcDbLine
 10
1.53125
 20
7.0525
 30
0.0
 11
1.53125
 21
7.3025
 31
0.0
  0
LINE
  5
14F
330
108
100
AcDbEntity
  8
TEXT
100
AcDbLine
 10
0.25
 20
7.0525
 30
0.0
 11
1.53125
 21
7.0525
 31
0.0
  0
ENDBLK
  5
151
330
108
100
AcDbEntity
  8
0
100
AcDbBlockEnd
  0
BLOCK
  5
166
330
159
100
AcDbEntity
  8
0
100
AcDbBlockBegin
  2
clamp
 70
     0
 10
0.0
 20
0.0
 30
0.0
  3
clamp
  1

  0
LINE
  5
15A
330
159
100
AcDbEntity
  8
clamp
100
AcDbLine
 10
6.8745
 20
3.116
 30
0.0
 11
6.874500000000001
 21
4.053000000000001
 31
0.0
  0
LINE
  5
15B
330
159
100
AcDbEntity
  8
clamp
100
AcDbLine
 10
6.250499999999999
 20
3.116
 30
0.0
 11
6.250499999999997
 21
4.053
 31
0.0
  0
LINE
  5
15C
330
159
100
AcDbEntity
  8
clamp
100
AcDbLine
 10
6.250499999999999
 20
3.116
 30
0.0
 11
6.8745
 21
3.116
 31
0.0
  0
ARC
  5
15D
330
159
100
AcDbEntity
  8
clamp
100
AcDbCircle
 10
6.6875
 20
3.272
 30
0.0
 40
0.0625
100
AcDbArc
 50
270.0
 51
90.0
  0
ARC
  5
15E
330
159
100
AcDbEntity
  8
clamp
100
AcDbCircle
 10
6.5625
 20
3.272
 30
0.0
 40
0.0625
100
AcDbArc
 50
90.0
 51
270.0
  0
LINE
  5
15F
330
159
100
AcDbEntity
  8
clamp
100
AcDbLine
 10
6.6875
 20
3.2095
 30
0.0
 11
6.5625
 21
3.2095
 31
0.0
  0
LINE
  5
160
330
159
100
AcDbEntity
  8
clamp
100
AcDbLine
 10
6.6875
 20
3.3345
 30
0.0
 11
6.5625
 21
3.3345
 31
0.0
  0
LINE
  5
161
330
159
100
AcDbEntity
  8
clamp
100
AcDbLine
 10
6.250499999999997
 20
4.053
 30
0.0
 11
6.8745
 21
4.053000000000001
 31
0.0
  0
ARC
  5
162
330
159
100
AcDbEntity
  8
clamp
100
AcDbCircle
 10
6.6875
 20
3.897
 30
0.0
 40
0.0625
100
AcDbArc
 50
270.0
 51
90.0
  0
LINE
  5
163
330
159
100
AcDbEntity
  8
clamp
100
AcDbLine
 10
6.6875
 20
3.9595
 30
0.0
 11
6.5625
 21
3.9595
 31
0.0
  0
LINE
  5
164
330
159
100
AcDbEntity
  8
clamp
100
AcDbLine
 10
6.5625
 20
3.8345
 30
0.0
 11
6.6875
 21
3.8345
 31
0.0
  0
ARC
  5
165
330
159
100
AcDbEntity
  8
clamp
100
AcDbCircle
 10
6.5625
 20
3.897
 30
0.0
 40
0.0625
100
AcDbArc
 50
90.0
 51
270.0
  0
ENDBLK
  5
167
330
159
100
AcDbEntity
  8
0
100
AcDbBlockEnd
  0
BLOCK
  5
19E
330
193
100
AcDbEntity
  8
0
100
AcDbBlockBegin
  2
*D3
 70
     1
 10
0.0
 20
0.0
 30
0.0
  3
*D3
  1

  0
LINE
  5
194
330
193
100
AcDbEntity
  8
DIM
 62
     0
370
    -2
100
AcDbLine
 10
4.187000019532156
 20
4.859175611397756
 30
0.0
 11
4.187000019532156
 21
5.136494412769318
 31
0.0
  0
LINE
  5
195
330
193
100
AcDbEntity
  8
DIM
 62
     0
370
    -2
100
AcDbLine
 10
4.499000019532158
 20
4.890075841876869
 30
0.0
 11
4.499000019532158
 21
5.136494412769318
 31
0.0
  0
LINE
  5
196
330
193
100
AcDbEntity
  8
DIM
 62
     0
370
    -2
100
AcDbLine
 10
4.097000019532156
 20
5.046494412769318
 30
0.0
 11
4.007000019532156
 21
5.046494412769318
 31
0.0
  0
LINE
  5
197
330
193
100
AcDbEntity
  8
DIM
 62
     0
370
    -2
100
AcDbLine
 10
4.589000019532158
 20
5.046494412769318
 30
0.0
 11
4.679000019532159
 21
5.046494412769318
 31
0.0
  0
SOLID
  5
198
330
193
100
AcDbEntity
  8
DIM
 62
     0
100
AcDbTrace
 10
4.097000019532156
 20
5.061494412769317
 30
0.0
 11
4.097000019532156
 21
5.031494412769318
 31
0.0
 12
4.187000019532156
 22
5.046494412769318
 32
0.0
 13
4.187000019532156
 23
5.046494412769318
 33
0.0
  0
SOLID
  5
199
330
193
100
AcDbEntity
  8
DIM
 62
     0
100
AcDbTrace
 10
4.589000019532158
 20
5.061494412769317
 30
0.0
 11
4.589000019532158
 21
5.031494412769318
 31
0.0
 12
4.499000019532158
 22
5.046494412769318
 32
0.0
 13
4.499000019532158
 23
5.046494412769318
 33
0.0
  0
MTEXT
  5
19A
330
193
100
AcDbEntity
  8
DIM
 62
     0
100
AcDbMText
 10
4.881500019532158
 20
5.046494412769318
 30
0.0
 40
0.09
 41
0.0
 71
     5
 72
     1
  1
\A1;0.312
 73
     1
 44
1.0
  0
POINT
  5
19B
330
193
100
AcDbEntity
  8
Defpoints
 62
     0
100
AcDbPoint
 10
4.187000019532156
 20
4.827925611397756
 30
0.0
  0
POINT
  5
19C
330
193
100
AcDbEntity
  8
Defpoints
 62
     0
100
AcDbPoint
 10
4.499000019532158
 20
4.858825841876869
 30
0.0
  0
POINT
  5
19D
330
193
100
AcDbEntity
  8
Defpoints
 62
     0
100
AcDbPoint
 10
4.499000019532158
 20
5.046494412769318
 30
0.0
  0
ENDBLK
  5
19F
330
193
100
AcDbEntity
  8
0
100
AcDbBlockEnd
  0
BLOCK
  5
1AC
330
1A1
100
AcDbEntity
  8
0
100
AcDbBlockBegin
  2
*D4
 70
     1
 10
0.0
 20
0.0
 30
0.0
  3
*D4
  1

  0
LINE
  5
1A2
330
1A1
100
AcDbEntity
  8
DIM
 62
     0
370
    -2
100
AcDbLine
 10
4.062000019532156
 20
4.859175611397756
 30
0.0
 11
4.062000019532156
 21
5.397023402264307
 31
0.0
  0
LINE
  5
1A3
330
1A1
100
AcDbEntity
  8
DIM
 62
     0
370
    -2
100
AcDbLine
 10
4.499000019532158
 20
4.859175611397756
 30
0.0
 11
4.499000019532158
 21
5.397023402264307
 31
0.0
  0
LINE
  5
1A4
330
1A1
100
AcDbEntity
  8
DIM
 62
     0
370
    -2
100
AcDbLine
 10
3.972000019532156
 20
5.307023402264308
 30
0.0
 11
3.882000019532156
 21
5.307023402264308
 31
0.0
  0
LINE
  5
1A5
330
1A1
100
AcDbEntity
  8
DIM
 62
     0
370
    -2
100
AcDbLine
 10
4.589000019532158
 20
5.307023402264308
 30
0.0
 11
4.679000019532158
 21
5.307023402264308
 31
0.0
  0
SOLID
  5
1A6
330
1A1
100
AcDbEntity
  8
DIM
 62
     0
100
AcDbTrace
 10
3.972000019532156
 20
5.322023402264307
 30
0.0
 11
3.972000019532156
 21
5.292023402264308
 31
0.0
 12
4.062000019532156
 22
5.307023402264308
 32
0.0
 13
4.062000019532156
 23
5.307023402264308
 33
0.0
  0
SOLID
  5
1A7
330
1A1
100
AcDbEntity
  8
DIM
 62
     0
100
AcDbTrace
 10
4.589000019532158
 20
5.322023402264307
 30
0.0
 11
4.589000019532158
 21
5.292023402264308
 31
0.0
 12
4.499000019532158
 22
5.307023402264308
 32
0.0
 13
4.499000019532158
 23
5.307023402264308
 33
0.0
  0
MTEXT
  5
1A8
330
1A1
100
AcDbEntity
  8
DIM
 62
     0
100
AcDbMText
 10
4.896500019532158
 20
5.307023402264308
 30
0.0
 40
0.09
 41
0.0
 71
     5
 72
     1
  1
\A1;0.437
 73
     1
 44
1.0
  0
POINT
  5
1A9
330
1A1
100
AcDbEntity
  8
Defpoints
 62
     0
100
AcDbPoint
 10
4.062000019532156
 20
4.827925611397756
 30
0.0
  0
POINT
  5
1AA
330
1A1
100
AcDbEntity
  8
Defpoints
 62
     0
100
AcDbPoint
 10
4.499000019532158
 20
4.827925611397756
 30
0.0
  0
POINT
  5
1AB
330
1A1
100
AcDbEntity
  8
Defpoints
 62
     0
100
AcDbPoint
 10
4.499000019532158
 20
5.307023402264308
 30
0.0
  0
ENDBLK
  5
1AD
330
1A1
100
AcDbEntity
  8
0
100
AcDbBlockEnd
  0
BLOCK
  5
1BA
330
1AF
100
AcDbEntity
  8
0
100
AcDbBlockBegin
  2
*D5
 70
     1
 10
0.0
 20
0.0
 30
0.0
  3
*D5
  1

  0
LINE
  5
1B0
330
1AF
100
AcDbEntity
  8
DIM
 62
     0
370
    -2
100
AcDbLine
 10
3.875000019532155
 20
4.890075841876869
 30
0.0
 11
3.875000019532155
 21
5.688202857144938
 31
0.0
  0
LINE
  5
1B1
330
1AF
100
AcDbEntity
  8
DIM
 62
     0
370
    -2
100
AcDbLine
 10
4.499000019532158
 20
4.890075841876869
 30
0.0
 11
4.499000019532158
 21
5.688202857144938
 31
0.0
  0
LINE
  5
1B2
330
1AF
100
AcDbEntity
  8
DIM
 62
     0
370
    -2
100
AcDbLine
 10
3.785000019532155
 20
5.598202857144938
 30
0.0
 11
3.695000019532155
 21
5.598202857144938
 31
0.0
  0
LINE
  5
1B3
330
1AF
100
AcDbEntity
  8
DIM
 62
     0
370
    -2
100
AcDbLine
 10
4.589000019532158
 20
5.598202857144938
 30
0.0
 11
4.679000019532158
 21
5.598202857144938
 31
0.0
  0
SOLID
  5
1B4
330
1AF
100
AcDbEntity
  8
DIM
 62
     0
100
AcDbTrace
 10
3.785000019532155
 20
5.613202857144938
 30
0.0
 11
3.785000019532155
 21
5.583202857144939
 31
0.0
 12
3.875000019532155
 22
5.598202857144938
 32
0.0
 13
3.875000019532155
 23
5.598202857144938
 33
0.0
  0
SOLID
  5
1B5
330
1AF
100
AcDbEntity
  8
DIM
 62
     0
100
AcDbTrace
 10
4.589000019532158
 20
5.613202857144938
 30
0.0
 11
4.589000019532158
 21
5.583202857144939
 31
0.0
 12
4.499000019532158
 22
5.598202857144938
 32
0.0
 13
4.499000019532158
 23
5.598202857144938
 33
0.0
  0
MTEXT
  5
1B6
330
1AF
100
AcDbEntity
  8
DIM
 62
     0
100
AcDbMText
 10
4.896500019532158
 20
5.598202857144938
 30
0.0
 40
0.09
 41
0.0
 71
     5
 72
     1
  1
\A1;0.624
 73
     1
 44
1.0
  0
POINT
  5
1B7
330
1AF
100
AcDbEntity
  8
Defpoints
 62
     0
100
AcDbPoint
 10
3.875000019532155
 20
4.858825841876869
 30
0.0
  0
POINT
  5
1B8
330
1AF
100
AcDbEntity
  8
Defpoints
 62
     0
100
AcDbPoint
 10
4.499000019532158
 20
4.858825841876869
 30
0.0
  0
POINT
  5
1B9
330
1AF
100
AcDbEntity
  8
Defpoints
 62
     0
100
AcDbPoint
 10
4.499000019532158
 20
5.598202857144938
 30
0.0
  0
ENDBLK
  5
1BB
330
1AF
100
AcDbEntity
  8
0
100
AcDbBlockEnd
  0
BLOCK
  5
1C9
330
1BD
100
AcDbEntity
  8
0
100
AcDbBlockBegin
  2
*D6
 70
     1
 10
0.0
 20
0.0
 30
0.0
  3
*D6
  1

  0
LINE
  5
1BE
330
1BD
100
AcDbEntity
  8
DIM
 62
     0
370
    -2
100
AcDbLine
 10
4.340378663239075
 20
4.702825841876869
 30
0.0
 11
5.317185937561696
 21
4.702825841876869
 31
0.0
  0
LINE
  5
1BF
330
1BD
100
AcDbEntity
  8
DIM
 62
     0
370
    -2
100
AcDbLine
 10
4.530250019532158
 20
4.858825841876869
 30
0.0
 11
5.317185937561696
 21
4.858825841876869
 31
0.0
  0
LINE
  5
1C0
330
1BD
100
AcDbEntity
  8
DIM
 62
     0
370
    -2
100
AcDbLine
 10
5.227185937561696
 20
4.612825841876869
 30
0.0
 11
5.227185937561696
 21
4.522825841876869
 31
0.0
  0
LINE
  5
1C1
330
1BD
100
AcDbEntity
  8
DIM
 62
     0
370
    -2
100
AcDbLine
 10
5.227185937561696
 20
4.948825841876868
 30
0.0
 11
5.227185937561696
 21
5.038825841876868
 31
0.0
  0
LINE
  5
1C2
330
1BD
100
AcDbEntity
  8
DIM
 62
     0
370
    -2
100
AcDbLine
 10
5.227185937561696
 20
5.038825841876868
 30
0.0
 11
5.317185937561696
 21
5.038825841876868
 31
0.0
  0
SOLID
  5
1C3
330
1BD
100
AcDbEntity
  8
DIM
 62
     0
100
AcDbTrace
 10
5.212185937561696
 20
4.612825841876869
 30
0.0
 11
5.242185937561695
 21
4.612825841876869
 31
0.0
 12
5.227185937561696
 22
4.702825841876869
 32
0.0
 13
5.227185937561696
 23
4.702825841876869
 33
0.0
  0
SOLID
  5
1C4
330
1BD
100
AcDbEntity
  8
DIM
 62
     0
100
AcDbTrace
 10
5.212185937561696
 20
4.948825841876868
 30
0.0
 11
5.242185937561695
 21
4.948825841876868
 31
0.0
 12
5.227185937561696
 22
4.858825841876869
 32
0.0
 13
5.227185937561696
 23
4.858825841876869
 33
0.0
  0
MTEXT
  5
1C5
330
1BD
100
AcDbEntity
  8
DIM
 62
     0
100
AcDbMText
 10
5.519685937561694
 20
5.038825841876869
 30
0.0
 40
0.09
 41
0.0
 71
     5
 72
     1
  1
\A1;0.156
 73
     1
 44
1.0
  0
POINT
  5
1C6
330
1BD
100
AcDbEntity
  8
Defpoints
 62
     0
100
AcDbPoint
 10
4.309128663239075
 20
4.702825841876869
 30
0.0
  0
POINT
  5
1C7
330
1BD
100
AcDbEntity
  8
Defpoints
 62
     0
100
AcDbPoint
 10
4.499000019532158
 20
4.858825841876869
 30
0.0
  0
POINT
  5
1C8
330
1BD
100
AcDbEntity
  8
Defpoints
 62
     0
100
AcDbPoint
 10
5.227185937561696
 20
4.858825841876869
 30
0.0
  0
ENDBLK
  5
1CA
330
1BD
100
AcDbEntity
  8
0
100
AcDbBlockEnd
  0
BLOCK
  5
1D7
330
1CC
100
AcDbEntity
  8
0
100
AcDbBlockBegin
  2
*D7
 70
     1
 10
0.0
 20
0.0
 30
0.0
  3
*D7
  1

  0
LINE
  5
1CD
330
1CC
100
AcDbEntity
  8
DIM
 62
     0
370
    -2
100
AcDbLine
 10
4.340378663239075
 20
4.077825841876869
 30
0.0
 11
5.90744722486059
 21
4.077825841876869
 31
0.0
  0
LINE
  5
1CE
330
1CC
100
AcDbEntity
  8
DIM
 62
     0
370
    -2
100
AcDbLine
 10
4.530250019532158
 20
4.858825841876869
 30
0.0
 11
5.90744722486059
 21
4.858825841876869
 31
0.0
  0
LINE
  5
1CF
330
1CC
100
AcDbEntity
  8
DIM
 62
     0
370
    -2
100
AcDbLine
 10
5.81744722486059
 20
4.167825841876869
 30
0.0
 11
5.81744722486059
 21
4.378325841876869
 31
0.0
  0
LINE
  5
1D0
330
1CC
100
AcDbEntity
  8
DIM
 62
     0
370
    -2
100
AcDbLine
 10
5.81744722486059
 20
4.768825841876869
 30
0.0
 11
5.81744722486059
 21
4.558325841876869
 31
0.0
  0
SOLID
  5
1D1
330
1CC
100
AcDbEntity
  8
DIM
 62
     0
100
AcDbTrace
 10
5.80244722486059
 20
4.167825841876869
 30
0.0
 11
5.832447224860589
 21
4.167825841876869
 31
0.0
 12
5.81744722486059
 22
4.077825841876869
 32
0.0
 13
5.81744722486059
 23
4.077825841876869
 33
0.0
  0
SOLID
  5
1D2
330
1CC
100
AcDbEntity
  8
DIM
 62
     0
100
AcDbTrace
 10
5.80244722486059
 20
4.768825841876869
 30
0.0
 11
5.832447224860589
 21
4.768825841876869
 31
0.0
 12
5.81744722486059
 22
4.858825841876869
 32
0.0
 13
5.81744722486059
 23
4.858825841876869
 33
0.0
  0
MTEXT
  5
1D3
330
1CC
100
AcDbEntity
  8
DIM
 62
     0
100
AcDbMText
 10
5.817447224860589
 20
4.46832584187687
 30
0.0
 40
0.09
 41
0.0
 71
     5
 72
     1
  1
\A1;0.781
 73
     1
 44
1.0
  0
POINT
  5
1D4
330
1CC
100
AcDbEntity
  8
Defpoints
 62
     0
100
AcDbPoint
 10
4.309128663239075
 20
4.077825841876869
 30
0.0
  0
POINT
  5
1D5
330
1CC
100
AcDbEntity
  8
Defpoints
 62
     0
100
AcDbPoint
 10
4.499000019532158
 20
4.858825841876869
 30
0.0
  0
POINT
  5
1D6
330
1CC
100
AcDbEntity
  8
Defpoints
 62
     0
100
AcDbPoint
 10
5.81744722486059
 20
4.858825841876869
 30
0.0
  0
ENDBLK
  5
1D8
330
1CC
100
AcDbEntity
  8
0
100
AcDbBlockEnd
  0
BLOCK
  5
1E5
330
1DA
100
AcDbEntity
  8
0
100
AcDbBlockBegin
  2
*D8
 70
     1
 10
0.0
 20
0.0
 30
0.0
  3
*D8
  1

  0
LINE
  5
1DB
330
1DA
100
AcDbEntity
  8
DIM
 62
     0
370
    -2
100
AcDbLine
 10
4.530250019532156
 20
3.921825841876868
 30
0.0
 11
6.359725369787042
 21
3.921825841876868
 31
0.0
  0
LINE
  5
1DC
330
1DA
100
AcDbEntity
  8
DIM
 62
     0
370
    -2
100
AcDbLine
 10
4.530250019532158
 20
4.858825841876869
 30
0.0
 11
6.359725369787042
 21
4.858825841876868
 31
0.0
  0
LINE
  5
1DD
330
1DA
100
AcDbEntity
  8
DIM
 62
     0
370
    -2
100
AcDbLine
 10
6.269725369787042
 20
4.011825841876867
 30
0.0
 11
6.269725369787042
 21
4.300325841876867
 31
0.0
  0
LINE
  5
1DE
330
1DA
100
AcDbEntity
  8
DIM
 62
     0
370
    -2
100
AcDbLine
 10
6.269725369787042
 20
4.768825841876868
 30
0.0
 11
6.269725369787042
 21
4.480325841876867
 31
0.0
  0
SOLID
  5
1DF
330
1DA
100
AcDbEntity
  8
DIM
 62
     0
100
AcDbTrace
 10
6.254725369787043
 20
4.011825841876867
 30
0.0
 11
6.284725369787042
 21
4.011825841876867
 31
0.0
 12
6.269725369787042
 22
3.921825841876868
 32
0.0
 13
6.269725369787042
 23
3.921825841876868
 33
0.0
  0
SOLID
  5
1E0
330
1DA
100
AcDbEntity
  8
DIM
 62
     0
100
AcDbTrace
 10
6.254725369787043
 20
4.768825841876868
 30
0.0
 11
6.284725369787042
 21
4.768825841876868
 31
0.0
 12
6.269725369787042
 22
4.858825841876868
 32
0.0
 13
6.269725369787042
 23
4.858825841876868
 33
0.0
  0
MTEXT
  5
1E1
330
1DA
100
AcDbEntity
  8
DIM
 62
     0
100
AcDbMText
 10
6.269725369787042
 20
4.390325841876869
 30
0.0
 40
0.09
 41
0.0
 71
     5
 72
     1
  1
\A1;0.937
 73
     1
 44
1.0
  0
POINT
  5
1E2
330
1DA
100
AcDbEntity
  8
Defpoints
 62
     0
100
AcDbPoint
 10
4.499000019532156
 20
3.921825841876868
 30
0.0
  0
POINT
  5
1E3
330
1DA
100
AcDbEntity
  8
Defpoints
 62
     0
100
AcDbPoint
 10
4.499000019532158
 20
4.858825841876869
 30
0.0
  0
POINT
  5
1E4
330
1DA
100
AcDbEntity
  8
Defpoints
 62
     0
100
AcDbPoint
 10
6.269725369787042
 20
4.858825841876868
 30
0.0
  0
ENDBLK
  5
1E6
330
1DA
100
AcDbEntity
  8
0
100
AcDbBlockEnd
  0
BLOCK
  5
1F4
330
1E8
100
AcDbEntity
  8
0
100
AcDbBlockBegin
  2
*D9
 70
     1
 10
0.0
 20
0.0
 30
0.0
  3
*D9
  1

  0
LINE
  5
1E9
330
1E8
100
AcDbEntity
  8
DIM
 62
     0
370
    -2
100
AcDbLine
 10
4.530250019532156
 20
2.342745783227501
 30
0.0
 11
4.85724206555572
 21
2.342745783227501
 31
0.0
  0
LINE
  5
1EA
330
1E8
100
AcDbEntity
  8
DIM
 62
     0
370
    -2
100
AcDbLine
 10
4.530250019532156
 20
2.467745783227501
 30
0.0
 11
4.85724206555572
 21
2.467745783227501
 31
0.0
  0
LINE
  5
1EB
330
1E8
100
AcDbEntity
  8
DIM
 62
     0
370
    -2
100
AcDbLine
 10
4.76724206555572
 20
2.252745783227501
 30
0.0
 11
4.76724206555572
 21
2.162745783227501
 31
0.0
  0
LINE
  5
1EC
330
1E8
100
AcDbEntity
  8
DIM
 62
     0
370
    -2
100
AcDbLine
 10
4.76724206555572
 20
2.557745783227501
 30
0.0
 11
4.76724206555572
 21
2.647745783227501
 31
0.0
  0
LINE
  5
1ED
330
1E8
100
AcDbEntity
  8
DIM
 62
     0
370
    -2
100
AcDbLine
 10
4.76724206555572
 20
2.647745783227501
 30
0.0
 11
4.85724206555572
 21
2.647745783227501
 31
0.0
  0
SOLID
  5
1EE
330
1E8
100
AcDbEntity
  8
DIM
 62
     0
100
AcDbTrace
 10
4.75224206555572
 20
2.252745783227501
 30
0.0
 11
4.78224206555572
 21
2.252745783227501
 31
0.0
 12
4.76724206555572
 22
2.342745783227501
 32
0.0
 13
4.76724206555572
 23
2.342745783227501
 33
0.0
  0
SOLID
  5
1EF
330
1E8
100
AcDbEntity
  8
DIM
 62
     0
100
AcDbTrace
 10
4.75224206555572
 20
2.557745783227501
 30
0.0
 11
4.78224206555572
 21
2.557745783227501
 31
0.0
 12
4.76724206555572
 22
2.467745783227501
 32
0.0
 13
4.76724206555572
 23
2.467745783227501
 33
0.0
  0
MTEXT
  5
1F0
330
1E8
100
AcDbEntity
  8
DIM
 62
     0
100
AcDbMText
 10
5.059742065555719
 20
2.647745783227501
 30
0.0
 40
0.09
 41
0.0
 71
     5
 72
     1
  1
\A1;0.125
 73
     1
 44
1.0
  0
POINT
  5
1F1
330
1E8
100
AcDbEntity
  8
Defpoints
 62
     0
100
AcDbPoint
 10
4.499000019532156
 20
2.342745783227501
 30
0.0
  0
POINT
  5
1F2
330
1E8
100
AcDbEntity
  8
Defpoints
 62
     0
100
AcDbPoint
 10
4.499000019532156
 20
2.467745783227501
 30
0.0
  0
POINT
  5
1F3
330
1E8
100
AcDbEntity
  8
Defpoints
 62
     0
100
AcDbPoint
 10
4.76724206555572
 20
2.467745783227501
 30
0.0
  0
ENDBLK
  5
1F5
330
1E8
100
AcDbEntity
  8
0
100
AcDbBlockEnd
  0
BLOCK
  5
203
330
1F7
100
AcDbEntity
  8
0
100
AcDbBlockBegin
  2
*D10
 70
     1
 10
0.0
 20
0.0
 30
0.0
  3
*D10
  1

  0
LINE
  5
1F8
330
1F7
100
AcDbEntity
  8
DIM
 62
     0
370
    -2
100
AcDbLine
 10
3.843750019532151
 20
2.374745783227501
 30
0.0
 11
3.581042516303192
 21
2.374745783227501
 31
0.0
  0
LINE
  5
1F9
330
1F7
100
AcDbEntity
  8
DIM
 62
     0
370
    -2
100
AcDbLine
 10
3.905750019532152
 20
2.342745783227501
 30
0.0
 11
3.581042516303192
 21
2.342745783227501
 31
0.0
  0
LINE
  5
1FA
330
1F7
100
AcDbEntity
  8
DIM
 62
     0
370
    -2
100
AcDbLine
 10
3.671042516303192
 20
2.464745783227501
 30
0.0
 11
3.671042516303192
 21
2.554745783227501
 31
0.0
  0
LINE
  5
1FB
330
1F7
100
AcDbEntity
  8
DIM
 62
     0
370
    -2
100
AcDbLine
 10
3.671042516303192
 20
2.252745783227501
 30
0.0
 11
3.671042516303192
 21
2.162745783227501
 31
0.0
  0
LINE
  5
1FC
330
1F7
100
AcDbEntity
  8
DIM
 62
     0
370
    -2
100
AcDbLine
 10
3.671042516303192
 20
2.162745783227501
 30
0.0
 11
3.581042516303192
 21
2.162745783227501
 31
0.0
  0
SOLID
  5
1FD
330
1F7
100
AcDbEntity
  8
DIM
 62
     0
100
AcDbTrace
 10
3.656042516303191
 20
2.464745783227501
 30
0.0
 11
3.686042516303192
 21
2.464745783227501
 31
0.0
 12
3.671042516303192
 22
2.374745783227501
 32
0.0
 13
3.671042516303192
 23
2.374745783227501
 33
0.0
  0
SOLID
  5
1FE
330
1F7
100
AcDbEntity
  8
DIM
 62
     0
100
AcDbTrace
 10
3.656042516303191
 20
2.252745783227501
 30
0.0
 11
3.686042516303192
 21
2.252745783227501
 31
0.0
 12
3.671042516303192
 22
2.342745783227501
 32
0.0
 13
3.671042516303192
 23
2.342745783227501
 33
0.0
  0
MTEXT
  5
1FF
330
1F7
100
AcDbEntity
  8
DIM
 62
     0
100
AcDbMText
 10
3.371042516303191
 20
2.162745783227502
 30
0.0
 40
0.09
 41
0.0
 71
     5
 72
     1
  1
\A1;0.032
 73
     1
 44
1.0
  0
POINT
  5
200
330
1F7
100
AcDbEntity
  8
Defpoints
 62
     0
100
AcDbPoint
 10
3.875000019532151
 20
2.374745783227501
 30
0.0
  0
POINT
  5
201
330
1F7
100
AcDbEntity
  8
Defpoints
 62
     0
100
AcDbPoint
 10
3.937000019532152
 20
2.342745783227501
 30
0.0
  0
POINT
  5
202
330
1F7
100
AcDbEntity
  8
Defpoints
 62
     0
100
AcDbPoint
 10
3.671042516303192
 20
2.342745783227501
 30
0.0
  0
ENDBLK
  5
204
330
1F7
100
AcDbEntity
  8
0
100
AcDbBlockEnd
  0
BLOCK
  5
211
330
206
100
AcDbEntity
  8
0
100
AcDbBlockBegin
  2
*D11
 70
     1
 10
0.0
 20
0.0
 30
0.0
  3
*D11
  1

  0
LINE
  5
207
330
206
100
AcDbEntity
  8
DIM
 62
     0
370
    -2
100
AcDbLine
 10
3.937000019532152
 20
2.311495783227501
 30
0.0
 11
3.937000019532152
 21
1.761183025428765
 31
0.0
  0
LINE
  5
208
330
206
100
AcDbEntity
  8
DIM
 62
     0
370
    -2
100
AcDbLine
 10
3.875000019532151
 20
2.343495783227501
 30
0.0
 11
3.875000019532151
 21
1.761183025428765
 31
0.0
  0
LINE
  5
209
330
206
100
AcDbEntity
  8
DIM
 62
     0
370
    -2
100
AcDbLine
 10
4.027000019532152
 20
1.851183025428765
 30
0.0
 11
4.117000019532151
 21
1.851183025428765
 31
0.0
  0
LINE
  5
20A
330
206
100
AcDbEntity
  8
DIM
 62
     0
370
    -2
100
AcDbLine
 10
3.785000019532151
 20
1.851183025428765
 30
0.0
 11
3.695000019532151
 21
1.851183025428765
 31
0.0
  0
SOLID
  5
20B
330
206
100
AcDbEntity
  8
DIM
 62
     0
100
AcDbTrace
 10
4.027000019532152
 20
1.866183025428765
 30
0.0
 11
4.027000019532152
 21
1.836183025428765
 31
0.0
 12
3.937000019532152
 22
1.851183025428765
 32
0.0
 13
3.937000019532152
 23
1.851183025428765
 33
0.0
  0
SOLID
  5
20C
330
206
100
AcDbEntity
  8
DIM
 62
     0
100
AcDbTrace
 10
3.785000019532151
 20
1.866183025428765
 30
0.0
 11
3.785000019532151
 21
1.836183025428765
 31
0.0
 12
3.875000019532151
 22
1.851183025428765
 32
0.0
 13
3.875000019532151
 23
1.851183025428765
 33
0.0
  0
MTEXT
  5
20D
330
206
100
AcDbEntity
  8
DIM
 62
     0
100
AcDbMText
 10
3.485000019532151
 20
1.851183025428765
 30
0.0
 40
0.09
 41
0.0
 71
     5
 72
     1
  1
\A1;0.062
 73
     1
 44
1.0
  0
POINT
  5
20E
330
206
100
AcDbEntity
  8
Defpoints
 62
     0
100
AcDbPoint
 10
3.937000019532152
 20
2.342745783227501
 30
0.0
  0
POINT
  5
20F
330
206
100
AcDbEntity
  8
Defpoints
 62
     0
100
AcDbPoint
 10
3.875000019532151
 20
2.374745783227501
 30
0.0
  0
POINT
  5
210
330
206
100
AcDbEntity
  8
Defpoints
 62
     0
100
AcDbPoint
 10
3.875000019532151
 20
1.851183025428765
 30
0.0
  0
ENDBLK
  5
212
330
206
100
AcDbEntity
  8
0
100
AcDbBlockEnd
  0
BLOCK
  5
21D
330
214
100
AcDbEntity
  8
0
100
AcDbBlockBegin
  2
*D12
 70
     1
 10
0.0
 20
0.0
 30
0.0
  3
*D12
  1

  0
LINE
  5
21F
330
214
100
AcDbEntity
  8
DIM
 62
     0
370
    -2
100
AcDbLine
 10
4.283822079588573
 20
3.960005051324303
 30
0.0
 11
4.713352513033003
 21
3.437318225560423
 31
0.0
  0
LINE
  5
220
330
214
100
AcDbEntity
  8
DIM
 62
     0
370
    -2
100
AcDbLine
 10
4.713352513033003
 20
3.437318225560423
 30
0.0
 11
4.803352513033003
 21
3.437318225560423
 31
0.0
  0
SOLID
  5
221
330
214
100
AcDbEntity
  8
DIM
 62
     0
100
AcDbTrace
 10
4.295411009806858
 20
3.969528532641327
 30
0.0
 11
4.272233149370289
 21
3.950481570007278
 31
0.0
 12
4.226681191686425
 22
4.029538632634014
 32
0.0
 13
4.226681191686425
 23
4.029538632634014
 33
0.0
  0
MTEXT
  5
222
330
214
100
AcDbEntity
  8
DIM
 62
     0
100
AcDbMText
 10
5.050852513033001
 20
3.437318225560422
 30
0.0
 40
0.09
 41
0.0
 71
     5
 72
     1
  1
\A1;\U+22050.125\P4X
 73
     1
 44
1.0
  0
LINE
  5
223
330
214
100
AcDbEntity
  8
DIM
 62
     0
370
    -2
100
AcDbLine
 10
4.142000019532155
 20
4.077825841876869
 30
0.0
 11
4.232000019532155
 21
4.077825841876869
 31
0.0
  0
LINE
  5
224
330
214
100
AcDbEntity
  8
DIM
 62
     0
370
    -2
100
AcDbLine
 10
4.187000019532155
 20
4.032825841876869
 30
0.0
 11
4.187000019532155
 21
4.122825841876869
 31
0.0
  0
POINT
  5
225
330
214
100
AcDbEntity
  8
Defpoints
 62
     0
100
AcDbPoint
 10
4.226681191686425
 20
4.029538632634014
 30
0.0
  0
POINT
  5
226
330
214
100
AcDbEntity
  8
Defpoints
 62
     0
100
AcDbPoint
 10
4.147318847377887
 20
4.126113051119722
 30
0.0
  0
ENDBLK
  5
21E
330
214
100
AcDbEntity
  8
0
100
AcDbBlockEnd
  0
ENDSEC
  0
SECTION
  2
ENTITIES
  0
INSERT
  5
152
330
1F
100
AcDbEntity
  8
0
100
AcDbBlockReference
 66
     1
  2
a-border
 10
0.0
 20
0.0
 30
0.0
  0
ATTRIB
  5
153
330
152
100
AcDbEntity
  8
TEXT
100
AcDbText
 10
9.166299999999999
 20
0.2313
 30
0.0
 40
0.06
  1
TEC-HY-PLATE-02
100
AcDbAttribute
  2
FILE
 70
     0
  0
ATTRIB
  5
154
330
152
100
AcDbEntity
  8
TEXT
100
AcDbText
 10
7.8768
 20
0.4075
 30
0.0
 40
0.03
  1
11-06-03
100
AcDbAttribute
  2
DATE
 70
     0
  0
ATTRIB
  5
155
330
152
100
AcDbEntity
  8
TEXT
100
AcDbText
 10
7.381999999999999
 20
0.4188
 30
0.0
 40
0.06
  1
S. KYRE
100
AcDbAttribute
  2
NAME
 70
     0
  0
ATTRIB
  5
156
330
152
100
AcDbEntity
  8
TEXT
100
AcDbText
 10
8.3488
 20
0.0891
 30
0.0
 40
0.06
  1
1=1
100
AcDbAttribute
  2
SCALE
 70
     0
  0
ATTRIB
  5
157
330
152
100
AcDbEntity
  8
TEXT
100
AcDbText
 10
8.3602
 20
0.2256
 30
0.0
 40
0.06
  1
TEC
100
AcDbAttribute
  2
DIRECTORY
 70
     0
  0
SEQEND
  5
158
330
152
100
AcDbEntity
  8
0
  0
LINE
  5
171
330
1F
100
AcDbEntity
  8
clamp-1
100
AcDbLine
 10
3.875000019532156
 20
3.921825841876868
 30
0.0
 11
3.875000019532155
 21
4.858825841876869
 31
0.0
  0
LINE
  5
172
330
1F
100
AcDbEntity
  8
clamp-1
100
AcDbLine
 10
4.499000019532156
 20
3.921825841876868
 30
0.0
 11
4.499000019532158
 21
4.858825841876869
 31
0.0
  0
LINE
  5
173
330
1F
100
AcDbEntity
  8
clamp-1
100
AcDbLine
 10
4.499000019532156
 20
3.921825841876869
 30
0.0
 11
3.875000019532156
 21
3.921825841876869
 31
0.0
  0
ARC
  5
174
330
1F
100
AcDbEntity
  8
clamp-1
100
AcDbCircle
 10
4.062000019532156
 20
4.077825841876869
 30
0.0
 40
0.0625
100
AcDbArc
 50
90.0
 51
270.0
  0
ARC
  5
175
330
1F
100
AcDbEntity
  8
clamp-1
100
AcDbCircle
 10
4.187000019532156
 20
4.077825841876869
 30
0.0
 40
0.0625
100
AcDbArc
 50
270.0
 51
90.0
  0
LINE
  5
176
330
1F
100
AcDbEntity
  8
clamp-1
100
AcDbLine
 10
4.062000019532156
 20
4.015325841876869
 30
0.0
 11
4.187000019532156
 21
4.015325841876869
 31
0.0
  0
LINE
  5
177
330
1F
100
AcDbEntity
  8
clamp-1
100
AcDbLine
 10
4.062000019532156
 20
4.140325841876869
 30
0.0
 11
4.187000019532156
 21
4.140325841876869
 31
0.0
  0
LINE
  5
178
330
1F
100
AcDbEntity
  8
clamp-1
100
AcDbLine
 10
4.499000019532158
 20
4.858825841876869
 30
0.0
 11
3.875000019532156
 21
4.858825841876869
 31
0.0
  0
ARC
  5
179
330
1F
100
AcDbEntity
  8
clamp-1
100
AcDbCircle
 10
4.062000019532156
 20
4.702825841876869
 30
0.0
 40
0.0625
100
AcDbArc
 50
90.0
 51
270.0
  0
LINE
  5
17A
330
1F
100
AcDbEntity
  8
clamp-1
100
AcDbLine
 10
4.062000019532156
 20
4.765325841876869
 30
0.0
 11
4.187000019532156
 21
4.765325841876869
 31
0.0
  0
LINE
  5
17B
330
1F
100
AcDbEntity
  8
clamp-1
100
AcDbLine
 10
4.187000019532156
 20
4.640325841876869
 30
0.0
 11
4.062000019532156
 21
4.640325841876869
 31
0.0
  0
ARC
  5
17C
330
1F
100
AcDbEntity
  8
clamp-1
100
AcDbCircle
 10
4.187000019532156
 20
4.702825841876869
 30
0.0
 40
0.0625
100
AcDbArc
 50
270.0
 51
90.0
  0
LINE
  5
17D
330
1F
100
AcDbEntity
  8
CENTER
100
AcDbLine
 10
4.062000019532156
 20
4.594452069504868
 30
0.0
 11
4.062000019532156
 21
4.827925611397756
 31
0.0
  0
LINE
  5
17E
330
1F
100
AcDbEntity
  8
CENTER
100
AcDbLine
 10
3.949268030393309
 20
4.702825841876869
 30
0.0
 11
4.309128663239075
 21
4.702825841876869
 31
0.0
  0
LINE
  5
17F
330
1F
100
AcDbEntity
  8
CENTER
100
AcDbLine
 10
4.187000019532156
 20
4.594452069504868
 30
0.0
 11
4.187000019532156
 21
4.827925611397756
 31
0.0
  0
LINE
  5
180
330
1F
100
AcDbEntity
  8
CENTER
100
AcDbLine
 10
3.949268030393309
 20
4.077825841876869
 30
0.0
 11
4.309128663239075
 21
4.077825841876869
 31
0.0
  0
LINE
  5
181
330
1F
100
AcDbEntity
  8
CENTER
100
AcDbLine
 10
4.062000019532156
 20
3.969452069504868
 30
0.0
 11
4.062000019532156
 21
4.202925611397756
 31
0.0
  0
LINE
  5
182
330
1F
100
AcDbEntity
  8
CENTER
100
AcDbLine
 10
4.187000019532156
 20
3.969452069504868
 30
0.0
 11
4.187000019532156
 21
4.202925611397756
 31
0.0
  0
LINE
  5
18D
330
1F
100
AcDbEntity
  8
clamp-1
100
AcDbLine
 10
3.937000019532145
 20
2.342745783227501
 30
0.0
 11
4.499000019532156
 21
2.342745783227501
 31
0.0
  0
LINE
  5
18E
330
1F
100
AcDbEntity
  8
clamp-1
100
AcDbLine
 10
3.875000019532151
 20
2.467745783227501
 30
0.0
 11
4.499000019532156
 21
2.467745783227501
 31
0.0
  0
LINE
  5
18F
330
1F
100
AcDbEntity
  8
clamp-1
100
AcDbLine
 10
3.875000019532154
 20
2.467745783227501
 30
0.0
 11
3.875000019532151
 21
2.374745783227499
 31
0.0
  0
LINE
  5
190
330
1F
100
AcDbEntity
  8
clamp-1
100
AcDbLine
 10
3.875000019532151
 20
2.374745783227501
 30
0.0
 11
3.937000019532152
 21
2.342745783227501
 31
0.0
  0
LINE
  5
191
330
1F
100
AcDbEntity
  8
clamp-1
100
AcDbLine
 10
4.499000019532156
 20
2.467745783227501
 30
0.0
 11
4.499000019532156
 21
2.342745783227501
 31
0.0
  0
DIMENSION
  5
192
330
1F
100
AcDbEntity
  8
DIM
100
AcDbDimension
  2
*D3
 10
4.499000019532158
 20
5.046494412769318
 30
0.0
 11
4.881500019532158
 21
5.046494412769318
 31
0.0
 70
    32
 71
     5
 42
0.312000000000002
  3
SU1
100
AcDbAlignedDimension
 13
4.187000019532156
 23
4.827925611397756
 33
0.0
 14
4.499000019532158
 24
4.858825841876869
 34
0.0
100
AcDbRotatedDimension
  0
DIMENSION
  5
1A0
330
1F
100
AcDbEntity
  8
DIM
100
AcDbDimension
  2
*D4
 10
4.499000019532158
 20
5.307023402264308
 30
0.0
 11
4.896500019532158
 21
5.307023402264308
 31
0.0
 70
    32
 71
     5
 42
0.4370000000000021
  3
SU1
100
AcDbAlignedDimension
 13
4.062000019532156
 23
4.827925611397756
 33
0.0
 14
4.499000019532158
 24
4.827925611397756
 34
0.0
100
AcDbRotatedDimension
  0
DIMENSION
  5
1AE
330
1F
100
AcDbEntity
  8
DIM
100
AcDbDimension
  2
*D5
 10
4.499000019532158
 20
5.598202857144938
 30
0.0
 11
4.896500019532158
 21
5.598202857144938
 31
0.0
 70
    32
 71
     5
 42
0.6240000000000033
  3
SU1
100
AcDbAlignedDimension
 13
3.875000019532155
 23
4.858825841876869
 33
0.0
 14
4.499000019532158
 24
4.858825841876869
 34
0.0
100
AcDbRotatedDimension
  0
DIMENSION
  5
1BC
330
1F
100
AcDbEntity
  8
DIM
100
AcDbDimension
  2
*D6
 10
5.227185937561696
 20
4.858825841876869
 30
0.0
 11
5.519685937561694
 21
5.038825841876869
 31
0.0
 70
    32
 71
     5
 42
0.1559999999999997
  3
SU1
100
AcDbAlignedDimension
 13
4.309128663239075
 23
4.702825841876869
 33
0.0
 14
4.499000019532158
 24
4.858825841876869
 34
0.0
 50
90.0
100
AcDbRotatedDimension
  0
DIMENSION
  5
1CB
330
1F
100
AcDbEntity
  8
DIM
100
AcDbDimension
  2
*D7
 10
5.81744722486059
 20
4.858825841876869
 30
0.0
 11
5.817447224860589
 21
4.46832584187687
 31
0.0
 70
    32
 71
     5
 42
0.7809999999999997
  3
SU1
100
AcDbAlignedDimension
 13
4.309128663239075
 23
4.077825841876869
 33
0.0
 14
4.499000019532158
 24
4.858825841876869
 34
0.0
 50
90.0
100
AcDbRotatedDimension
  0
DIMENSION
  5
1D9
330
1F
100
AcDbEntity
  8
DIM
100
AcDbDimension
  2
*D8
 10
6.269725369787042
 20
4.858825841876868
 30
0.0
 11
6.269725369787042
 21
4.390325841876869
 31
0.0
 70
    32
 71
     5
 42
0.9370000000000002
  3
SU1
100
AcDbAlignedDimension
 13
4.499000019532156
 23
3.921825841876868
 33
0.0
 14
4.499000019532158
 24
4.858825841876869
 34
0.0
 50
90.0
100
AcDbRotatedDimension
  0
DIMENSION
  5
1E7
330
1F
100
AcDbEntity
  8
DIM
100
AcDbDimension
  2
*D9
 10
4.76724206555572
 20
2.467745783227501
 30
0.0
 11
5.059742065555719
 21
2.647745783227501
 31
0.0
 70
    32
 71
     5
 42
0.125
  3
SU1
100
AcDbAlignedDimension
 13
4.499000019532156
 23
2.342745783227501
 33
0.0
 14
4.499000019532156
 24
2.467745783227501
 34
0.0
 50
90.0
100
AcDbRotatedDimension
  0
DIMENSION
  5
1F6
330
1F
100
AcDbEntity
  8
DIM
100
AcDbDimension
  2
*D10
 10
3.671042516303192
 20
2.342745783227501
 30
0.0
 11
3.371042516303191
 21
2.162745783227502
 31
0.0
 70
    32
 71
     5
 42
0.032
  3
SU1
100
AcDbAlignedDimension
 13
3.875000019532151
 23
2.374745783227501
 33
0.0
 14
3.937000019532152
 24
2.342745783227501
 34
0.0
 50
90.0
100
AcDbRotatedDimension
  0
DIMENSION
  5
205
330
1F
100
AcDbEntity
  8
DIM
100
AcDbDimension
  2
*D11
 10
3.875000019532151
 20
1.851183025428765
 30
0.0
 11
3.485000019532151
 21
1.851183025428765
 31
0.0
 70
    32
 71
     5
 42
0.0620000000000012
  3
SU1
100
AcDbAlignedDimension
 13
3.937000019532152
 23
2.342745783227501
 33
0.0
 14
3.875000019532151
 24
2.374745783227501
 34
0.0
100
AcDbRotatedDimension
  0
DIMENSION
  5
213
330
1F
100
AcDbEntity
  8
DIM
100
AcDbDimension
  2
*D12
 10
4.147318847377887
 20
4.126113051119722
 30
0.0
 11
5.050852513033001
 21
3.437318225560422
 31
0.0
 70
   163
  1
<>\P4X
 71
     5
 42
0.1249999999999987
  3
SU1$3
100
AcDbDiametricDimension
 15
4.226681191686425
 25
4.029538632634014
 35
0.0
 40
0.0
  0
MTEXT
  5
227
330
1F
100
AcDbEntity
  8
TEXT
100
AcDbMText
 10
9.182282401868279
 20
0.5481353101407491
 30
0.0
 40
0.06
 41
2.135499999999999
 71
     5
 72
     5
  1
CLAMP FOR HYBRID PLATE
 73
     1
 44
1.0
  0
MTEXT
  5
22E
330
1F
100
AcDbEntity
  8
TEXT
100
AcDbMText
 10
1.371743482544701
 20
1.23077670730932
 30
0.0
 40
0.2
 41
4.568299999999999
 71
     1
 72
     5
  1
MATERIAL: DELRIN
 73
     1
 44
1.0
  0
ENDSEC
  0
SECTION
  2
OBJECTS
  0
DICTIONARY
  5
C
330
0
100
AcDbDictionary
281
     1
  3
ACAD_GROUP
350
D
  3
ACAD_LAYOUT
350
1A
  3
ACAD_MLINESTYLE
350
17
  3
ACAD_PLOTSETTINGS
350
19
  3
ACAD_PLOTSTYLENAME
350
E
  3
AcadDim
350
EE
  0
DICTIONARY
  5
D
102
{ACAD_REACTORS
330
C
102
}
330
C
100
AcDbDictionary
281
     1
  0
DICTIONARY
  5
1A
102
{ACAD_REACTORS
330
C
102
}
330
C
100
AcDbDictionary
281
     1
  3
Layout1
350
1E
  3
Layout2
350
26
  3
Model
350
22
  0
DICTIONARY
  5
17
102
{ACAD_REACTORS
330
C
102
}
330
C
100
AcDbDictionary
281
     1
  3
Standard
350
18
  0
DICTIONARY
  5
19
102
{ACAD_REACTORS
330
C
102
}
330
C
100
AcDbDictionary
281
     1
  0
ACDBDICTIONARYWDFLT
  5
E
102
{ACAD_REACTORS
330
C
102
}
330
C
100
AcDbDictionary
281
     1
  3
Normal
350
F
100
AcDbDictionaryWithDefault
340
F
  0
XRECORD
  5
EE
102
{ACAD_REACTORS
330
C
102
}
330
C
100
AcDbXrecord
280
     1
 90
   990106
  3

 60
     0
 61
     0
 62
     2
 63
     2
 64
     0
 65
     0
 66
     0
 67
     3
 68
     1
 69
     0
 70
     0
 71
     0
 72
     0
 40
0.0
170
     2
340
0
  0
LAYOUT
  5
1E
102
{ACAD_REACTORS
330
1A
102
}
330
1A
100
AcDbPlotSettings
  1

  2

  4

  6

 40
0.0
 41
0.0
 42
0.0
 43
0.0
 44
0.0
 45
0.0
 46
0.0
 47
0.0
 48
0.0
 49
0.0
140
0.0
141
0.0
142
1.0
143
1.0
 70
   688
 72
     0
 73
     0
 74
     5
  7
style-1.ctb
 75
    16
147
1.0
148
0.0
149
0.0
100
AcDbLayout
  1
Layout1
 70
     1
 71
     1
 10
0.0
 20
0.0
 11
12.0
 21
9.0
 12
0.0
 22
0.0
 32
0.0
 14
1.000000000000000E+20
 24
1.000000000000000E+20
 34
1.000000000000000E+20
 15
-1.000000000000000E+20
 25
-1.000000000000000E+20
 35
-1.000000000000000E+20
146
0.0
 13
0.0
 23
0.0
 33
0.0
 16
1.0
 26
0.0
 36
0.0
 17
0.0
 27
1.0
 37
0.0
 76
     0
330
1B
  0
LAYOUT
  5
26
102
{ACAD_REACTORS
330
1A
102
}
330
1A
100
AcDbPlotSettings
  1

  2

  4

  6

 40
0.0
 41
0.0
 42
0.0
 43
0.0
 44
0.0
 45
0.0
 46
0.0
 47
0.0
 48
0.0
 49
0.0
140
0.0
141
0.0
142
1.0
143
1.0
 70
   688
 72
     0
 73
     0
 74
     5
  7
style-1.ctb
 75
    16
147
1.0
148
0.0
149
0.0
100
AcDbLayout
  1
Layout2
 70
     1
 71
     2
 10
0.0
 20
0.0
 11
12.0
 21
9.0
 12
0.0
 22
0.0
 32
0.0
 14
0.0
 24
0.0
 34
0.0
 15
0.0
 25
0.0
 35
0.0
146
0.0
 13
0.0
 23
0.0
 33
0.0
 16
1.0
 26
0.0
 36
0.0
 17
0.0
 27
1.0
 37
0.0
 76
     0
330
23
  0
LAYOUT
  5
22
102
{ACAD_REACTORS
330
1A
102
}
330
1A
100
AcDbPlotSettings
  1

  2
Acrobat Distiller
  4
Letter
  6

 40
3.174999952316284
 41
3.174999952316284
 42
3.175003051757812
 43
3.17498779296875
 44
215.8999938964843
 45
279.3999938964843
 46
5.841999999999999
 47
0.0
 48
0.0
 49
0.0
140
0.0
141
0.0
142
1.0
143
0.9303460907435555
 70
 11956
 72
     0
 73
     1
 74
     1
  7
style-1.ctb
 75
     0
147
1.074868814895299
148
-6.33914866626629
149
-1.580136642488809
100
AcDbLayout
  1
Model
 70
     1
 71
     0
 10
0.0
 20
0.0
 11
12.0
 21
9.0
 12
0.0
 22
0.0
 32
0.0
 14
0.0
 24
0.0
 34
0.0
 15
0.0
 25
0.0
 35
0.0
146
0.0
 13
0.0
 23
0.0
 33
0.0
 16
1.0
 26
0.0
 36
0.0
 17
0.0
 27
1.0
 37
0.0
 76
     0
330
1F
  0
MLINESTYLE
  5
18
102
{ACAD_REACTORS
330
17
102
}
330
17
100
AcDbMlineStyle
  2
STANDARD
 70
     0
  3

 62
   256
 51
90.0
 52
90.0
 71
     2
 49
0.5
 62
   256
  6
BYLAYER
 49
-0.5
 62
   256
  6
BYLAYER
  0
ACDBPLACEHOLDER
  5
F
102
{ACAD_REACTORS
330
E
102
}
330
E
  0
ENDSEC
  0
EOF
