  0
SECTION
  2
HEADER
  9
$ACADVER
  1
AC1015
  9
$ACADMAINTVER
 70
     6
  9
$DWGCODEPAGE
  3
ANSI_1252
  9
$INSBASE
 10
0.0
 20
0.0
 30
0.0
  9
$EXTMIN
 10
0.671218949685823
 20
0.1243286623204227
 30
-0.0000000000000053
  9
$EXTMAX
 10
31.17315681298864
 20
20.12585454006429
 30
0.0000000000000099
  9
$LIMMIN
 10
0.0
 20
0.0
  9
$LIMMAX
 10
33.0
 20
21.0
  9
$ORTHOMODE
 70
     1
  9
$REGENMODE
 70
     1
  9
$FILLMODE
 70
     1
  9
$QTEXTMODE
 70
     0
  9
$MIRRTEXT
 70
     1
  9
$LTSCALE
 40
0.125
  9
$ATTMODE
 70
     1
  9
$TEXTSIZE
 40
0.2
  9
$TRACEWID
 40
0.05
  9
$TEXTSTYLE
  7
Standard
  9
$CLAYER
  8
TEFLON
  9
$CELTYPE
  6
ByLayer
  9
$CECOLOR
 62
   256
  9
$CELTSCALE
 40
1.0
  9
$DISPSILH
 70
     0
  9
$DIMSCALE
 40
1.0
  9
$DIMASZ
 40
0.18
  9
$DIMEXO
 40
0.0625
  9
$DIMDLI
 40
0.38
  9
$DIMRND
 40
0.0
  9
$DIMDLE
 40
0.0
  9
$DIMEXE
 40
0.18
  9
$DIMTP
 40
0.001
  9
$DIMTM
 40
0.001
  9
$DIMTXT
 40
0.18
  9
$DIMCEN
 40
0.09
  9
$DIMTSZ
 40
0.0
  9
$DIMTOL
 70
     0
  9
$DIMLIM
 70
     0
  9
$DIMTIH
 70
     1
  9
$DIMTOH
 70
     1
  9
$DIMSE1
 70
     0
  9
$DIMSE2
 70
     0
  9
$DIMTAD
 70
     0
  9
$DIMZIN
 70
     0
  9
$DIMBLK
  1

  9
$DIMASO
 70
     1
  9
$DIMSHO
 70
     1
  9
$DIMPOST
  1

  9
$DIMAPOST
  1
mm
  9
$DIMALT
 70
     0
  9
$DIMALTD
 70
     2
  9
$DIMALTF
 40
25.4
  9
$DIMLFAC
 40
1.0
  9
$DIMTOFL
 70
     0
  9
$DIMTVP
 40
0.0
  9
$DIMTIX
 70
     0
  9
$DIMSOXD
 70
     0
  9
$DIMSAH
 70
     0
  9
$DIMBLK1
  1

  9
$DIMBLK2
  1

  9
$DIMSTYLE
  2
SU1
  9
$DIMCLRD
 70
     0
  9
$DIMCLRE
 70
     0
  9
$DIMCLRT
 70
     0
  9
$DIMTFAC
 40
1.0
  9
$DIMGAP
 40
0.09
  9
$DIMJUST
 70
     0
  9
$DIMSD1
 70
     0
  9
$DIMSD2
 70
     0
  9
$DIMTOLJ
 70
     1
  9
$DIMTZIN
 70
     0
  9
$DIMALTZ
 70
     0
  9
$DIMALTTZ
 70
     0
  9
$DIMUPT
 70
     0
  9
$DIMDEC
 70
     3
  9
$DIMTDEC
 70
     3
  9
$DIMALTU
 70
     2
  9
$DIMALTTD
 70
     2
  9
$DIMTXSTY
  7
Standard
  9
$DIMAUNIT
 70
     0
  9
$DIMADEC
 70
     0
  9
$DIMALTRND
 40
0.0
  9
$DIMAZIN
 70
     0
  9
$DIMDSEP
 70
    46
  9
$DIMATFIT
 70
     0
  9
$DIMFRAC
 70
     0
  9
$DIMLDRBLK
  1

  9
$DIMLUNIT
 70
     2
  9
$DIMLWD
 70
    -2
  9
$DIMLWE
 70
    -2
  9
$DIMTMOVE
 70
     0
  9
$LUNITS
 70
     2
  9
$LUPREC
 70
     4
  9
$SKETCHINC
 40
0.1
  9
$FILLETRAD
 40
0.5
  9
$AUNITS
 70
     0
  9
$AUPREC
 70
     0
  9
$MENU
  1
.
  9
$ELEVATION
 40
0.0
  9
$PELEVATION
 40
0.0
  9
$THICKNESS
 40
0.0
  9
$LIMCHECK
 70
     0
  9
$CHAMFERA
 40
0.5
  9
$CHAMFERB
 40
0.5
  9
$CHAMFERC
 40
1.0
  9
$CHAMFERD
 40
0.0
  9
$SKPOLY
 70
     0
  9
$TDCREATE
 40
2452832.354201562
  9
$TDUCREATE
 40
2452832.687534896
  9
$TDUPDATE
 40
2452951.375436736
  9
$TDUUPDATE
 40
2452951.708770069
  9
$TDINDWG
 40
0.3496245486
  9
$TDUSRTIMER
 40
0.3496245486
  9
$USRTIMER
 70
     1
  9
$ANGBASE
 50
0.0
  9
$ANGDIR
 70
     0
  9
$PDMODE
 70
     0
  9
$PDSIZE
 40
0.0
  9
$PLINEWID
 40
0.0
  9
$SPLFRAME
 70
     0
  9
$SPLINETYPE
 70
     6
  9
$SPLINESEGS
 70
     8
  9
$HANDSEED
  5
D35
  9
$SURFTAB1
 70
     6
  9
$SURFTAB2
 70
     6
  9
$SURFTYPE
 70
     6
  9
$SURFU
 70
     6
  9
$SURFV
 70
     6
  9
$UCSBASE
  2

  9
$UCSNAME
  2

  9
$UCSORG
 10
0.0
 20
0.0
 30
0.0
  9
$UCSXDIR
 10
1.0
 20
0.0
 30
0.0
  9
$UCSYDIR
 10
0.0
 20
1.0
 30
0.0
  9
$UCSORTHOREF
  2

  9
$UCSORTHOVIEW
 70
     0
  9
$UCSORGTOP
 10
0.0
 20
0.0
 30
0.0
  9
$UCSORGBOTTOM
 10
0.0
 20
0.0
 30
0.0
  9
$UCSORGLEFT
 10
0.0
 20
0.0
 30
0.0
  9
$UCSORGRIGHT
 10
0.0
 20
0.0
 30
0.0
  9
$UCSORGFRONT
 10
0.0
 20
0.0
 30
0.0
  9
$UCSORGBACK
 10
0.0
 20
0.0
 30
0.0
  9
$PUCSBASE
  2

  9
$PUCSNAME
  2

  9
$PUCSORG
 10
0.0
 20
0.0
 30
0.0
  9
$PUCSXDIR
 10
1.0
 20
0.0
 30
0.0
  9
$PUCSYDIR
 10
0.0
 20
1.0
 30
0.0
  9
$PUCSORTHOREF
  2

  9
$PUCSORTHOVIEW
 70
     0
  9
$PUCSORGTOP
 10
0.0
 20
0.0
 30
0.0
  9
$PUCSORGBOTTOM
 10
0.0
 20
0.0
 30
0.0
  9
$PUCSORGLEFT
 10
0.0
 20
0.0
 30
0.0
  9
$PUCSORGRIGHT
 10
0.0
 20
0.0
 30
0.0
  9
$PUCSORGFRONT
 10
0.0
 20
0.0
 30
0.0
  9
$PUCSORGBACK
 10
0.0
 20
0.0
 30
0.0
  9
$USERI1
 70
     0
  9
$USERI2
 70
     0
  9
$USERI3
 70
     0
  9
$USERI4
 70
     0
  9
$USERI5
 70
     0
  9
$USERR1
 40
0.0
  9
$USERR2
 40
0.0
  9
$USERR3
 40
0.0
  9
$USERR4
 40
0.0
  9
$USERR5
 40
0.0
  9
$WORLDVIEW
 70
     1
  9
$SHADEDGE
 70
     3
  9
$SHADEDIF
 70
    70
  9
$TILEMODE
 70
     1
  9
$MAXACTVP
 70
    64
  9
$PINSBASE
 10
0.0
 20
0.0
 30
0.0
  9
$PLIMCHECK
 70
     0
  9
$PEXTMIN
 10
1.000000000000000E+20
 20
1.000000000000000E+20
 30
1.000000000000000E+20
  9
$PEXTMAX
 10
-1.000000000000000E+20
 20
-1.000000000000000E+20
 30
-1.000000000000000E+20
  9
$PLIMMIN
 10
0.0
 20
0.0
  9
$PLIMMAX
 10
12.0
 20
9.0
  9
$UNITMODE
 70
     0
  9
$VISRETAIN
 70
     1
  9
$PLINEGEN
 70
     0
  9
$PSLTSCALE
 70
     1
  9
$TREEDEPTH
 70
  3020
  9
$CMLSTYLE
  2
Standard
  9
$CMLJUST
 70
     0
  9
$CMLSCALE
 40
1.0
  9
$PROXYGRAPHICS
 70
     1
  9
$MEASUREMENT
 70
     0
  9
$CELWEIGHT
370
    -1
  9
$ENDCAPS
280
     0
  9
$JOINSTYLE
280
     0
  9
$LWDISPLAY
290
     0
  9
$INSUNITS
 70
     1
  9
$HYPERLINKBASE
  1

  9
$STYLESHEET
  1
style-1.ctb
  9
$XEDIT
290
     1
  9
$CEPSNTYPE
380
     0
  9
$PSTYLEMODE
290
     1
  9
$FINGERPRINTGUID
  2
{FDEAD576-A652-11D2-9A35-0060089B3A3F}
  9
$VERSIONGUID
  2
{D489F262-4A5A-4CD7-890F-5649EFBF4042}
  9
$EXTNAMES
290
     1
  9
$PSVPSCALE
 40
0.0
  9
$OLESTARTUP
290
     0
  0
ENDSEC
  0
SECTION
  2
CLASSES
  0
CLASS
  1
ACDBDICTIONARYWDFLT
  2
AcDbDictionaryWithDefault
  3
AutoCAD 2000
 90
        0
280
     0
281
     0
  0
CLASS
  1
ACDBPLACEHOLDER
  2
AcDbPlaceHolder
  3
AutoCAD 2000
 90
        0
280
     0
281
     0
  0
CLASS
  1
LAYOUT
  2
AcDbLayout
  3
AutoCAD 2000
 90
        0
280
     0
281
     0
  0
ENDSEC
  0
SECTION
  2
TABLES
  0
TABLE
  2
VPORT
  5
8
330
0
100
AcDbSymbolTable
 70
     2
  0
VPORT
  5
D34
330
8
100
AcDbSymbolTableRecord
100
AcDbViewportTableRecord
  2
*Active
 70
     0
 10
0.0
 20
0.0
 11
1.0
 21
1.0
 12
15.92218788133723
 22
10.12509160119235
 13
0.0
 23
0.0
 14
0.125
 24
0.125
 15
1.0
 25
1.0
 16
0.0
 26
0.0
 36
1.0
 17
0.0
 27
0.0
 37
0.0
 40
20.12771847003247
 41
1.629473684210526
 42
50.0
 43
0.0
 44
0.0
 50
0.0
 51
0.0
 71
     0
 72
   100
 73
     1
 74
     3
 75
     0
 76
     1
 77
     0
 78
     0
281
     0
 65
     1
110
0.0
120
0.0
130
0.0
111
1.0
121
0.0
131
0.0
112
0.0
122
1.0
132
0.0
 79
     0
146
0.0
  0
ENDTAB
  0
TABLE
  2
LTYPE
  5
5
330
0
100
AcDbSymbolTable
 70
     3
  0
LTYPE
  5
14
330
5
100
AcDbSymbolTableRecord
100
AcDbLinetypeTableRecord
  2
ByBlock
 70
     0
  3

 72
    65
 73
     0
 40
0.0
  0
LTYPE
  5
15
330
5
100
AcDbSymbolTableRecord
100
AcDbLinetypeTableRecord
  2
ByLayer
 70
     0
  3

 72
    65
 73
     0
 40
0.0
  0
LTYPE
  5
16
330
5
100
AcDbSymbolTableRecord
100
AcDbLinetypeTableRecord
  2
Continuous
 70
     0
  3
Solid line
 72
    65
 73
     0
 40
0.0
  0
LTYPE
  5
48
330
5
100
AcDbSymbolTableRecord
100
AcDbLinetypeTableRecord
  2
CENTER
 70
     0
  3
____ _ ____ _ ____ _ ____ _ ____ _ ____ _ ____ 
 72
    65
 73
     4
 40
2.0
 49
1.25
 74
     0
 49
-0.25
 74
     0
 49
0.25
 74
     0
 49
-0.25
 74
     0
  0
LTYPE
  5
F9
330
5
100
AcDbSymbolTableRecord
100
AcDbLinetypeTableRecord
  2
HIDDEN
 70
     0
  3
Hidden __ __ __ __ __ __ __ __ __ __ __ __ __ _
 72
    65
 73
     2
 40
0.375
 49
0.25
 74
     0
 49
-0.125
 74
     0
  0
ENDTAB
  0
TABLE
  2
LAYER
  5
2
330
0
100
AcDbSymbolTable
 70
    12
  0
LAYER
  5
10
330
2
100
AcDbSymbolTableRecord
100
AcDbLayerTableRecord
  2
0
 70
     0
 62
     7
  6
Continuous
370
    -3
390
F
  0
LAYER
  5
49
330
2
100
AcDbSymbolTableRecord
100
AcDbLayerTableRecord
  2
TEXT
 70
     0
 62
     7
  6
Continuous
370
    -3
390
F
  0
LAYER
  5
4A
330
2
100
AcDbSymbolTableRecord
100
AcDbLayerTableRecord
  2
BORDER
 70
     0
 62
     8
  6
Continuous
370
    -3
390
F
  0
LAYER
  5
A1
330
2
100
AcDbSymbolTableRecord
100
AcDbLayerTableRecord
  2
Defpoints
 70
     0
 62
     7
  6
Continuous
290
     0
370
    -3
390
F
  0
LAYER
  5
D8
330
2
100
AcDbSymbolTableRecord
100
AcDbLayerTableRecord
  2
DIM
 70
     0
 62
     3
  6
Continuous
370
    -3
390
F
  0
LAYER
  5
D9
330
2
100
AcDbSymbolTableRecord
100
AcDbLayerTableRecord
  2
CENTER
 70
     0
 62
     1
  6
CENTER
370
    -3
390
F
  0
LAYER
  5
166
330
2
100
AcDbSymbolTableRecord
100
AcDbLayerTableRecord
  2
VAC-CUP
 70
     1
 62
     5
  6
Continuous
370
    -3
390
F
  0
LAYER
  5
167
330
2
100
AcDbSymbolTableRecord
100
AcDbLayerTableRecord
  2
downstop
 70
     1
 62
     2
  6
Continuous
370
    -3
390
F
  0
LAYER
  5
168
330
2
100
AcDbSymbolTableRecord
100
AcDbLayerTableRecord
  2
handle
 70
     0
 62
     7
  6
Continuous
370
    -3
390
F
  0
LAYER
  5
6F9
330
2
100
AcDbSymbolTableRecord
100
AcDbLayerTableRecord
  2
vacuum-cup
 70
     1
 62
     5
  6
Continuous
370
    -3
390
F
  0
LAYER
  5
6FA
330
2
100
AcDbSymbolTableRecord
100
AcDbLayerTableRecord
  2
POST
 70
     0
 62
     7
  6
Continuous
370
    -3
390
F
  0
LAYER
  5
C92
330
2
100
AcDbSymbolTableRecord
100
AcDbLayerTableRecord
  2
TEFLON
 70
     0
 62
     3
  6
Continuous
370
    -3
390
F
  0
ENDTAB
  0
TABLE
  2
STYLE
  5
3
330
0
100
AcDbSymbolTable
 70
     3
  0
STYLE
  5
11
330
3
100
AcDbSymbolTableRecord
100
AcDbTextStyleTableRecord
  2
Standard
 70
     0
 40
0.0
 41
1.0
 50
0.0
 71
     0
 42
0.2
  3
txt
  4

  0
STYLE
  5
4B
330
3
100
AcDbSymbolTableRecord
100
AcDbTextStyleTableRecord
  2
ADESK2
 70
     0
 40
0.0
 41
1.0
 50
0.0
 71
     0
 42
0.065
  3
romans
  4

  0
STYLE
  5
F8
330
3
100
AcDbSymbolTableRecord
100
AcDbTextStyleTableRecord
  2

 70
     1
 40
0.0
 41
1.0
 50
0.0
 71
     0
 42
0.2
  3
ltypeshp.shx
  4

  0
ENDTAB
  0
TABLE
  2
VIEW
  5
6
330
0
100
AcDbSymbolTable
 70
     0
  0
ENDTAB
  0
TABLE
  2
UCS
  5
7
330
0
100
AcDbSymbolTable
 70
     0
  0
ENDTAB
  0
TABLE
  2
APPID
  5
9
330
0
100
AcDbSymbolTable
 70
     1
  0
APPID
  5
12
330
9
100
AcDbSymbolTableRecord
100
AcDbRegAppTableRecord
  2
ACAD
 70
     0
  0
ENDTAB
  0
TABLE
  2
DIMSTYLE
  5
A
330
0
100
AcDbSymbolTable
 70
     4
100
AcDbDimStyleTable
 71
     4
340
4C
340
E0
340
DF
340
27
  0
DIMSTYLE
105
27
330
A
100
AcDbSymbolTableRecord
100
AcDbDimStyleTableRecord
  2
Standard
 70
     0
340
11
  0
DIMSTYLE
105
4C
102
{ACAD_REACTORS
330
CE5
102
}
330
A
100
AcDbSymbolTableRecord
100
AcDbDimStyleTableRecord
  2
SU1
 70
     0
  4
mm
 47
0.001
 48
0.001
271
     3
272
     3
289
     0
340
11
  0
DIMSTYLE
105
DF
330
A
100
AcDbSymbolTableRecord
100
AcDbDimStyleTableRecord
  2
SU1$4
 70
     0
  4
mm
 47
0.001
 48
0.001
271
     3
272
     3
288
     1
289
     0
340
11
  0
DIMSTYLE
105
E0
330
A
100
AcDbSymbolTableRecord
100
AcDbDimStyleTableRecord
  2
SU1$3
 70
     0
  4
mm
 47
0.001
 48
0.001
271
     3
272
     3
288
     1
289
     0
340
11
  0
ENDTAB
  0
TABLE
  2
BLOCK_RECORD
  5
1
330
0
100
AcDbSymbolTable
 70
     8
  0
BLOCK_RECORD
  5
1F
330
1
100
AcDbSymbolTableRecord
100
AcDbBlockTableRecord
  2
*Model_Space
340
22
  0
BLOCK_RECORD
  5
1B
330
1
100
AcDbSymbolTableRecord
100
AcDbBlockTableRecord
  2
*Paper_Space
340
1E
  0
BLOCK_RECORD
  5
23
330
1
100
AcDbSymbolTableRecord
100
AcDbBlockTableRecord
  2
*Paper_Space0
340
26
  0
BLOCK_RECORD
  5
108
330
1
100
AcDbSymbolTableRecord
100
AcDbBlockTableRecord
  2
d-border
340
0
102
{BLKREFS
331
156
102
}
  0
BLOCK_RECORD
  5
15E
330
1
100
AcDbSymbolTableRecord
100
AcDbBlockTableRecord
  2
vac-cup-top
340
0
310
2800000020000000200000000100080000000000000400000000000000000000000000000000000000000000000080000080000000808000800000008000800080800000C0C0C000C0DCC000F0CAA6000020400000206000002080000020A0000020C0000020E00000400000004020000040400000406000004080000040A0
310
000040C0000040E00000600000006020000060400000606000006080000060A0000060C0000060E00000800000008020000080400000806000008080000080A0000080C0000080E00000A0000000A0200000A0400000A0600000A0800000A0A00000A0C00000A0E00000C0000000C0200000C0400000C0600000C0800000C0
310
A00000C0C00000C0E00000E0000000E0200000E0400000E0600000E0800000E0A00000E0C00000E0E00040000000400020004000400040006000400080004000A0004000C0004000E00040200000402020004020400040206000402080004020A0004020C0004020E000404000004040200040404000404060004040800040
310
40A0004040C0004040E00040600000406020004060400040606000406080004060A0004060C0004060E00040800000408020004080400040806000408080004080A0004080C0004080E00040A0000040A0200040A0400040A0600040A0800040A0A00040A0C00040A0E00040C0000040C0200040C0400040C0600040C08000
310
40C0A00040C0C00040C0E00040E0000040E0200040E0400040E0600040E0800040E0A00040E0C00040E0E00080000000800020008000400080006000800080008000A0008000C0008000E00080200000802020008020400080206000802080008020A0008020C0008020E00080400000804020008040400080406000804080
310
008040A0008040C0008040E00080600000806020008060400080606000806080008060A0008060C0008060E00080800000808020008080400080806000808080008080A0008080C0008080E00080A0000080A0200080A0400080A0600080A0800080A0A00080A0C00080A0E00080C0000080C0200080C0400080C0600080C0
310
800080C0A00080C0C00080C0E00080E0000080E0200080E0400080E0600080E0800080E0A00080E0C00080E0E000C0000000C0002000C0004000C0006000C0008000C000A000C000C000C000E000C0200000C0202000C0204000C0206000C0208000C020A000C020C000C020E000C0400000C0402000C0404000C0406000C0
310
408000C040A000C040C000C040E000C0600000C0602000C0604000C0606000C0608000C060A000C060C000C060E000C0800000C0802000C0804000C0806000C0808000C080A000C080C000C080E000C0A00000C0A02000C0A04000C0A06000C0A08000C0A0A000C0A0C000C0A0E000C0C00000C0C02000C0C04000C0C06000
310
C0C08000C0C0A000F0FBFF00A4A0A000808080000000FF0000FF000000FFFF00FF000000FF00FF00FFFF0000FFFFFF0000000000000000000000000000000000000000000000000000000000000000000000000000000000000000000000000000000000000000000000000000000000000000000000000000000000000000
310
F900000000000000000000000000000000000000000000000000000000000000F900000000000000000000000000000000000000000000000000000000000000F900000000000000000000000000000000000000000000000000000000000000F900000000000000000000000000000000000000000000000000000000FCFC
310
FCFCFCFCFCFC00000000000000000000000000000000000000000000FCFC000000F900000000FCFC00000000000000000000000000000000000000FC0000000000F9000000000000FC0000000000000000000000000000000000FC00000000FCFCFCFCFCFC000000FC0000000000000000000000000000000000FC0000FCFC
310
0000F9000000FC000000FCFC0000000000000000000000000000FC0000FC000000FCFCFCFC0000FC000000FC0000000000000000000000000000FC0000FC00FCFC00F90000FC0000FC0000FC00000000000000000000000000FC000000FCFCFC0000F9000000FC00FC000000FC000000000000000000000000FC0000FC00FC
310
000000F9000000FC0000FC0000FC00000000000000F9F9F9F9F9FCF9F9FCF9FCF9F9F9F9F9F9F9F9FCF9FCF9F9FCF9F9F9F9F900000000000000FC0000FC00FC000000F900000000FC00FC0000FC000000000000000000000000FC0000FC00FC000000F9000000FC0000FC0000FC000000000000000000000000FC000000FC
310
00FC0000F90000FCFC00FC000000FC00000000000000000000000000FC0000FC00FCFCFCF900FCFC0000FC0000FC0000000000000000000000000000FC000000FC000000FCFC000000FC000000FC000000000000000000000000000000FC000000FCFC00F90000FCFC00000000FC00000000000000000000000000000000FC
310
00000000FCFCFCFC00000000FCFC0000000000000000000000000000000000FC0000000000F90000000000FC0000000000000000000000000000000000000000FC00000000F9000000FCFC00000000000000000000000000000000000000000000FCFCFCFCFCFCFCFC00000000000000000000000000000000000000000000
310
000000000000F900000000000000000000000000000000000000000000000000000000000000F900000000000000000000000000000000000000000000000000000000000000F900000000000000000000000000000000000000000000000000000000000000F9000000000000000000000000000000000000000000000000
310
0000000000000000000000000000000000000000000000000000000000000000000000000000000000000000000000000000000000000000
1001
ACAD
1000
DesignCenter Data
1002
{
1070
     1
1070
     1
1002
}
  0
BLOCK_RECORD
  5
1C3
330
1
100
AcDbSymbolTableRecord
100
AcDbBlockTableRecord
  2
10-32-THREAD
340
0
310
2800000020000000200000000100080000000000000400000000000000000000000000000000000000000000000080000080000000808000800000008000800080800000C0C0C000C0DCC000F0CAA6000020400000206000002080000020A0000020C0000020E00000400000004020000040400000406000004080000040A0
310
000040C0000040E00000600000006020000060400000606000006080000060A0000060C0000060E00000800000008020000080400000806000008080000080A0000080C0000080E00000A0000000A0200000A0400000A0600000A0800000A0A00000A0C00000A0E00000C0000000C0200000C0400000C0600000C0800000C0
310
A00000C0C00000C0E00000E0000000E0200000E0400000E0600000E0800000E0A00000E0C00000E0E00040000000400020004000400040006000400080004000A0004000C0004000E00040200000402020004020400040206000402080004020A0004020C0004020E000404000004040200040404000404060004040800040
310
40A0004040C0004040E00040600000406020004060400040606000406080004060A0004060C0004060E00040800000408020004080400040806000408080004080A0004080C0004080E00040A0000040A0200040A0400040A0600040A0800040A0A00040A0C00040A0E00040C0000040C0200040C0400040C0600040C08000
310
40C0A00040C0C00040C0E00040E0000040E0200040E0400040E0600040E0800040E0A00040E0C00040E0E00080000000800020008000400080006000800080008000A0008000C0008000E00080200000802020008020400080206000802080008020A0008020C0008020E00080400000804020008040400080406000804080
310
008040A0008040C0008040E00080600000806020008060400080606000806080008060A0008060C0008060E00080800000808020008080400080806000808080008080A0008080C0008080E00080A0000080A0200080A0400080A0600080A0800080A0A00080A0C00080A0E00080C0000080C0200080C0400080C0600080C0
310
800080C0A00080C0C00080C0E00080E0000080E0200080E0400080E0600080E0800080E0A00080E0C00080E0E000C0000000C0002000C0004000C0006000C0008000C000A000C000C000C000E000C0200000C0202000C0204000C0206000C0208000C020A000C020C000C020E000C0400000C0402000C0404000C0406000C0
310
408000C040A000C040C000C040E000C0600000C0602000C0604000C0606000C0608000C060A000C060C000C060E000C0800000C0802000C0804000C0806000C0808000C080A000C080C000C080E000C0A00000C0A02000C0A04000C0A06000C0A08000C0A0A000C0A0C000C0A0E000C0C00000C0C02000C0C04000C0C06000
310
C0C08000C0C0A000F0FBFF00A4A0A000808080000000FF0000FF000000FFFF00FF000000FF00FF00FFFF0000FFFFFF000000000000000000000000000000000000000000000000000000000000000000000000000000000000000000000000F900000000000000000000000000000000000000000000000000000000000000
310
F900000000000000000000000000000000000000000000000000000000000000F900000000000000000000000000000000000000000000000000000000000000F900000000000000000000000000000000000000000000000000000000000000F9000000000000000000000000000000000000000000000000000000000000
310
00F900000000000000000000000000000000000000000000000000000000000000F900000000000000000000000000000000000000000000000000000000000000F90000000000000000000000000000000000000000000000000000000000FFFFFFFFFFFF000000000000000000000000000000000000000000000000FFFF
310
FFFFFFFFFF00FF00000000000000000000000000000000000000000000FF00FF0000F90000FFFFFF0000000000000000000000000000000000000000FF00FF000000F9000000FF00FF00000000000000000000000000000000000000FFFF00000000F900000000FF00FF000000000000000000000000000000000000FFFF00
310
000000F900000000FF00FF0000000000000000000000000000000000FF00FF00000000F90000000000FFFF0000000000000000000000F9F9F9F9F9F9F9F9F9F9F9F9F9F9F9F9F9F9F9F9F9F9F9F9F9F9F9F90000000000000000000000FFFF00000000F90000000000FFFF000000000000000000000000000000000000FFFF
310
00000000F900000000FF00FF000000000000000000000000000000000000FF00FF000000F9000000FFFFFF0000000000000000000000000000000000000000FF00FF0000F9000000FFFF00000000000000000000000000000000000000000000FF00FFFFFFFFFFFFFF00000000000000000000000000000000000000000000
310
0000FFFFFFFFFFFFFF00000000000000000000000000000000000000000000000000000000F900000000000000000000000000000000000000000000000000000000000000F900000000000000000000000000000000000000000000000000000000000000F900000000000000000000000000000000000000000000000000
310
000000000000F900000000000000000000000000000000000000000000000000000000000000F900000000000000000000000000000000000000000000000000000000000000F900000000000000000000000000000000000000000000000000000000000000F9000000000000000000000000000000000000000000000000
310
00000000000000F9000000000000000000000000000000000000000000000000000000000000000000000000000000000000000000000000
102
{BLKREFS
331
85B
331
80A
331
848
331
810
331
817
331
823
331
826
331
CB5
331
CB4
331
CB3
331
CB6
102
}
1001
ACAD
1000
DesignCenter Data
1002
{
1070
     1
1070
     1
1002
}
  0
BLOCK_RECORD
  5
1D8
330
1
100
AcDbSymbolTableRecord
100
AcDbBlockTableRecord
  2
6-32-THREAD
340
0
310
2800000020000000200000000100080000000000000400000000000000000000000000000000000000000000000080000080000000808000800000008000800080800000C0C0C000C0DCC000F0CAA6000020400000206000002080000020A0000020C0000020E00000400000004020000040400000406000004080000040A0
310
000040C0000040E00000600000006020000060400000606000006080000060A0000060C0000060E00000800000008020000080400000806000008080000080A0000080C0000080E00000A0000000A0200000A0400000A0600000A0800000A0A00000A0C00000A0E00000C0000000C0200000C0400000C0600000C0800000C0
310
A00000C0C00000C0E00000E0000000E0200000E0400000E0600000E0800000E0A00000E0C00000E0E00040000000400020004000400040006000400080004000A0004000C0004000E00040200000402020004020400040206000402080004020A0004020C0004020E000404000004040200040404000404060004040800040
310
40A0004040C0004040E00040600000406020004060400040606000406080004060A0004060C0004060E00040800000408020004080400040806000408080004080A0004080C0004080E00040A0000040A0200040A0400040A0600040A0800040A0A00040A0C00040A0E00040C0000040C0200040C0400040C0600040C08000
310
40C0A00040C0C00040C0E00040E0000040E0200040E0400040E0600040E0800040E0A00040E0C00040E0E00080000000800020008000400080006000800080008000A0008000C0008000E00080200000802020008020400080206000802080008020A0008020C0008020E00080400000804020008040400080406000804080
310
008040A0008040C0008040E00080600000806020008060400080606000806080008060A0008060C0008060E00080800000808020008080400080806000808080008080A0008080C0008080E00080A0000080A0200080A0400080A0600080A0800080A0A00080A0C00080A0E00080C0000080C0200080C0400080C0600080C0
310
800080C0A00080C0C00080C0E00080E0000080E0200080E0400080E0600080E0800080E0A00080E0C00080E0E000C0000000C0002000C0004000C0006000C0008000C000A000C000C000C000E000C0200000C0202000C0204000C0206000C0208000C020A000C020C000C020E000C0400000C0402000C0404000C0406000C0
310
408000C040A000C040C000C040E000C0600000C0602000C0604000C0606000C0608000C060A000C060C000C060E000C0800000C0802000C0804000C0806000C0808000C080A000C080C000C080E000C0A00000C0A02000C0A04000C0A06000C0A08000C0A0A000C0A0C000C0A0E000C0C00000C0C02000C0C04000C0C06000
310
C0C08000C0C0A000F0FBFF00A4A0A000808080000000FF0000FF000000FFFF00FF000000FF00FF00FFFF0000FFFFFF00000000000000000000000000000000000000000000000000000000000000000000000000000000000000000000000000F9000000000000000000000000000000000000000000000000000000000000
310
00F900000000000000000000000000000000000000000000000000000000000000F900000000000000000000000000000000000000000000000000000000000000F900000000000000000000000000000000000000000000000000000000000000F90000000000000000000000000000000000000000000000000000000000
310
0000F900000000000000000000000000000000000000000000000000000000000000F90000000000000000000000000000000000000000000000000000000000FFFFF9FFFFFF000000000000000000000000000000000000000000000000FFFF0000F9000000FF00000000000000000000000000000000000000000000FF00
310
FFFFFFFFFFFF0000FF0000000000000000000000000000000000000000FF00FF000000F90000FFFF00FF000000000000000000000000000000000000FF0000FF000000F900000000FF00FF0000000000000000000000000000000000FF00FF00000000F900000000FF00FF0000000000000000000000000000000000FF00FF
310
00000000F900000000FF00FF00000000000000000000F9F9F9F9F9F9F9F9FFF9F9F9F9F9F9F9F9F9F9F9FFF9F9F9F9F9F9F90000000000000000000000FFFF0000000000F900000000FF00FF0000000000000000000000000000000000FF00FF00000000F900000000FF00FF0000000000000000000000000000000000FF00
310
FF00000000F900000000FF00FF0000000000000000000000000000000000FF0000FF000000F9000000FF00FF00000000000000000000000000000000000000FF0000FFFF00F900FFFF00FF000000000000000000000000000000000000000000FF000000FFFFFF0000FF000000000000000000000000000000000000000000
310
0000FFFFFF00F900FFFF000000000000000000000000000000000000000000000000000000FFF9FF000000000000000000000000000000000000000000000000000000000000F900000000000000000000000000000000000000000000000000000000000000F9000000000000000000000000000000000000000000000000
310
00000000000000F900000000000000000000000000000000000000000000000000000000000000F900000000000000000000000000000000000000000000000000000000000000F900000000000000000000000000000000000000000000000000000000000000F90000000000000000000000000000000000000000000000
310
0000000000000000F90000000000000000000000000000000000000000000000000000000000000000000000000000000000000000000000
102
{BLKREFS
331
1DF
331
1E1
102
}
1001
ACAD
1000
DesignCenter Data
1002
{
1070
     1
1070
     1
1002
}
  0
BLOCK_RECORD
  5
6F2
330
1
100
AcDbSymbolTableRecord
100
AcDbBlockTableRecord
  2
vac-cup-5-top
340
0
310
2800000020000000200000000100080000000000000400000000000000000000000000000000000000000000000080000080000000808000800000008000800080800000C0C0C000C0DCC000F0CAA6000020400000206000002080000020A0000020C0000020E00000400000004020000040400000406000004080000040A0
310
000040C0000040E00000600000006020000060400000606000006080000060A0000060C0000060E00000800000008020000080400000806000008080000080A0000080C0000080E00000A0000000A0200000A0400000A0600000A0800000A0A00000A0C00000A0E00000C0000000C0200000C0400000C0600000C0800000C0
310
A00000C0C00000C0E00000E0000000E0200000E0400000E0600000E0800000E0A00000E0C00000E0E00040000000400020004000400040006000400080004000A0004000C0004000E00040200000402020004020400040206000402080004020A0004020C0004020E000404000004040200040404000404060004040800040
310
40A0004040C0004040E00040600000406020004060400040606000406080004060A0004060C0004060E00040800000408020004080400040806000408080004080A0004080C0004080E00040A0000040A0200040A0400040A0600040A0800040A0A00040A0C00040A0E00040C0000040C0200040C0400040C0600040C08000
310
40C0A00040C0C00040C0E00040E0000040E0200040E0400040E0600040E0800040E0A00040E0C00040E0E00080000000800020008000400080006000800080008000A0008000C0008000E00080200000802020008020400080206000802080008020A0008020C0008020E00080400000804020008040400080406000804080
310
008040A0008040C0008040E00080600000806020008060400080606000806080008060A0008060C0008060E00080800000808020008080400080806000808080008080A0008080C0008080E00080A0000080A0200080A0400080A0600080A0800080A0A00080A0C00080A0E00080C0000080C0200080C0400080C0600080C0
310
800080C0A00080C0C00080C0E00080E0000080E0200080E0400080E0600080E0800080E0A00080E0C00080E0E000C0000000C0002000C0004000C0006000C0008000C000A000C000C000C000E000C0200000C0202000C0204000C0206000C0208000C020A000C020C000C020E000C0400000C0402000C0404000C0406000C0
310
408000C040A000C040C000C040E000C0600000C0602000C0604000C0606000C0608000C060A000C060C000C060E000C0800000C0802000C0804000C0806000C0808000C080A000C080C000C080E000C0A00000C0A02000C0A04000C0A06000C0A08000C0A0A000C0A0C000C0A0E000C0C00000C0C02000C0C04000C0C06000
310
C0C08000C0C0A000F0FBFF00A4A0A000808080000000FF0000FF000000FFFF00FF000000FF00FF00FFFF0000FFFFFF0000000000000000000000000000000000000000000000000000000000000000000000000000000000000000000000000000000000000000000000000000000000000000000000000000000000000000
310
F900000000000000000000000000000000000000000000000000000000000000F900000000000000000000000000000000000000000000000000000000000000F900000000000000000000000000000000000000000000000000000000000000F900000000000000000000000000000000000000000000000000000000FCFC
310
FCFCFCFCFC0000000000000000000000000000000000000000000000FCFC000000F9000000FCFCFC00000000000000000000000000000000000000FC000000FCFCFCFCFCFC000000FC0000000000000000000000000000000000FC0000FCFC0000F9000000FCFC00FC0000000000000000000000000000000000FC00FC0000
310
0000F90000000000FC00FC000000000000000000000000000000FC00FC0000000000F9000000000000FC00FC0000000000000000000000000000FCFC000000000000F9000000000000FC00FC00000000000000000000000000FC00FC000000000000F9000000000000FC0000FC000000000000000000000000FC00FC000000
310
000000F900000000000000FC00FC00000000000000F9F9F9F9F9F9F9FCF9F9F9F9F9F9F9F9F9F9F9F9F9F9FCF9F9F9F9F9F9F900000000000000FC00FC000000000000F900000000000000FC00FC000000000000000000000000FC00FC000000000000F900000000000000FC00FC000000000000000000000000FC00FC0000
310
00000000F9000000000000FC0000FC00000000000000000000000000FCFC000000000000F9000000000000FC00FC0000000000000000000000000000FC00FC0000000000F9000000000000FC00FC000000000000000000000000000000FC00FC00000000F90000000000FC00FC0000000000000000000000000000000000FC
310
00FC000000F90000FCFCFC00FC000000000000000000000000000000000000FC0000FCFCFCFCFCFC000000FC0000000000000000000000000000000000000000FC00000000F9000000FCFC00000000000000000000000000000000000000000000FCFCFCFCFCFCFCFC00000000000000000000000000000000000000000000
310
000000000000F900000000000000000000000000000000000000000000000000000000000000F900000000000000000000000000000000000000000000000000000000000000F900000000000000000000000000000000000000000000000000000000000000F9000000000000000000000000000000000000000000000000
310
0000000000000000000000000000000000000000000000000000000000000000000000000000000000000000000000000000000000000000
102
{BLKREFS
331
75B
331
75C
331
76D
331
76E
331
775
331
77D
331
789
331
790
331
79F
331
7AF
331
85C
331
80B
331
84F
331
831
331
816
331
81F
331
83F
331
849
331
811
331
822
102
}
1001
ACAD
1000
DesignCenter Data
1002
{
1070
     1
1070
     1
1002
}
  0
BLOCK_RECORD
  5
CD4
330
1
100
AcDbSymbolTableRecord
100
AcDbBlockTableRecord
  2
C-BORE-#6
340
0
1001
ACAD
1000
DesignCenter Data
1002
{
1070
     1
1070
     1
1002
}
  0
BLOCK_RECORD
  5
CE6
330
1
100
AcDbSymbolTableRecord
100
AcDbBlockTableRecord
  2
*D7
340
0
  0
ENDTAB
  0
ENDSEC
  0
SECTION
  2
BLOCKS
  0
BLOCK
  5
20
330
1F
100
AcDbEntity
  8
0
100
AcDbBlockBegin
  2
*Model_Space
 70
     0
 10
0.0
 20
0.0
 30
0.0
  3
*Model_Space
  1

  0
ENDBLK
  5
21
330
1F
100
AcDbEntity
  8
0
100
AcDbBlockEnd
  0
BLOCK
  5
1C
330
1B
100
AcDbEntity
 67
     1
  8
0
100
AcDbBlockBegin
  2
*Paper_Space
 70
     0
 10
0.0
 20
0.0
 30
0.0
  3
*Paper_Space
  1

  0
ENDBLK
  5
1D
330
1B
100
AcDbEntity
 67
     1
  8
0
100
AcDbBlockEnd
  0
BLOCK
  5
24
330
23
100
AcDbEntity
  8
0
100
AcDbBlockBegin
  2
*Paper_Space0
 70
     0
 10
0.0
 20
0.0
 30
0.0
  3
*Paper_Space0
  1

  0
ENDBLK
  5
25
330
23
100
AcDbEntity
  8
0
100
AcDbBlockEnd
  0
BLOCK
  5
150
330
108
100
AcDbEntity
  8
0
100
AcDbBlockBegin
  2
d-border
 70
     2
 10
0.0
 20
0.0
 30
0.0
  3
d-border
  1

  0
ATTDEF
  5
109
330
108
100
AcDbEntity
  8
TEXT
100
AcDbText
 10
26.4087
 20
0.8153
 30
0.0
 40
0.06
  1

100
AcDbAttributeDefinition
  3
Enter the Date
  2
DATE
 70
     0
  0
ATTDEF
  5
10A
330
108
100
AcDbEntity
  8
TEXT
100
AcDbText
 10
25.4066
 20
0.8516999999999999
 30
0.0
 40
0.12
  1
S. KYRE
100
AcDbAttributeDefinition
  3
Enter Your Name
  2
NAME
 70
     0
  0
ATTDEF
  5
10B
330
108
100
AcDbEntity
  8
TEXT
100
AcDbText
 10
27.3318
 20
0.1839
 30
0.0
 40
0.12
  1

100
AcDbAttributeDefinition
  3
Enter Drawing Scale
  2
SCALE
 70
     0
  0
ATTDEF
  5
10C
330
108
100
AcDbEntity
  8
TEXT
100
AcDbText
 10
28.97149999999999
 20
0.4692000000000001
 30
0.0
 40
0.12
  1

100
AcDbAttributeDefinition
  3
Enter File Name
  2
FILE
 70
     0
  0
ATTDEF
  5
10D
330
108
100
AcDbEntity
  8
TEXT
100
AcDbText
 10
27.3257
 20
0.4571
 30
0.0
 40
0.12
  1

100
AcDbAttributeDefinition
  3
Enter Drawing Directory
  2
DIRECTORY
 70
     0
  0
TEXT
  5
10E
330
108
100
AcDbEntity
  8
TEXT
100
AcDbText
 10
26.05617561769021
 20
1.361504946102674
 30
0.0
 40
0.065
  1
  %%P 0.5%%D
  7
ADESK2
100
AcDbText
  0
TEXT
  5
10F
330
108
100
AcDbEntity
  8
TEXT
100
AcDbText
 10
26.05617561769021
 20
1.466742946102673
 30
0.0
 40
0.065
  1
ANGULAR
  7
ADESK2
100
AcDbText
  0
TEXT
  5
110
330
108
100
AcDbEntity
  8
TEXT
100
AcDbText
 10
25.26291585578544
 20
1.153743946102673
 30
0.0
 40
0.065
  1
DO NOT SCALE DRAWING
  7
ADESK2
 72
     1
 11
25.8773206176902
 21
1.153743946102673
 31
0.0
100
AcDbText
  0
TEXT
  5
111
330
108
100
AcDbEntity
  8
TEXT
100
AcDbText
 10
25.19227861769021
 20
1.256266946102674
 30
0.0
 40
0.065
  1
.XXX %%P .005
  7
ADESK2
100
AcDbText
  0
TEXT
  5
112
330
108
100
AcDbEntity
  8
TEXT
100
AcDbText
 10
25.19227861769021
 20
1.361504946102674
 30
0.0
 40
0.065
  1
.XX  %%P .05
  7
ADESK2
100
AcDbText
  0
TEXT
  5
113
330
108
100
AcDbEntity
  8
TEXT
100
AcDbText
 10
25.19227861769021
 20
1.466742946102673
 30
0.0
 40
0.065
  1
DECIMALS
  7
ADESK2
100
AcDbText
  0
TEXT
  5
114
330
108
100
AcDbEntity
  8
TEXT
100
AcDbText
 10
25.57863014149973
 20
1.574612946102674
 30
0.0
 40
0.065
  1
TOLERANCES
  7
ADESK2
 72
     1
 11
25.8773206176902
 21
1.574612946102674
 31
0.0
100
AcDbText
  0
TEXT
  5
115
330
108
100
AcDbEntity
  8
TEXT
100
AcDbText
 10
25.18089204626163
 20
1.679850946102674
 30
0.0
 40
0.065
  1
DIMENSIONS ARE IN INCHES
  7
ADESK2
 72
     1
 11
25.8773206176902
 21
1.679850946102674
 31
0.0
100
AcDbText
  0
TEXT
  5
116
330
108
100
AcDbEntity
  8
TEXT
100
AcDbText
 10
25.10660633197592
 20
1.785088946102673
 30
0.0
 40
0.065
  1
UNLESS OTHERWISE SPECIFIED:
  7
ADESK2
 72
     1
 11
25.8773206176902
 21
1.785088946102673
 31
0.0
100
AcDbText
  0
TEXT
  5
117
330
108
100
AcDbEntity
  8
BORDER
100
AcDbText
 10
27.00116736861396
 20
0.4347781652093627
 30
0.0
 40
0.2
  1
D
100
AcDbText
  0
TEXT
  5
118
330
108
100
AcDbEntity
  8
BORDER
100
AcDbText
 10
27.56486373285813
 20
1.575566135628289
 30
0.0
 40
0.15
  1
HIGH ENERGY PHYSICS
100
AcDbText
  0
LINE
  5
119
330
108
100
AcDbEntity
  8
BORDER
100
AcDbLine
 10
0.6713999999999999
 20
20.1249954914957
 30
0.0
 11
31.17142006958448
 21
20.1249954914957
 31
0.0
  0
TEXT
  5
11A
330
108
100
AcDbEntity
  8
TEXT
100
AcDbText
 10
27.3283925341323
 20
0.6653543307085395
 30
0.0
 40
0.075
  1
DIRECTORY
100
AcDbText
  0
LINE
  5
11B
330
108
100
AcDbEntity
  8
BORDER
100
AcDbLine
 10
0.6713999999999999
 20
0.125
 30
0.0
 11
31.17142006958448
 21
0.125
 31
0.0
  0
LINE
  5
11C
330
108
100
AcDbEntity
  8
BORDER
100
AcDbLine
 10
0.6714000000000001
 20
20.12499549149571
 30
0.0
 11
0.6714000000000001
 21
0.125
 31
0.0
  0
LINE
  5
11D
330
108
100
AcDbEntity
  8
BORDER
100
AcDbLine
 10
31.17142006958448
 20
0.125
 30
0.0
 11
31.17142006958448
 21
20.1249954914957
 31
0.0
  0
LINE
  5
11E
330
108
100
AcDbEntity
  8
BORDER
100
AcDbLine
 10
24.87628038545887
 20
2.324146981627205
 30
0.0
 11
31.14911824215376
 21
2.324146981627205
 31
0.0
  0
TEXT
  5
11F
330
108
100
AcDbEntity
  8
BORDER
100
AcDbText
 10
25.05528511968987
 20
2.049227858145542
 30
0.0
 40
0.15
  1
UNIVERSITY OF CALIFORNIA @ SANTA BARBARA
100
AcDbText
  0
TEXT
  5
120
330
108
100
AcDbEntity
  8
TEXT
100
AcDbText
 10
24.94563061769021
 20
0.9799639461026732
 30
0.0
 40
0.065
  1
DRAWN
  7
ADESK2
100
AcDbText
  0
LINE
  5
121
330
108
100
AcDbEntity
  8
BORDER
100
AcDbLine
 10
24.87732061769021
 20
0.125
 30
0.0
 11
24.87732061769021
 21
2.324146981627205
 31
0.0
  0
LINE
  5
122
330
108
100
AcDbEntity
  8
BORDER
100
AcDbLine
 10
24.87732061769021
 20
1.901500946102673
 30
0.0
 11
31.14911824215376
 21
1.901500946102673
 31
0.0
  0
LINE
  5
123
330
108
100
AcDbEntity
  8
TEXT
100
AcDbLine
 10
24.87732061769021
 20
0.4665009461026735
 30
0.0
 11
26.87732061769021
 21
0.4665009461026735
 31
0.0
  0
LINE
  5
124
330
108
100
AcDbEntity
  8
TEXT
100
AcDbLine
 10
24.87732061769021
 20
0.781500946102673
 30
0.0
 11
31.14911824215376
 21
0.781500946102673
 31
0.0
  0
LINE
  5
125
330
108
100
AcDbEntity
  8
TEXT
100
AcDbLine
 10
26.87732061769021
 20
0.401500946102674
 30
0.0
 11
31.14911824215376
 21
0.401500946102674
 31
0.0
  0
LINE
  5
126
330
108
100
AcDbEntity
  8
BORDER
100
AcDbLine
 10
26.87732061769021
 20
1.401500946102673
 30
0.0
 11
31.14911824215376
 21
1.401500946102673
 31
0.0
  0
LINE
  5
127
330
108
100
AcDbEntity
  8
BORDER
100
AcDbLine
 10
26.87732061769021
 20
0.125
 30
0.0
 11
26.87732061769021
 21
1.901500946102673
 31
0.0
  0
LINE
  5
128
330
108
100
AcDbEntity
  8
TEXT
100
AcDbLine
 10
27.87732061769021
 20
0.125
 30
0.0
 11
27.87732061769021
 21
0.401500946102674
 31
0.0
  0
LINE
  5
129
330
108
100
AcDbEntity
  8
TEXT
100
AcDbLine
 10
29.37732061769021
 20
0.125
 30
0.0
 11
29.37732061769021
 21
0.401500946102674
 31
0.0
  0
LINE
  5
12A
330
108
100
AcDbEntity
  8
TEXT
100
AcDbLine
 10
27.2573206176902
 20
0.401500946102674
 30
0.0
 11
27.2573206176902
 21
0.781500946102673
 31
0.0
  0
LINE
  5
12B
330
108
100
AcDbEntity
  8
TEXT
100
AcDbLine
 10
28.37732061769021
 20
0.401500946102674
 30
0.0
 11
28.37732061769021
 21
0.781500946102673
 31
0.0
  0
LINE
  5
12C
330
108
100
AcDbEntity
  8
TEXT
100
AcDbLine
 10
30.74732061769021
 20
0.401500946102674
 30
0.0
 11
30.74732061769021
 21
0.781500946102673
 31
0.0
  0
TEXT
  5
12D
330
108
100
AcDbEntity
  8
TEXT
100
AcDbText
 10
26.92962061769021
 20
0.2440009461026733
 30
0.0
 40
0.065
  1
SCALE
  7
ADESK2
100
AcDbText
  0
TEXT
  5
12E
330
108
100
AcDbEntity
  8
TEXT
100
AcDbText
 10
29.43012061769021
 20
0.2440009461026733
 30
0.0
 40
0.065
  1
SHEET
  7
ADESK2
100
AcDbText
  0
TEXT
  5
12F
330
108
100
AcDbEntity
  8
TEXT
100
AcDbText
 10
26.96522061769021
 20
0.6674009461026725
 30
0.0
 40
0.065
  1
SIZE
  7
ADESK2
100
AcDbText
  0
TEXT
  5
130
330
108
100
AcDbEntity
  8
TEXT
100
AcDbText
 10
28.44832061769021
 20
0.6674009461026725
 30
0.0
 40
0.065
  1
DWG NO.
  7
ADESK2
100
AcDbText
  0
TEXT
  5
131
330
108
100
AcDbEntity
  8
TEXT
100
AcDbText
 10
30.8278206176902
 20
0.6674009461026725
 30
0.0
 40
0.065
  1
REV
  7
ADESK2
100
AcDbText
  0
LINE
  5
132
330
108
100
AcDbEntity
  8
TEXT
100
AcDbLine
 10
26.1080494845343
 20
19.80229554512702
 30
0.0
 11
31.16235579564198
 21
19.80229554512702
 31
0.0
  0
LINE
  5
133
330
108
100
AcDbEntity
  8
TEXT
100
AcDbLine
 10
26.1080494845343
 20
19.55229554512702
 30
0.0
 11
31.16235579564198
 21
19.55229554512702
 31
0.0
  0
LINE
  5
134
330
108
100
AcDbEntity
  8
TEXT
100
AcDbLine
 10
26.1080494845343
 20
20.11235949123699
 30
0.0
 11
26.1080494845343
 21
19.55229554512702
 31
0.0
  0
LINE
  5
135
330
108
100
AcDbEntity
  8
TEXT
100
AcDbLine
 10
26.49830190676567
 20
19.55229554512702
 30
0.0
 11
26.49830190676567
 21
19.80229554512702
 31
0.0
  0
LINE
  5
136
330
108
100
AcDbEntity
  8
TEXT
100
AcDbLine
 10
29.23830190676567
 20
19.55229554512702
 30
0.0
 11
29.23830190676567
 21
19.80229554512702
 31
0.0
  0
LINE
  5
137
330
108
100
AcDbEntity
  8
TEXT
100
AcDbLine
 10
30.11830190676567
 20
19.55229554512702
 30
0.0
 11
30.11830190676567
 21
19.80229554512702
 31
0.0
  0
TEXT
  5
138
330
108
100
AcDbEntity
  8
TEXT
100
AcDbText
 10
28.32850190676566
 20
19.88479554512703
 30
0.0
 40
0.065
  1
REVISIONS
  7
ADESK2
100
AcDbText
  0
TEXT
  5
139
330
108
100
AcDbEntity
  8
TEXT
100
AcDbText
 10
26.19840190676566
 20
19.64259554512702
 30
0.0
 40
0.065
  1
REV
  7
ADESK2
100
AcDbText
  0
TEXT
  5
13A
330
108
100
AcDbEntity
  8
TEXT
100
AcDbText
 10
27.50030190676567
 20
19.64259554512702
 30
0.0
 40
0.065
  1
DESCRIPTION
  7
ADESK2
100
AcDbText
  0
TEXT
  5
13B
330
108
100
AcDbEntity
  8
TEXT
100
AcDbText
 10
29.56600190676567
 20
19.64259554512702
 30
0.0
 40
0.065
  1
DATE
  7
ADESK2
100
AcDbText
  0
TEXT
  5
13C
330
108
100
AcDbEntity
  8
TEXT
100
AcDbText
 10
30.35970190676567
 20
19.64259554512702
 30
0.0
 40
0.065
  1
APPROVED
  7
ADESK2
100
AcDbText
  0
LINE
  5
13D
330
108
100
AcDbEntity
  8
TEXT
100
AcDbLine
 10
24.87732061769021
 20
1.091500946102673
 30
0.0
 11
26.87732061769021
 21
1.091500946102673
 31
0.0
  0
TEXT
  5
13E
330
108
100
AcDbEntity
  8
TEXT
100
AcDbText
 10
24.95732061769021
 20
0.6715009461026736
 30
0.0
 40
0.065
  1
CHECKED
  7
ADESK2
100
AcDbText
  0
TEXT
  5
13F
330
108
100
AcDbEntity
  8
TEXT
100
AcDbText
 10
24.95732061769021
 20
0.3565009461026722
 30
0.0
 40
0.065
  1
DESIGN
  7
ADESK2
100
AcDbText
  0
LINE
  5
140
330
108
100
AcDbEntity
  8
TEXT
100
AcDbLine
 10
26.37730461769021
 20
1.091500946102673
 30
0.0
 11
26.37730461769021
 21
0.125
 31
0.0
  0
TEXT
  5
141
330
108
100
AcDbEntity
  8
TEXT
100
AcDbText
 10
26.50072361769021
 20
0.9749509461026732
 30
0.0
 40
0.065
  1
DATE
  7
ADESK2
100
AcDbText
  0
TEXT
  5
142
330
108
100
AcDbEntity
  8
TEXT
100
AcDbText
 10
30.26029161769021
 20
0.2443769461026726
 30
0.0
 40
0.065
  1
OF
  7
ADESK2
100
AcDbText
  0
LINE
  5
143
330
108
100
AcDbEntity
  8
TEXT
100
AcDbLine
 10
3.2339
 20
19.3749954914957
 30
0.0
 11
0.6713999999999999
 21
19.3749954914957
 31
0.0
  0
LINE
  5
144
330
108
100
AcDbEntity
  8
TEXT
100
AcDbLine
 10
3.2339
 20
19.6249954914957
 30
0.0
 11
3.2339
 21
19.3749954914957
 31
0.0
  0
TEXT
  5
145
330
108
100
AcDbEntity
  8
TEXT
100
AcDbText
 10
0.8589
 20
19.43982308174734
 30
0.0
 40
0.1
  1
THIRD ANGLE PROJECTION
100
AcDbText
  0
LINE
  5
146
330
108
100
AcDbEntity
  8
TEXT
100
AcDbLine
 10
2.302663037562576
 20
20.04895638895508
 30
0.0
 11
2.302663037562576
 21
19.67395638895508
 31
0.0
  0
LINE
  5
147
330
108
100
AcDbEntity
  8
TEXT
100
AcDbLine
 10
1.818021382375997
 20
19.76770638895508
 30
0.0
 11
1.818021382375997
 21
19.95520638895508
 31
0.0
  0
LINE
  5
148
330
108
100
AcDbEntity
  8
TEXT
100
AcDbLine
 10
1.818021382375997
 20
19.76770638895508
 30
0.0
 11
2.302663037562576
 21
19.67395638895508
 31
0.0
  0
LINE
  5
149
330
108
100
AcDbEntity
  8
TEXT
100
AcDbLine
 10
1.818021382375997
 20
19.95520638895508
 30
0.0
 11
2.302663037562576
 21
20.04895638895508
 31
0.0
  0
LINE
  5
14A
330
108
100
AcDbEntity
  8
TEXT
  6
CENTER
100
AcDbLine
 10
1.349271382375997
 20
19.63277452344833
 30
0.0
 11
1.349271382375997
 21
20.1006513366765
 31
0.0
  0
LINE
  5
14B
330
108
100
AcDbEntity
  8
TEXT
  6
CENTER
100
AcDbLine
 10
1.115351193048235
 20
19.86145638895508
 30
0.0
 11
2.568021382375997
 21
19.86145638895508
 31
0.0
  0
CIRCLE
  5
14C
330
108
100
AcDbEntity
  8
TEXT
100
AcDbCircle
 10
1.349271382375997
 20
19.86145638895508
 30
0.0
 40
0.09375
  0
CIRCLE
  5
14D
330
108
100
AcDbEntity
  8
TEXT
100
AcDbCircle
 10
1.349271382375997
 20
19.86145638895508
 30
0.0
 40
0.1875
  0
LINE
  5
14E
330
108
100
AcDbEntity
  8
TEXT
100
AcDbLine
 10
3.2339
 20
19.6249954914957
 30
0.0
 11
3.2339
 21
20.1249954914957
 31
0.0
  0
LINE
  5
14F
330
108
100
AcDbEntity
  8
TEXT
100
AcDbLine
 10
0.6713999999999999
 20
19.6249954914957
 30
0.0
 11
3.2339
 21
19.6249954914957
 31
0.0
  0
ENDBLK
  5
151
330
108
100
AcDbEntity
  8
0
100
AcDbBlockEnd
  0
BLOCK
  5
164
330
15E
100
AcDbEntity
  8
0
100
AcDbBlockBegin
  2
vac-cup-top
 70
     0
 10
0.0
 20
0.0
 30
0.0
  3
vac-cup-top
  1

  0
LINE
  5
15F
330
15E
100
AcDbEntity
  8
CENTER
100
AcDbLine
 10
-0.3187493907822443
 20
0.0
 30
0.0
 11
0.328347549114099
 21
0.0
 31
0.0
  0
LINE
  5
160
330
15E
100
AcDbEntity
  8
CENTER
100
AcDbLine
 10
0.0
 20
0.3141158026301838
 30
0.0
 11
0.0
 21
-0.3079345452594282
 31
0.0
  0
CIRCLE
  5
161
330
15E
100
AcDbEntity
  8
VAC-CUP
100
AcDbCircle
 10
0.0
 20
0.0
 30
0.0
 40
0.225
  0
CIRCLE
  5
162
330
15E
100
AcDbEntity
  8
VAC-CUP
100
AcDbCircle
 10
0.0
 20
0.0
 30
0.0
 40
0.1487704126543718
  0
CIRCLE
  5
163
330
15E
100
AcDbEntity
  8
VAC-CUP
100
AcDbCircle
 10
0.0
 20
0.0
 30
0.0
 40
0.1
  0
ENDBLK
  5
165
330
15E
100
AcDbEntity
  8
0
100
AcDbBlockEnd
  0
BLOCK
  5
1C4
330
1C3
100
AcDbEntity
  8
0
100
AcDbBlockBegin
  2
10-32-THREAD
 70
     0
 10
0.0
 20
0.0
 30
0.0
  3
10-32-THREAD
  1

  0
LINE
  5
1C6
330
1C3
100
AcDbEntity
  8
CENTER
100
AcDbLine
 10
0.0
 20
-0.1975376167524771
 30
0.0
 11
0.0
 21
0.1944296551450009
 31
0.0
  0
CIRCLE
  5
1C7
330
1C3
100
AcDbEntity
  8
handle
  6
HIDDEN
100
AcDbCircle
 10
0.0
 20
0.0
 30
0.0
 40
0.095
  0
CIRCLE
  5
1C8
330
1C3
100
AcDbEntity
  8
handle
100
AcDbCircle
 10
0.0
 20
0.0
 30
0.0
 40
0.078
  0
LINE
  5
1C9
330
1C3
100
AcDbEntity
  8
CENTER
100
AcDbLine
 10
-0.1836830594637462
 20
0.0
 30
0.0
 11
0.1899617356404803
 21
0.0
 31
0.0
  0
ENDBLK
  5
1C5
330
1C3
100
AcDbEntity
  8
0
100
AcDbBlockEnd
  0
BLOCK
  5
1D9
330
1D8
100
AcDbEntity
  8
0
100
AcDbBlockBegin
  2
6-32-THREAD
 70
     0
 10
0.0
 20
0.0
 30
0.0
  3
6-32-THREAD
  1

  0
CIRCLE
  5
1DB
330
1D8
100
AcDbEntity
  8
0
  6
HIDDEN
100
AcDbCircle
 10
0.0
 20
0.0
 30
0.0
 40
0.069
  0
LINE
  5
1DC
330
1D8
100
AcDbEntity
  8
CENTER
100
AcDbLine
 10
0.0
 20
-0.1279832183029228
 30
0.0
 11
0.0
 21
0.1336872602465959
 31
0.0
  0
LINE
  5
1DD
330
1D8
100
AcDbEntity
  8
CENTER
100
AcDbLine
 10
-0.1318975397983451
 20
0.0
 30
0.0
 11
0.1232160353974194
 21
0.0
 31
0.0
  0
CIRCLE
  5
1DE
330
1D8
100
AcDbEntity
  8
0
100
AcDbCircle
 10
0.0
 20
0.0
 30
0.0
 40
0.052
  0
ENDBLK
  5
1DA
330
1D8
100
AcDbEntity
  8
0
100
AcDbBlockEnd
  0
BLOCK
  5
6F7
330
6F2
100
AcDbEntity
  8
0
100
AcDbBlockBegin
  2
vac-cup-5-top
 70
     0
 10
0.0
 20
0.0
 30
0.0
  3
vac-cup-5-top
  1

  0
LINE
  5
6F3
330
6F2
100
AcDbEntity
  8
CENTER
100
AcDbLine
 10
0.0
 20
0.201433835685016
 30
0.0
 11
0.0
 21
-0.1984048135880769
 31
0.0
  0
CIRCLE
  5
6F4
330
6F2
100
AcDbEntity
  8
VAC-CUP
100
AcDbCircle
 10
0.0
 20
0.0
 30
0.0
 40
0.1400000000000001
  0
LINE
  5
6F5
330
6F2
100
AcDbEntity
  8
CENTER
100
AcDbLine
 10
0.2058332463933392
 20
0.0
 30
0.0
 11
-0.1986213601059181
 21
0.0
 31
0.0
  0
CIRCLE
  5
6F6
330
6F2
100
AcDbEntity
  8
VAC-CUP
100
AcDbCircle
 10
0.0
 20
0.0
 30
0.0
 40
0.1099999999999999
  0
ENDBLK
  5
6F8
330
6F2
100
AcDbEntity
  8
0
100
AcDbBlockEnd
  0
BLOCK
  5
CD9
330
CD4
100
AcDbEntity
  8
0
100
AcDbBlockBegin
  2
C-BORE-#6
 70
     0
 10
0.0
 20
0.0
 30
0.0
  3
C-BORE-#6
  1

  0
LINE
  5
CD5
330
CD4
100
AcDbEntity
  8
CENTER
100
AcDbLine
 10
0.0
 20
-0.1988463639077764
 30
0.0
 11
0.0
 21
0.1910488070998077
 31
0.0
  0
CIRCLE
  5
CD6
330
CD4
100
AcDbEntity
  8
0
100
AcDbCircle
 10
0.0
 20
0.0
 30
0.0
 40
0.085
  0
CIRCLE
  5
CD7
330
CD4
100
AcDbEntity
  8
0
100
AcDbCircle
 10
0.0
 20
0.0
 30
0.0
 40
0.14065
  0
LINE
  5
CD8
330
CD4
100
AcDbEntity
  8
CENTER
100
AcDbLine
 10
-0.2055373679844124
 20
0.0
 30
0.0
 11
0.1955703475548418
 21
0.0
 31
0.0
  0
ENDBLK
  5
CDA
330
CD4
100
AcDbEntity
  8
0
100
AcDbBlockEnd
  0
BLOCK
  5
CF2
330
CE6
100
AcDbEntity
  8
0
100
AcDbBlockBegin
  2
*D7
 70
     1
 10
0.0
 20
0.0
 30
0.0
  3
*D7
  1

  0
LINE
  5
CFF
330
CE6
100
AcDbEntity
  8
DIM
 62
     0
370
    -2
100
AcDbLine
 10
19.06249998600661
 20
7.590979981256097
 30
0.0
 11
19.77233661929558
 21
7.590979981256097
 31
0.0
  0
LINE
  5
D00
330
CE6
100
AcDbEntity
  8
DIM
 62
     0
370
    -2
100
AcDbLine
 10
18.5515664622445
 20
8.110055668656109
 30
0.0
 11
19.77233661929558
 21
8.110055668656109
 31
0.0
  0
LINE
  5
D01
330
CE6
100
AcDbEntity
  8
DIM
 62
     0
370
    -2
100
AcDbLine
 10
19.59233661929557
 20
7.410979981256097
 30
0.0
 11
19.59233661929557
 21
7.230979981256097
 31
0.0
  0
LINE
  5
D02
330
CE6
100
AcDbEntity
  8
DIM
 62
     0
370
    -2
100
AcDbLine
 10
19.59233661929558
 20
8.290055668656108
 30
0.0
 11
19.59233661929558
 21
8.470055668656108
 31
0.0
  0
LINE
  5
D03
330
CE6
100
AcDbEntity
  8
DIM
 62
     0
370
    -2
100
AcDbLine
 10
19.59233661929558
 20
8.470055668656108
 30
0.0
 11
19.77233661929558
 21
8.470055668656108
 31
0.0
  0
SOLID
  5
D04
330
CE6
100
AcDbEntity
  8
DIM
 62
     0
100
AcDbTrace
 10
19.56233661929557
 20
7.410979981256097
 30
0.0
 11
19.62233661929558
 21
7.410979981256097
 31
0.0
 12
19.59233661929557
 22
7.590979981256097
 32
0.0
 13
19.59233661929557
 23
7.590979981256097
 33
0.0
  0
SOLID
  5
D05
330
CE6
100
AcDbEntity
  8
DIM
 62
     0
100
AcDbTrace
 10
19.56233661929558
 20
8.290055668656108
 30
0.0
 11
19.62233661929558
 21
8.290055668656108
 31
0.0
 12
19.59233661929558
 22
8.110055668656109
 32
0.0
 13
19.59233661929558
 23
8.110055668656109
 33
0.0
  0
MTEXT
  5
D06
330
CE6
100
AcDbEntity
  8
DIM
 62
     0
100
AcDbMText
 10
20.58233661929558
 20
8.47005566865611
 30
0.0
 40
0.18
 41
0.0
 71
     5
 72
     1
  1
\A1;0.519±0.001
 73
     1
 44
1.0
  0
POINT
  5
D07
330
CE6
100
AcDbEntity
  8
Defpoints
 62
     0
100
AcDbPoint
 10
18.99999998600661
 20
7.590979981256097
 30
0.0
  0
POINT
  5
D08
330
CE6
100
AcDbEntity
  8
Defpoints
 62
     0
100
AcDbPoint
 10
18.4890664622445
 20
8.110055668656109
 30
0.0
  0
POINT
  5
D09
330
CE6
100
AcDbEntity
  8
Defpoints
 62
     0
100
AcDbPoint
 10
19.59233661929558
 20
8.110055668656109
 30
0.0
  0
ENDBLK
  5
CF3
330
CE6
100
AcDbEntity
  8
0
100
AcDbBlockEnd
  0
ENDSEC
  0
SECTION
  2
ENTITIES
  0
INSERT
  5
156
330
1F
100
AcDbEntity
  8
0
100
AcDbBlockReference
 66
     1
  2
d-border
 10
0.0
 20
0.0
 30
0.0
  0
ATTRIB
  5
157
330
156
100
AcDbEntity
  8
TEXT
100
AcDbText
 10
26.4087
 20
0.8153
 30
0.0
 40
0.06
  1
07-24-03
100
AcDbAttribute
  2
DATE
 70
     0
  0
ATTRIB
  5
158
330
156
100
AcDbEntity
  8
TEXT
100
AcDbText
 10
25.4066
 20
0.8516999999999999
 30
0.0
 40
0.12
  1
S. KYRE
100
AcDbAttribute
  2
NAME
 70
     0
  0
ATTRIB
  5
159
330
156
100
AcDbEntity
  8
TEXT
100
AcDbText
 10
27.3318
 20
0.1839
 30
0.0
 40
0.12
  1
1=1
100
AcDbAttribute
  2
SCALE
 70
     0
  0
ATTRIB
  5
15A
330
156
100
AcDbEntity
  8
TEXT
100
AcDbText
 10
28.97149999999999
 20
0.4692000000000001
 30
0.0
 40
0.12
  1
mod-pick-rp-18
100
AcDbAttribute
  2
FILE
 70
     0
  0
ATTRIB
  5
15B
330
156
100
AcDbEntity
  8
TEXT
100
AcDbText
 10
27.3257
 20
0.4571
 30
0.0
 40
0.12
  1
ROD
100
AcDbAttribute
  2
DIRECTORY
 70
     0
  0
SEQEND
  5
15C
330
156
100
AcDbEntity
  8
0
  0
LWPOLYLINE
  5
1BE
330
1F
100
AcDbEntity
  8
handle
100
AcDbPolyline
 90
        4
 70
     1
 43
0.0
 10
9.499999986006613
 20
7.090979981256097
 10
18.99999998600661
 20
7.090979981256097
 10
18.99999998600661
 20
7.590979981256097
 10
9.499999986006613
 20
7.590979981256097
  0
INSERT
  5
1DF
330
1F
100
AcDbEntity
  8
0
100
AcDbBlockReference
  2
6-32-THREAD
 10
10.99999998600661
 20
7.340979981256097
 30
0.0
  0
INSERT
  5
1E1
330
1F
100
AcDbEntity
  8
0
100
AcDbBlockReference
  2
6-32-THREAD
 10
18.24999998600661
 20
7.340979981256097
 30
0.0
  0
MTEXT
  5
26B
330
1F
100
AcDbEntity
  8
TEXT
100
AcDbMText
 10
29.01322061769021
 20
1.091500946102673
 30
0.0
 40
0.12
 41
4.271799999999999
 71
     5
 72
     5
  1
BASE PLATE ASSEMBLY MACHINING FOR R-PHI MODULE FRONT SIDE
 73
     1
 44
1.0
  0
INSERT
  5
75B
330
1F
100
AcDbEntity
  8
vacuum-cup
100
AcDbBlockReference
  2
vac-cup-5-top
 10
14.73901964224449
 20
8.249921259999998
 30
0.0
  0
INSERT
  5
75C
330
1F
100
AcDbEntity
  8
vacuum-cup
100
AcDbBlockReference
  2
vac-cup-5-top
 10
16.4890196422445
 20
8.249921259999998
 30
0.0
 41
-1.0
  0
INSERT
  5
76D
330
1F
100
AcDbEntity
  8
vacuum-cup
100
AcDbBlockReference
  2
vac-cup-5-top
 10
12.7640664622445
 20
8.249921259999998
 30
0.0
 41
-1.0
  0
INSERT
  5
76E
330
1F
100
AcDbEntity
  8
vacuum-cup
100
AcDbBlockReference
  2
vac-cup-5-top
 10
11.0140664622445
 20
8.249921259999998
 30
0.0
  0
ARC
  5
773
330
1F
100
AcDbEntity
  8
downstop
100
AcDbCircle
 10
8.475963052244516
 20
5.268705
 30
0.0
 40
0.1875
100
AcDbArc
 50
90.0
 51
270.0
  0
ARC
  5
774
330
1F
100
AcDbEntity
  8
downstop
100
AcDbCircle
 10
8.475963052244516
 20
5.268705
 30
0.0
 40
0.09375
100
AcDbArc
 50
90.0
 51
270.0
  0
INSERT
  5
775
330
1F
100
AcDbEntity
  8
vacuum-cup
100
AcDbBlockReference
  2
vac-cup-5-top
 10
8.730883802244505
 20
5.268547520000009
 30
0.0
  0
LINE
  5
777
330
1F
100
AcDbEntity
  8
downstop
100
AcDbLine
 10
8.475963052244516
 20
5.174955
 30
0.0
 11
8.475963052244516
 21
5.081205
 31
0.0
  0
INSERT
  5
77D
330
1F
100
AcDbEntity
  8
vacuum-cup
100
AcDbBlockReference
  2
vac-cup-5-top
 10
11.0140664622445
 20
6.499921259999998
 30
0.0
 41
-1.0
 50
180.0
  0
LINE
  5
77E
330
1F
100
AcDbEntity
  8
downstop
100
AcDbLine
 10
8.475963052244516
 20
5.362455
 30
0.0
 11
8.475963052244516
 21
5.456205
 31
0.0
  0
INSERT
  5
789
330
1F
100
AcDbEntity
  8
vacuum-cup
100
AcDbBlockReference
  2
vac-cup-5-top
 10
12.7640664622445
 20
6.499921259999998
 30
0.0
 50
180.0
  0
INSERT
  5
790
330
1F
100
AcDbEntity
  8
vacuum-cup
100
AcDbBlockReference
  2
vac-cup-5-top
 10
14.73901964224449
 20
6.499921259999998
 30
0.0
 41
-1.0
 50
180.0
  0
CIRCLE
  5
79D
330
1F
100
AcDbEntity
  8
downstop
100
AcDbCircle
 10
17.29484305224449
 20
5.268547520000007
 30
0.0
 40
0.043
  0
CIRCLE
  5
79E
330
1F
100
AcDbEntity
  8
downstop
100
AcDbCircle
 10
17.29484305224449
 20
5.268547520000007
 30
0.0
 40
0.125
  0
INSERT
  5
79F
330
1F
100
AcDbEntity
  8
vacuum-cup
100
AcDbBlockReference
  2
vac-cup-5-top
 10
16.4890196422445
 20
6.499921259999998
 30
0.0
 50
180.0
  0
ARC
  5
7AB
330
1F
100
AcDbEntity
  8
downstop
100
AcDbCircle
 10
8.475963052244516
 20
9.481294999999988
 30
0.0
 40
0.09375
100
AcDbArc
 50
90.0
 51
270.0
  0
ARC
  5
7AC
330
1F
100
AcDbEntity
  8
downstop
100
AcDbCircle
 10
8.475963052244516
 20
9.481294999999988
 30
0.0
 40
0.1875
100
AcDbArc
 50
90.0
 51
270.0
  0
CIRCLE
  5
7AD
330
1F
100
AcDbEntity
  8
downstop
100
AcDbCircle
 10
9.066513052244513
 20
9.481294999999988
 30
0.0
 40
0.125
  0
INSERT
  5
7AF
330
1F
100
AcDbEntity
  8
vacuum-cup
100
AcDbBlockReference
  2
vac-cup-5-top
 10
8.730883802244505
 20
9.481137519999997
 30
0.0
  0
LINE
  5
7B2
330
1F
100
AcDbEntity
  8
downstop
100
AcDbLine
 10
8.475963052244516
 20
9.575044999999988
 30
0.0
 11
8.475963052244516
 21
9.668794999999988
 31
0.0
  0
LINE
  5
7B3
330
1F
100
AcDbEntity
  8
downstop
100
AcDbLine
 10
8.475963052244516
 20
9.387544999999988
 30
0.0
 11
8.475963052244516
 21
9.293794999999988
 31
0.0
  0
CIRCLE
  5
7B4
330
1F
100
AcDbEntity
  8
downstop
100
AcDbCircle
 10
9.066513052244513
 20
9.481294999999988
 30
0.0
 40
0.02345
  0
INSERT
  5
80A
330
1F
100
AcDbEntity
  8
handle
100
AcDbBlockReference
  2
10-32-THREAD
 10
17.9890196422445
 20
12.75007873999999
 30
0.0
 41
-1.0
 50
180.0
  0
INSERT
  5
80B
330
1F
100
AcDbEntity
  8
vacuum-cup
100
AcDbBlockReference
  2
vac-cup-5-top
 10
16.4890196422445
 20
14.75007874
 30
0.0
 50
180.0
  0
INSERT
  5
810
330
1F
100
AcDbEntity
  8
handle
100
AcDbBlockReference
  2
10-32-THREAD
 10
17.9890196422445
 20
14.50007873999999
 30
0.0
 41
-1.0
 50
180.0
  0
INSERT
  5
811
330
1F
100
AcDbEntity
  8
vacuum-cup
100
AcDbBlockReference
  2
vac-cup-5-top
 10
16.4890196422445
 20
16.50007873999999
 30
0.0
 41
-1.0
  0
LWPOLYLINE
  5
812
330
1F
100
AcDbEntity
  8
handle
100
AcDbPolyline
 90
        4
 70
     1
 43
0.0
 10
9.5
 20
11.25
 10
19.0
 20
11.25
 10
19.0
 20
16.0
 10
9.5
 20
16.0
  0
LINE
  5
813
330
1F
100
AcDbEntity
  8
CENTER
100
AcDbLine
 10
12.5140664622445
 20
14.25007874
 30
0.0
 11
12.5140664622445
 21
14.75007874
 31
0.0
  0
INSERT
  5
816
330
1F
100
AcDbEntity
  8
vacuum-cup
100
AcDbBlockReference
  2
vac-cup-5-top
 10
8.730883802244505
 20
17.73145247999999
 30
0.0
 41
-1.0
 50
180.0
  0
INSERT
  5
817
330
1F
100
AcDbEntity
  8
handle
100
AcDbBlockReference
  2
10-32-THREAD
 10
10.2308838022445
 20
15.73145247999999
 30
0.0
 41
-1.0
 50
180.0
  0
LINE
  5
818
330
1F
100
AcDbEntity
  8
downstop
100
AcDbLine
 10
8.475963052244516
 20
17.82504499999999
 30
0.0
 11
8.475963052244516
 21
17.918795
 31
0.0
  0
ARC
  5
819
330
1F
100
AcDbEntity
  8
downstop
100
AcDbCircle
 10
8.475963052244516
 20
17.731295
 30
0.0
 40
0.1875
100
AcDbArc
 50
90.00000000000003
 51
270.0
  0
LINE
  5
81A
330
1F
100
AcDbEntity
  8
CENTER
100
AcDbLine
 10
9.975963052244516
 20
15.49014219306656
 30
0.0
 11
9.975963052244516
 21
15.99337346410143
 31
0.0
  0
LINE
  5
81C
330
1F
100
AcDbEntity
  8
CENTER
100
AcDbLine
 10
9.719112655807421
 20
15.731295
 30
0.0
 11
10.06934273094803
 21
15.731295
 31
0.0
  0
ARC
  5
81D
330
1F
100
AcDbEntity
  8
downstop
100
AcDbCircle
 10
8.475963052244516
 20
17.731295
 30
0.0
 40
0.09375
100
AcDbArc
 50
90.00000000000003
 51
270.0
  0
LINE
  5
81E
330
1F
100
AcDbEntity
  8
downstop
100
AcDbLine
 10
8.475963052244516
 20
17.637545
 30
0.0
 11
8.475963052244516
 21
17.54379499999999
 31
0.0
  0
INSERT
  5
81F
330
1F
100
AcDbEntity
  8
vacuum-cup
100
AcDbBlockReference
  2
vac-cup-5-top
 10
11.0140664622445
 20
16.50007873999999
 30
0.0
  0
INSERT
  5
822
330
1F
100
AcDbEntity
  8
vacuum-cup
100
AcDbBlockReference
  2
vac-cup-5-top
 10
8.730883802244505
 20
13.51886248
 30
0.0
 41
-1.0
 50
180.0
  0
INSERT
  5
823
330
1F
100
AcDbEntity
  8
handle
100
AcDbBlockReference
  2
10-32-THREAD
 10
10.2308838022445
 20
11.51886248
 30
0.0
 41
-1.0
 50
180.0
  0
LINE
  5
825
330
1F
100
AcDbEntity
  8
CENTER
100
AcDbLine
 10
10.0
 20
13.47368082085996
 30
0.0
 11
10.0
 21
13.15349151084619
 31
0.0
  0
INSERT
  5
826
330
1F
100
AcDbEntity
  8
handle
100
AcDbBlockReference
  2
10-32-THREAD
 10
10.00003977306457
 20
13.31251141455701
 30
0.0
 41
-1.0
 50
180.0
  0
LINE
  5
827
330
1F
100
AcDbEntity
  8
CENTER
100
AcDbLine
 10
10.19080758734453
 20
13.31251141455701
 30
0.0
 11
9.852999484483603
 21
13.31251141455701
 31
0.0
  0
LINE
  5
828
330
1F
100
AcDbEntity
  8
CENTER
100
AcDbLine
 10
9.975963052244516
 20
11.27755219306656
 30
0.0
 11
9.975963052244516
 21
11.78078346410144
 31
0.0
  0
ARC
  5
829
330
1F
100
AcDbEntity
  8
downstop
100
AcDbCircle
 10
8.475963052244516
 20
13.51870500000001
 30
0.0
 40
0.09375
100
AcDbArc
 50
90.00000000000003
 51
270.0
  0
LINE
  5
82B
330
1F
100
AcDbEntity
  8
CENTER
100
AcDbLine
 10
9.719112655807421
 20
11.51870500000001
 30
0.0
 11
10.06934273094803
 21
11.51870500000001
 31
0.0
  0
ARC
  5
82C
330
1F
100
AcDbEntity
  8
downstop
100
AcDbCircle
 10
8.475963052244516
 20
13.51870500000001
 30
0.0
 40
0.1875
100
AcDbArc
 50
90.00000000000003
 51
270.0
  0
LINE
  5
82D
330
1F
100
AcDbEntity
  8
downstop
100
AcDbLine
 10
8.475963052244516
 20
13.42495500000001
 30
0.0
 11
8.475963052244516
 21
13.33120500000001
 31
0.0
  0
LINE
  5
82E
330
1F
100
AcDbEntity
  8
downstop
100
AcDbLine
 10
8.475963052244516
 20
13.61245500000001
 30
0.0
 11
8.475963052244516
 21
13.70620500000001
 31
0.0
  0
LINE
  5
82F
330
1F
100
AcDbEntity
  8
CENTER
100
AcDbLine
 10
12.2640664622445
 20
14.50007873999999
 30
0.0
 11
12.7640664622445
 21
14.50007873999999
 31
0.0
  0
INSERT
  5
831
330
1F
100
AcDbEntity
  8
vacuum-cup
100
AcDbBlockReference
  2
vac-cup-5-top
 10
11.0140664622445
 20
14.75007874
 30
0.0
 41
-1.0
 50
180.0
  0
CIRCLE
  5
834
330
1F
100
AcDbEntity
  8
downstop
100
AcDbCircle
 10
9.066513052244513
 20
13.51870500000001
 30
0.0
 40
0.02345
  0
LINE
  5
835
330
1F
100
AcDbEntity
  8
CENTER
100
AcDbLine
 10
10.38282999278076
 20
15.73129499999998
 30
0.0
 11
10.75647478788499
 21
15.73129499999998
 31
0.0
  0
CIRCLE
  5
836
330
1F
100
AcDbEntity
  8
downstop
100
AcDbCircle
 10
9.066513052244513
 20
13.51870500000001
 30
0.0
 40
0.125
  0
CIRCLE
  5
837
330
1F
100
AcDbEntity
  8
handle
100
AcDbCircle
 10
10.56651305224451
 20
15.73129499999998
 30
0.0
 40
0.125
  0
LINE
  5
838
330
1F
100
AcDbEntity
  8
CENTER
100
AcDbLine
 10
10.56651305224451
 20
15.53375738324751
 30
0.0
 11
10.56651305224451
 21
15.92572465514499
 31
0.0
  0
INSERT
  5
83F
330
1F
100
AcDbEntity
  8
vacuum-cup
100
AcDbBlockReference
  2
vac-cup-5-top
 10
12.7640664622445
 20
16.50007873999999
 30
0.0
 41
-1.0
  0
INSERT
  5
848
330
1F
100
AcDbEntity
  8
handle
100
AcDbBlockReference
  2
10-32-THREAD
 10
16.23901964224449
 20
14.50007873999999
 30
0.0
 41
-1.0
 50
180.0
  0
INSERT
  5
849
330
1F
100
AcDbEntity
  8
vacuum-cup
100
AcDbBlockReference
  2
vac-cup-5-top
 10
14.73901964224449
 20
16.50007873999999
 30
0.0
  0
INSERT
  5
84F
330
1F
100
AcDbEntity
  8
vacuum-cup
100
AcDbBlockReference
  2
vac-cup-5-top
 10
12.7640664622445
 20
14.75007874
 30
0.0
 50
180.0
  0
INSERT
  5
85B
330
1F
100
AcDbEntity
  8
handle
100
AcDbBlockReference
  2
10-32-THREAD
 10
16.23901964224449
 20
12.75007873999999
 30
0.0
 41
-1.0
 50
180.0
  0
INSERT
  5
85C
330
1F
100
AcDbEntity
  8
vacuum-cup
100
AcDbBlockReference
  2
vac-cup-5-top
 10
14.73901964224449
 20
14.75007874
 30
0.0
 41
-1.0
 50
180.0
  0
CIRCLE
  5
864
330
1F
100
AcDbEntity
  8
downstop
100
AcDbCircle
 10
17.29484305224449
 20
17.73145247999999
 30
0.0
 40
0.125
  0
CIRCLE
  5
867
330
1F
100
AcDbEntity
  8
downstop
100
AcDbCircle
 10
17.29484305224449
 20
17.73145247999999
 30
0.0
 40
0.043
  0
LINE
  5
868
330
1F
100
AcDbEntity
  8
CENTER
100
AcDbLine
 10
18.6748870056118
 20
13.31251141455701
 30
0.0
 11
18.33707890275087
 21
13.31251141455701
 31
0.0
  0
LINE
  5
86B
330
1F
100
AcDbEntity
  8
CENTER
100
AcDbLine
 10
18.5
 20
13.47368082085996
 30
0.0
 11
18.5
 21
13.15349151084619
 31
0.0
  0
LWPOLYLINE
  5
C9E
330
1F
100
AcDbEntity
  8
TEFLON
100
AcDbPolyline
 90
        4
 70
     1
 43
0.0
 10
12.0140664622445
 20
12.25007874
 10
14.7640664622445
 20
12.25007874
 10
14.7640664622445
 20
15.00007874
 10
12.0140664622445
 20
15.00007874
  0
LWPOLYLINE
  5
CAB
330
1F
100
AcDbEntity
  8
POST
100
AcDbPolyline
 90
        4
 70
     1
 43
0.0
 10
12.0140664622445
 20
7.985055668656109
 10
14.7640664622445
 20
7.985055668656109
 10
14.7640664622445
 20
7.590979981256097
 10
12.0140664622445
 20
7.590979981256097
  0
LWPOLYLINE
  5
CAC
330
1F
100
AcDbEntity
  8
TEFLON
100
AcDbPolyline
 90
        4
 70
     1
 43
0.0
 10
12.0140664622445
 20
8.110055668656109
 10
14.7640664622445
 20
8.110055668656109
 10
14.7640664622445
 20
7.985055668656109
 10
12.0140664622445
 20
7.985055668656109
  0
LINE
  5
CAD
330
1F
100
AcDbEntity
  8
CENTER
100
AcDbLine
 10
14.0140664622445
 20
14.50007873999999
 30
0.0
 11
14.5140664622445
 21
14.50007873999999
 31
0.0
  0
LINE
  5
CAE
330
1F
100
AcDbEntity
  8
CENTER
100
AcDbLine
 10
14.2640664622445
 20
14.25007874
 30
0.0
 11
14.2640664622445
 21
14.75007874
 31
0.0
  0
LINE
  5
CAF
330
1F
100
AcDbEntity
  8
CENTER
100
AcDbLine
 10
14.0140664622445
 20
12.75007873999999
 30
0.0
 11
14.5140664622445
 21
12.75007873999999
 31
0.0
  0
LINE
  5
CB0
330
1F
100
AcDbEntity
  8
CENTER
100
AcDbLine
 10
14.2640664622445
 20
12.50007874
 30
0.0
 11
14.2640664622445
 21
13.00007874
 31
0.0
  0
LINE
  5
CB1
330
1F
100
AcDbEntity
  8
CENTER
100
AcDbLine
 10
12.2640664622445
 20
12.75007873999999
 30
0.0
 11
12.7640664622445
 21
12.75007873999999
 31
0.0
  0
LINE
  5
CB2
330
1F
100
AcDbEntity
  8
CENTER
100
AcDbLine
 10
12.5140664622445
 20
12.50007874
 30
0.0
 11
12.5140664622445
 21
13.00007874
 31
0.0
  0
INSERT
  5
CB3
330
1F
100
AcDbEntity
  8
handle
100
AcDbBlockReference
  2
10-32-THREAD
 10
12.5140664622445
 20
14.50007873999999
 30
0.0
 41
-1.0
 50
180.0
  0
INSERT
  5
CB4
330
1F
100
AcDbEntity
  8
handle
100
AcDbBlockReference
  2
10-32-THREAD
 10
14.2640664622445
 20
14.50007873999999
 30
0.0
 41
-1.0
 50
180.0
  0
INSERT
  5
CB5
330
1F
100
AcDbEntity
  8
handle
100
AcDbBlockReference
  2
10-32-THREAD
 10
14.2640664622445
 20
12.75007873999999
 30
0.0
 41
-1.0
 50
180.0
  0
INSERT
  5
CB6
330
1F
100
AcDbEntity
  8
handle
100
AcDbBlockReference
  2
10-32-THREAD
 10
12.5140664622445
 20
12.75007873999999
 30
0.0
 41
-1.0
 50
180.0
  0
LWPOLYLINE
  5
CB7
330
1F
100
AcDbEntity
  8
TEFLON
100
AcDbPolyline
 90
        4
 70
     1
 43
0.0
 10
15.73906646224449
 20
12.25007874
 10
18.4890664622445
 20
12.25007874
 10
18.4890664622445
 20
15.00007874
 10
15.73906646224449
 20
15.00007874
  0
LINE
  5
CB8
330
1F
100
AcDbEntity
  8
CENTER
100
AcDbLine
 10
15.9890664622445
 20
12.75007873999999
 30
0.0
 11
16.4890664622445
 21
12.75007873999999
 31
0.0
  0
LINE
  5
CBA
330
1F
100
AcDbEntity
  8
CENTER
100
AcDbLine
 10
16.2390664622445
 20
12.50007874
 30
0.0
 11
16.2390664622445
 21
13.00007874
 31
0.0
  0
LINE
  5
CBB
330
1F
100
AcDbEntity
  8
CENTER
100
AcDbLine
 10
17.9890664622445
 20
12.50007874
 30
0.0
 11
17.9890664622445
 21
13.00007874
 31
0.0
  0
LINE
  5
CBC
330
1F
100
AcDbEntity
  8
CENTER
100
AcDbLine
 10
17.7390664622445
 20
12.75007873999999
 30
0.0
 11
18.2390664622445
 21
12.75007873999999
 31
0.0
  0
LINE
  5
CBE
330
1F
100
AcDbEntity
  8
CENTER
100
AcDbLine
 10
15.9890664622445
 20
14.50007873999999
 30
0.0
 11
16.4890664622445
 21
14.50007873999999
 31
0.0
  0
LINE
  5
CC0
330
1F
100
AcDbEntity
  8
CENTER
100
AcDbLine
 10
16.2390664622445
 20
14.25007874
 30
0.0
 11
16.2390664622445
 21
14.75007874
 31
0.0
  0
LINE
  5
CC1
330
1F
100
AcDbEntity
  8
CENTER
100
AcDbLine
 10
17.9890664622445
 20
14.25007874
 30
0.0
 11
17.9890664622445
 21
14.75007874
 31
0.0
  0
LINE
  5
CC3
330
1F
100
AcDbEntity
  8
CENTER
100
AcDbLine
 10
17.7390664622445
 20
14.50007873999999
 30
0.0
 11
18.2390664622445
 21
14.50007873999999
 31
0.0
  0
LWPOLYLINE
  5
CC8
330
1F
100
AcDbEntity
  8
TEFLON
100
AcDbPolyline
 90
        4
 70
     1
 43
0.0
 10
15.7390664622445
 20
8.110055668656109
 10
18.4890664622445
 20
8.110055668656109
 10
18.4890664622445
 20
7.985055668656109
 10
15.7390664622445
 20
7.985055668656109
  0
LWPOLYLINE
  5
CC9
330
1F
100
AcDbEntity
  8
POST
100
AcDbPolyline
 90
        4
 70
     1
 43
0.0
 10
15.7390664622445
 20
7.985055668656109
 10
18.4890664622445
 20
7.985055668656109
 10
18.4890664622445
 20
7.590979981256097
 10
15.7390664622445
 20
7.590979981256097
  0
LINE
  5
CCA
330
1F
100
AcDbEntity
  8
CENTER
100
AcDbLine
 10
18.5
 20
13.51004903130949
 30
0.0
 11
18.5
 21
13.11808175941201
 31
0.0
  0
ARC
  5
CCB
330
1F
100
AcDbEntity
  8
handle
  6
HIDDEN
100
AcDbCircle
 10
18.5
 20
13.31251141455701
 30
0.0
 40
0.095
100
AcDbArc
 50
263.3911912979695
 51
96.6088087020304
  0
ARC
  5
CCC
330
1F
100
AcDbEntity
  8
handle
100
AcDbCircle
 10
18.5
 20
13.31251141455701
 30
0.0
 40
0.078
100
AcDbArc
 50
261.9421104065942
 51
98.0578895934058
  0
LINE
  5
CCD
330
1F
100
AcDbEntity
  8
CENTER
100
AcDbLine
 10
18.68368305946374
 20
13.31251141455701
 30
0.0
 11
18.31003826435951
 21
13.31251141455701
 31
0.0
  0
LINE
  5
CDC
330
1F
100
AcDbEntity
  8
CENTER
100
AcDbLine
 10
9.975963052244516
 20
11.31985863609223
 30
0.0
 11
9.975963052244516
 21
11.70975380709981
 31
0.0
  0
CIRCLE
  5
CDD
330
1F
100
AcDbEntity
  8
0
100
AcDbCircle
 10
9.975963052244516
 20
11.51870500000001
 30
0.0
 40
0.085
  0
LINE
  5
CDF
330
1F
100
AcDbEntity
  8
CENTER
100
AcDbLine
 10
9.770425684260104
 20
11.51870500000001
 30
0.0
 11
10.17153339979935
 21
11.51870500000001
 31
0.0
  0
LINE
  5
CE0
330
1F
100
AcDbEntity
  8
CENTER
100
AcDbLine
 10
9.770425684260104
 20
15.731295
 30
0.0
 11
10.17153339979935
 21
15.731295
 31
0.0
  0
CIRCLE
  5
CE1
330
1F
100
AcDbEntity
  8
0
100
AcDbCircle
 10
9.975963052244516
 20
15.731295
 30
0.0
 40
0.085
  0
LINE
  5
CE2
330
1F
100
AcDbEntity
  8
CENTER
100
AcDbLine
 10
9.719112655807421
 20
15.731295
 30
0.0
 11
10.06934273094803
 21
15.731295
 31
0.0
  0
LINE
  5
CE3
330
1F
100
AcDbEntity
  8
CENTER
100
AcDbLine
 10
9.975963052244516
 20
15.53244863609222
 30
0.0
 11
9.975963052244516
 21
15.9223438070998
 31
0.0
  0
LINE
  5
CE4
330
1F
100
AcDbEntity
  8
CENTER
100
AcDbLine
 10
9.975963052244516
 20
15.49014219306655
 30
0.0
 11
9.975963052244516
 21
15.99337346410142
 31
0.0
  0
DIMENSION
  5
CE5
330
1F
100
AcDbEntity
  8
DIM
100
AcDbDimension
  2
*D7
 10
19.59233661929558
 20
8.110055668656109
 30
0.0
 11
20.58233661929558
 21
8.47005566865611
 31
0.0
 70
    32
 71
     5
 42
0.5190756874000107
  3
SU1
100
AcDbAlignedDimension
 13
18.99999998600661
 23
7.590979981256097
 33
0.0
 14
18.4890664622445
 24
8.110055668656109
 34
0.0
 50
90.0
100
AcDbRotatedDimension
1001
ACAD
1000
DSTYLE
1002
{
1070
   147
1040
0.09
1070
    48
1040
0.001
1070
    72
1070
     0
1070
    71
1070
     1
1002
}
  0
LEADER
  5
D0B
330
1F
100
AcDbEntity
  8
TEXT
100
AcDbLeader
  3
SU1
 73
     0
 74
     0
 75
     1
 40
0.18
 41
3.659999999999999
 76
     3
 10
14.24948977205733
 20
15.50094910033157
 30
0.0
 10
15.76336124438773
 20
17.49043970296456
 30
0.0
 10
15.94336124438773
 20
17.49043970296456
 30
0.0
340
D0C
1001
ACAD
1000
DSTYLE
1002
{
1070
   147
1040
0.09
1070
    77
1070
     0
1002
}
  0
MTEXT
  5
D0C
102
{ACAD_REACTORS
330
D0B
102
}
330
1F
100
AcDbEntity
  8
TEXT
100
AcDbMText
 10
16.03336124438773
 20
17.49043970296456
 30
0.0
 40
0.18
 41
0.0
 71
     4
 72
     1
  1
PART #: MOD-PICK-RP-12
 73
     1
 44
1.0
  0
MTEXT
  5
D0D
102
{ACAD_REACTORS
330
D0E
102
}
330
1F
100
AcDbEntity
  8
TEXT
100
AcDbMText
 10
18.80707586380122
 20
16.38987048197428
 30
0.0
 40
0.18
 41
0.0
 71
     4
 72
     1
  1
PART #: MOD-PICK-RP-17
 73
     1
 44
1.0
  0
LEADER
  5
D0E
330
1F
100
AcDbEntity
  8
TEXT
100
AcDbLeader
  3
SU1
 73
     0
 74
     0
 75
     1
 40
0.18
 41
3.659999999999999
 76
     3
 10
17.02320439147082
 20
14.40037987934129
 30
0.0
 10
18.53707586380122
 20
16.38987048197428
 30
0.0
 10
18.71707586380122
 20
16.38987048197428
 30
0.0
340
D0D
1001
ACAD
1000
DSTYLE
1002
{
1070
   147
1040
0.09
1070
    77
1070
     0
1002
}
  0
LEADER
  5
D0F
330
1F
100
AcDbEntity
  8
TEXT
100
AcDbLeader
  3
SU1
 40
0.18
 41
3.659999999999999
 76
     2
 10
13.76250170099712
 20
14.42154468190393
 30
0.0
 10
18.53707586380122
 20
16.38987048197428
 30
0.0
1001
ACAD
1000
DSTYLE
1002
{
1070
   147
1040
0.09
1070
    77
1070
     0
1002
}
  0
MTEXT
  5
D10
330
1F
100
AcDbEntity
  8
TEXT
100
AcDbMText
 10
5.0
 20
5.125
 30
0.0
 40
0.25
 41
9.0
 71
     1
 72
     5
  1
MACHINE AFTER ASSEMBLY
 73
     1
 44
1.0
  0
CIRCLE
  5
D1F
330
1F
100
AcDbEntity
  8
TEFLON
100
AcDbCircle
 10
12.5140664622445
 20
14.50007873999999
 30
0.0
 40
0.21875
  0
CIRCLE
  5
D20
330
1F
100
AcDbEntity
  8
TEFLON
100
AcDbCircle
 10
14.2640664622445
 20
14.50007873999999
 30
0.0
 40
0.21875
  0
CIRCLE
  5
D21
330
1F
100
AcDbEntity
  8
TEFLON
100
AcDbCircle
 10
14.2640664622445
 20
12.75007873999999
 30
0.0
 40
0.21875
  0
CIRCLE
  5
D22
330
1F
100
AcDbEntity
  8
TEFLON
100
AcDbCircle
 10
12.5140664622445
 20
12.75007873999999
 30
0.0
 40
0.21875
  0
CIRCLE
  5
D23
330
1F
100
AcDbEntity
  8
TEFLON
100
AcDbCircle
 10
16.23901964224449
 20
12.75007873999999
 30
0.0
 40
0.21875
  0
CIRCLE
  5
D24
330
1F
100
AcDbEntity
  8
TEFLON
100
AcDbCircle
 10
16.23901964224449
 20
14.50007873999999
 30
0.0
 40
0.21875
  0
CIRCLE
  5
D25
330
1F
100
AcDbEntity
  8
TEFLON
100
AcDbCircle
 10
17.9890196422445
 20
14.50007873999999
 30
0.0
 40
0.21875
  0
CIRCLE
  5
D26
330
1F
100
AcDbEntity
  8
TEFLON
100
AcDbCircle
 10
17.9890664622445
 20
12.75007873999999
 30
0.0
 40
0.21875
  0
ENDSEC
  0
SECTION
  2
OBJECTS
  0
DICTIONARY
  5
C
330
0
100
AcDbDictionary
281
     1
  3
ACAD_GROUP
350
D
  3
ACAD_LAYOUT
350
1A
  3
ACAD_MLINESTYLE
350
17
  3
ACAD_PLOTSETTINGS
350
19
  3
ACAD_PLOTSTYLENAME
350
E
  3
AcadDim
350
D0A
  0
DICTIONARY
  5
D
102
{ACAD_REACTORS
330
C
102
}
330
C
100
AcDbDictionary
281
     1
  0
DICTIONARY
  5
1A
102
{ACAD_REACTORS
330
C
102
}
330
C
100
AcDbDictionary
281
     1
  3
Layout1
350
1E
  3
Layout2
350
26
  3
Model
350
22
  0
DICTIONARY
  5
17
102
{ACAD_REACTORS
330
C
102
}
330
C
100
AcDbDictionary
281
     1
  3
Standard
350
18
  0
DICTIONARY
  5
19
102
{ACAD_REACTORS
330
C
102
}
330
C
100
AcDbDictionary
281
     1
  0
ACDBDICTIONARYWDFLT
  5
E
102
{ACAD_REACTORS
330
C
102
}
330
C
100
AcDbDictionary
281
     1
  3
Normal
350
F
100
AcDbDictionaryWithDefault
340
F
  0
XRECORD
  5
D0A
102
{ACAD_REACTORS
330
C
102
}
330
C
100
AcDbXrecord
280
     1
 90
   990106
  3

 60
     0
 61
     0
 62
     2
 63
     2
 64
     0
 65
     0
 66
     0
 67
     3
 68
     1
 69
     0
 70
     0
 71
     0
 72
     0
 40
0.0
170
     2
340
D0C
  0
LAYOUT
  5
1E
102
{ACAD_REACTORS
330
1A
102
}
330
1A
100
AcDbPlotSettings
  1

  2

  4

  6

 40
0.0
 41
0.0
 42
0.0
 43
0.0
 44
0.0
 45
0.0
 46
0.0
 47
0.0
 48
0.0
 49
0.0
140
0.0
141
0.0
142
1.0
143
1.0
 70
   688
 72
     0
 73
     0
 74
     5
  7
style-1.ctb
 75
    16
147
1.0
148
0.0
149
0.0
100
AcDbLayout
  1
Layout1
 70
     1
 71
     1
 10
0.0
 20
0.0
 11
12.0
 21
9.0
 12
0.0
 22
0.0
 32
0.0
 14
1.000000000000000E+20
 24
1.000000000000000E+20
 34
1.000000000000000E+20
 15
-1.000000000000000E+20
 25
-1.000000000000000E+20
 35
-1.000000000000000E+20
146
0.0
 13
0.0
 23
0.0
 33
0.0
 16
1.0
 26
0.0
 36
0.0
 17
0.0
 27
1.0
 37
0.0
 76
     0
330
1B
  0
LAYOUT
  5
26
102
{ACAD_REACTORS
330
1A
102
}
330
1A
100
AcDbPlotSettings
  1

  2

  4

  6

 40
0.0
 41
0.0
 42
0.0
 43
0.0
 44
0.0
 45
0.0
 46
0.0
 47
0.0
 48
0.0
 49
0.0
140
0.0
141
0.0
142
1.0
143
1.0
 70
   688
 72
     0
 73
     0
 74
     5
  7
style-1.ctb
 75
    16
147
1.0
148
0.0
149
0.0
100
AcDbLayout
  1
Layout2
 70
     1
 71
     2
 10
0.0
 20
0.0
 11
12.0
 21
9.0
 12
0.0
 22
0.0
 32
0.0
 14
0.0
 24
0.0
 34
0.0
 15
0.0
 25
0.0
 35
0.0
146
0.0
 13
0.0
 23
0.0
 33
0.0
 16
1.0
 26
0.0
 36
0.0
 17
0.0
 27
1.0
 37
0.0
 76
     0
330
23
  0
LAYOUT
  5
22
102
{ACAD_REACTORS
330
1A
102
}
330
1A
100
AcDbPlotSettings
  1

  2
HP DesignJet 488CA (E_A0) by HP.pc3
  4
User265
  6

 40
4.995333194732666
 41
16.93336677551269
 42
4.99530029296875
 43
16.933349609375
 44
558.7153320312499
 45
863.4306640625
 46
20.32
 47
27.43199999999999
 48
0.0
 49
0.0
140
0.0
141
0.0
142
1.0
143
1.0
 70
 11956
 72
     0
 73
     1
 74
     1
  7
style-1.ctb
 75
    16
147
1.0
148
-17.0489613220199
149
-3.157948022938736
100
AcDbLayout
  1
Model
 70
     1
 71
     0
 10
0.0
 20
0.0
 11
12.0
 21
9.0
 12
0.0
 22
0.0
 32
0.0
 14
0.0
 24
0.0
 34
0.0
 15
0.0
 25
0.0
 35
0.0
146
0.0
 13
0.0
 23
0.0
 33
0.0
 16
1.0
 26
0.0
 36
0.0
 17
0.0
 27
1.0
 37
0.0
 76
     0
330
1F
  0
MLINESTYLE
  5
18
102
{ACAD_REACTORS
330
17
102
}
330
17
100
AcDbMlineStyle
  2
STANDARD
 70
     0
  3

 62
   256
 51
90.0
 52
90.0
 71
     2
 49
0.5
 62
   256
  6
BYLAYER
 49
-0.5
 62
   256
  6
BYLAYER
  0
ACDBPLACEHOLDER
  5
F
102
{ACAD_REACTORS
330
E
102
}
330
E
  0
ENDSEC
  0
EOF
