  0
SECTION
  2
HEADER
  9
$ACADVER
  1
AC1015
  9
$ACADMAINTVER
 70
     6
  9
$DWGCODEPAGE
  3
ANSI_1252
  9
$INSBASE
 10
0.0
 20
0.0
 30
0.0
  9
$EXTMIN
 10
0.2495727821364682
 20
0.0622101040349925
 30
-0.000000000000013
  9
$EXTMAX
 10
10.25079348293458
 20
7.302886981869683
 30
0.0000000000000023
  9
$LIMMIN
 10
0.0
 20
0.0
  9
$LIMMAX
 10
12.0
 20
9.0
  9
$ORTHOMODE
 70
     1
  9
$REGENMODE
 70
     1
  9
$FILLMODE
 70
     1
  9
$QTEXTMODE
 70
     0
  9
$MIRRTEXT
 70
     1
  9
$LTSCALE
 40
0.25
  9
$ATTMODE
 70
     1
  9
$TEXTSIZE
 40
0.2
  9
$TRACEWID
 40
0.05
  9
$TEXTSTYLE
  7
Standard
  9
$CLAYER
  8
DIM
  9
$CELTYPE
  6
ByLayer
  9
$CECOLOR
 62
   256
  9
$CELTSCALE
 40
1.0
  9
$DISPSILH
 70
     0
  9
$DIMSCALE
 40
0.5
  9
$DIMASZ
 40
0.18
  9
$DIMEXO
 40
0.0625
  9
$DIMDLI
 40
0.38
  9
$DIMRND
 40
0.0
  9
$DIMDLE
 40
0.0
  9
$DIMEXE
 40
0.18
  9
$DIMTP
 40
0.001
  9
$DIMTM
 40
0.001
  9
$DIMTXT
 40
0.18
  9
$DIMCEN
 40
0.09
  9
$DIMTSZ
 40
0.0
  9
$DIMTOL
 70
     0
  9
$DIMLIM
 70
     0
  9
$DIMTIH
 70
     1
  9
$DIMTOH
 70
     1
  9
$DIMSE1
 70
     0
  9
$DIMSE2
 70
     0
  9
$DIMTAD
 70
     0
  9
$DIMZIN
 70
     0
  9
$DIMBLK
  1

  9
$DIMASO
 70
     1
  9
$DIMSHO
 70
     1
  9
$DIMPOST
  1

  9
$DIMAPOST
  1
mm
  9
$DIMALT
 70
     0
  9
$DIMALTD
 70
     2
  9
$DIMALTF
 40
25.4
  9
$DIMLFAC
 40
1.0
  9
$DIMTOFL
 70
     0
  9
$DIMTVP
 40
0.0
  9
$DIMTIX
 70
     0
  9
$DIMSOXD
 70
     0
  9
$DIMSAH
 70
     0
  9
$DIMBLK1
  1

  9
$DIMBLK2
  1

  9
$DIMSTYLE
  2
SU1
  9
$DIMCLRD
 70
     0
  9
$DIMCLRE
 70
     0
  9
$DIMCLRT
 70
     0
  9
$DIMTFAC
 40
1.0
  9
$DIMGAP
 40
0.09
  9
$DIMJUST
 70
     0
  9
$DIMSD1
 70
     0
  9
$DIMSD2
 70
     0
  9
$DIMTOLJ
 70
     1
  9
$DIMTZIN
 70
     0
  9
$DIMALTZ
 70
     0
  9
$DIMALTTZ
 70
     0
  9
$DIMUPT
 70
     0
  9
$DIMDEC
 70
     3
  9
$DIMTDEC
 70
     3
  9
$DIMALTU
 70
     2
  9
$DIMALTTD
 70
     2
  9
$DIMTXSTY
  7
Standard
  9
$DIMAUNIT
 70
     0
  9
$DIMADEC
 70
     0
  9
$DIMALTRND
 40
0.0
  9
$DIMAZIN
 70
     0
  9
$DIMDSEP
 70
    46
  9
$DIMATFIT
 70
     0
  9
$DIMFRAC
 70
     0
  9
$DIMLDRBLK
  1

  9
$DIMLUNIT
 70
     2
  9
$DIMLWD
 70
    -2
  9
$DIMLWE
 70
    -2
  9
$DIMTMOVE
 70
     0
  9
$LUNITS
 70
     2
  9
$LUPREC
 70
     4
  9
$SKETCHINC
 40
0.1
  9
$FILLETRAD
 40
0.5
  9
$AUNITS
 70
     0
  9
$AUPREC
 70
     0
  9
$MENU
  1
.
  9
$ELEVATION
 40
0.0
  9
$PELEVATION
 40
0.0
  9
$THICKNESS
 40
0.0
  9
$LIMCHECK
 70
     0
  9
$CHAMFERA
 40
0.5
  9
$CHAMFERB
 40
0.5
  9
$CHAMFERC
 40
1.0
  9
$CHAMFERD
 40
0.0
  9
$SKPOLY
 70
     0
  9
$TDCREATE
 40
2452837.428335312
  9
$TDUCREATE
 40
2452837.761668646
  9
$TDUPDATE
 40
2452951.375919953
  9
$TDUUPDATE
 40
2452951.709253287
  9
$TDINDWG
 40
0.0416171065
  9
$TDUSRTIMER
 40
0.0416171065
  9
$USRTIMER
 70
     1
  9
$ANGBASE
 50
0.0
  9
$ANGDIR
 70
     0
  9
$PDMODE
 70
     0
  9
$PDSIZE
 40
0.0
  9
$PLINEWID
 40
0.0
  9
$SPLFRAME
 70
     0
  9
$SPLINETYPE
 70
     6
  9
$SPLINESEGS
 70
     8
  9
$HANDSEED
  5
2E1
  9
$SURFTAB1
 70
     6
  9
$SURFTAB2
 70
     6
  9
$SURFTYPE
 70
     6
  9
$SURFU
 70
     6
  9
$SURFV
 70
     6
  9
$UCSBASE
  2

  9
$UCSNAME
  2

  9
$UCSORG
 10
0.0
 20
0.0
 30
0.0
  9
$UCSXDIR
 10
1.0
 20
0.0
 30
0.0
  9
$UCSYDIR
 10
0.0
 20
1.0
 30
0.0
  9
$UCSORTHOREF
  2

  9
$UCSORTHOVIEW
 70
     0
  9
$UCSORGTOP
 10
0.0
 20
0.0
 30
0.0
  9
$UCSORGBOTTOM
 10
0.0
 20
0.0
 30
0.0
  9
$UCSORGLEFT
 10
0.0
 20
0.0
 30
0.0
  9
$UCSORGRIGHT
 10
0.0
 20
0.0
 30
0.0
  9
$UCSORGFRONT
 10
0.0
 20
0.0
 30
0.0
  9
$UCSORGBACK
 10
0.0
 20
0.0
 30
0.0
  9
$PUCSBASE
  2

  9
$PUCSNAME
  2

  9
$PUCSORG
 10
0.0
 20
0.0
 30
0.0
  9
$PUCSXDIR
 10
1.0
 20
0.0
 30
0.0
  9
$PUCSYDIR
 10
0.0
 20
1.0
 30
0.0
  9
$PUCSORTHOREF
  2

  9
$PUCSORTHOVIEW
 70
     0
  9
$PUCSORGTOP
 10
0.0
 20
0.0
 30
0.0
  9
$PUCSORGBOTTOM
 10
0.0
 20
0.0
 30
0.0
  9
$PUCSORGLEFT
 10
0.0
 20
0.0
 30
0.0
  9
$PUCSORGRIGHT
 10
0.0
 20
0.0
 30
0.0
  9
$PUCSORGFRONT
 10
0.0
 20
0.0
 30
0.0
  9
$PUCSORGBACK
 10
0.0
 20
0.0
 30
0.0
  9
$USERI1
 70
     0
  9
$USERI2
 70
     0
  9
$USERI3
 70
     0
  9
$USERI4
 70
     0
  9
$USERI5
 70
     0
  9
$USERR1
 40
0.0
  9
$USERR2
 40
0.0
  9
$USERR3
 40
0.0
  9
$USERR4
 40
0.0
  9
$USERR5
 40
0.0
  9
$WORLDVIEW
 70
     1
  9
$SHADEDGE
 70
     3
  9
$SHADEDIF
 70
    70
  9
$TILEMODE
 70
     1
  9
$MAXACTVP
 70
    64
  9
$PINSBASE
 10
0.0
 20
0.0
 30
0.0
  9
$PLIMCHECK
 70
     0
  9
$PEXTMIN
 10
1.000000000000000E+20
 20
1.000000000000000E+20
 30
1.000000000000000E+20
  9
$PEXTMAX
 10
-1.000000000000000E+20
 20
-1.000000000000000E+20
 30
-1.000000000000000E+20
  9
$PLIMMIN
 10
0.0
 20
0.0
  9
$PLIMMAX
 10
12.0
 20
9.0
  9
$UNITMODE
 70
     0
  9
$VISRETAIN
 70
     1
  9
$PLINEGEN
 70
     0
  9
$PSLTSCALE
 70
     1
  9
$TREEDEPTH
 70
  3020
  9
$CMLSTYLE
  2
Standard
  9
$CMLJUST
 70
     0
  9
$CMLSCALE
 40
1.0
  9
$PROXYGRAPHICS
 70
     1
  9
$MEASUREMENT
 70
     0
  9
$CELWEIGHT
370
    -1
  9
$ENDCAPS
280
     0
  9
$JOINSTYLE
280
     0
  9
$LWDISPLAY
290
     0
  9
$INSUNITS
 70
     1
  9
$HYPERLINKBASE
  1

  9
$STYLESHEET
  1
style-1.ctb
  9
$XEDIT
290
     1
  9
$CEPSNTYPE
380
     0
  9
$PSTYLEMODE
290
     1
  9
$FINGERPRINTGUID
  2
{FDEAD576-A652-11D2-9A35-0060089B3A3F}
  9
$VERSIONGUID
  2
{86F04770-7D67-4ED3-AD3A-E80219F47277}
  9
$EXTNAMES
290
     1
  9
$PSVPSCALE
 40
0.0
  9
$OLESTARTUP
290
     0
  0
ENDSEC
  0
SECTION
  2
CLASSES
  0
CLASS
  1
ACDBDICTIONARYWDFLT
  2
AcDbDictionaryWithDefault
  3
AutoCAD 2000
 90
        0
280
     0
281
     0
  0
CLASS
  1
ACDBPLACEHOLDER
  2
AcDbPlaceHolder
  3
AutoCAD 2000
 90
        0
280
     0
281
     0
  0
CLASS
  1
LAYOUT
  2
AcDbLayout
  3
AutoCAD 2000
 90
        0
280
     0
281
     0
  0
ENDSEC
  0
SECTION
  2
TABLES
  0
TABLE
  2
VPORT
  5
8
330
0
100
AcDbSymbolTable
 70
     2
  0
VPORT
  5
2E0
330
8
100
AcDbSymbolTableRecord
100
AcDbViewportTableRecord
  2
*Active
 70
     0
 10
0.0
 20
0.0
 11
1.0
 21
1.0
 12
5.250183132535526
 22
3.682548542952337
 13
0.0
 23
0.0
 14
0.125
 24
0.125
 15
1.0
 25
1.0
 16
0.0
 26
0.0
 36
1.0
 17
0.0
 27
0.0
 37
0.0
 40
7.288334406464921
 41
1.629473684210526
 42
50.0
 43
0.0
 44
0.0
 50
0.0
 51
0.0
 71
     0
 72
   100
 73
     1
 74
     3
 75
     0
 76
     1
 77
     0
 78
     0
281
     0
 65
     1
110
0.0
120
0.0
130
0.0
111
1.0
121
0.0
131
0.0
112
0.0
122
1.0
132
0.0
 79
     0
146
0.0
  0
ENDTAB
  0
TABLE
  2
LTYPE
  5
5
330
0
100
AcDbSymbolTable
 70
     3
  0
LTYPE
  5
14
330
5
100
AcDbSymbolTableRecord
100
AcDbLinetypeTableRecord
  2
ByBlock
 70
     0
  3

 72
    65
 73
     0
 40
0.0
  0
LTYPE
  5
15
330
5
100
AcDbSymbolTableRecord
100
AcDbLinetypeTableRecord
  2
ByLayer
 70
     0
  3

 72
    65
 73
     0
 40
0.0
  0
LTYPE
  5
16
330
5
100
AcDbSymbolTableRecord
100
AcDbLinetypeTableRecord
  2
Continuous
 70
     0
  3
Solid line
 72
    65
 73
     0
 40
0.0
  0
LTYPE
  5
48
330
5
100
AcDbSymbolTableRecord
100
AcDbLinetypeTableRecord
  2
CENTER
 70
     0
  3
____ _ ____ _ ____ _ ____ _ ____ _ ____ _ ____ 
 72
    65
 73
     4
 40
2.0
 49
1.25
 74
     0
 49
-0.25
 74
     0
 49
0.25
 74
     0
 49
-0.25
 74
     0
  0
LTYPE
  5
F9
330
5
100
AcDbSymbolTableRecord
100
AcDbLinetypeTableRecord
  2
HIDDEN
 70
     0
  3
Hidden __ __ __ __ __ __ __ __ __ __ __ __ __ _
 72
    65
 73
     2
 40
0.375
 49
0.25
 74
     0
 49
-0.125
 74
     0
  0
ENDTAB
  0
TABLE
  2
LAYER
  5
2
330
0
100
AcDbSymbolTable
 70
     7
  0
LAYER
  5
10
330
2
100
AcDbSymbolTableRecord
100
AcDbLayerTableRecord
  2
0
 70
     0
 62
     7
  6
Continuous
370
    -3
390
F
  0
LAYER
  5
49
330
2
100
AcDbSymbolTableRecord
100
AcDbLayerTableRecord
  2
TEXT
 70
     0
 62
     7
  6
Continuous
370
    -3
390
F
  0
LAYER
  5
4A
330
2
100
AcDbSymbolTableRecord
100
AcDbLayerTableRecord
  2
BORDER
 70
     0
 62
     8
  6
Continuous
370
    -3
390
F
  0
LAYER
  5
A1
330
2
100
AcDbSymbolTableRecord
100
AcDbLayerTableRecord
  2
Defpoints
 70
     0
 62
     7
  6
Continuous
290
     0
370
    -3
390
F
  0
LAYER
  5
D8
330
2
100
AcDbSymbolTableRecord
100
AcDbLayerTableRecord
  2
DIM
 70
     0
 62
     3
  6
Continuous
370
    -3
390
F
  0
LAYER
  5
D9
330
2
100
AcDbSymbolTableRecord
100
AcDbLayerTableRecord
  2
CENTER
 70
     0
 62
     1
  6
CENTER
370
    -3
390
F
  0
LAYER
  5
15A
330
2
100
AcDbSymbolTableRecord
100
AcDbLayerTableRecord
  2
downstop
 70
     0
 62
     7
  6
Continuous
370
    -3
390
F
  0
ENDTAB
  0
TABLE
  2
STYLE
  5
3
330
0
100
AcDbSymbolTable
 70
     3
  0
STYLE
  5
11
330
3
100
AcDbSymbolTableRecord
100
AcDbTextStyleTableRecord
  2
Standard
 70
     0
 40
0.0
 41
1.0
 50
0.0
 71
     0
 42
0.2
  3
txt
  4

  0
STYLE
  5
4B
330
3
100
AcDbSymbolTableRecord
100
AcDbTextStyleTableRecord
  2
ADESK2
 70
     0
 40
0.0
 41
1.0
 50
0.0
 71
     0
 42
0.065
  3
romans
  4

  0
STYLE
  5
F8
330
3
100
AcDbSymbolTableRecord
100
AcDbTextStyleTableRecord
  2

 70
     1
 40
0.0
 41
1.0
 50
0.0
 71
     0
 42
0.2
  3
ltypeshp.shx
  4

  0
ENDTAB
  0
TABLE
  2
VIEW
  5
6
330
0
100
AcDbSymbolTable
 70
     0
  0
ENDTAB
  0
TABLE
  2
UCS
  5
7
330
0
100
AcDbSymbolTable
 70
     0
  0
ENDTAB
  0
TABLE
  2
APPID
  5
9
330
0
100
AcDbSymbolTable
 70
     1
  0
APPID
  5
12
330
9
100
AcDbSymbolTableRecord
100
AcDbRegAppTableRecord
  2
ACAD
 70
     0
  0
ENDTAB
  0
TABLE
  2
DIMSTYLE
  5
A
330
0
100
AcDbSymbolTable
 70
     4
100
AcDbDimStyleTable
 71
     4
340
E0
340
4C
340
DF
340
27
  0
DIMSTYLE
105
27
330
A
100
AcDbSymbolTableRecord
100
AcDbDimStyleTableRecord
  2
Standard
 70
     0
340
11
  0
DIMSTYLE
105
4C
102
{ACAD_REACTORS
330
276
330
2C0
102
}
330
A
100
AcDbSymbolTableRecord
100
AcDbDimStyleTableRecord
  2
SU1
 70
     0
  4
mm
 40
0.5
 47
0.001
 48
0.001
271
     3
272
     3
289
     0
340
11
  0
DIMSTYLE
105
DF
330
A
100
AcDbSymbolTableRecord
100
AcDbDimStyleTableRecord
  2
SU1$4
 70
     0
  4
mm
 40
0.5
 47
0.001
 48
0.001
271
     3
272
     3
288
     1
289
     0
340
11
  0
DIMSTYLE
105
E0
102
{ACAD_REACTORS
330
174
330
2AD
330
2CE
102
}
330
A
100
AcDbSymbolTableRecord
100
AcDbDimStyleTableRecord
  2
SU1$3
 70
     0
  4
mm
 40
0.5
 47
0.001
 48
0.001
271
     3
272
     3
288
     1
289
     0
340
11
  0
ENDTAB
  0
TABLE
  2
BLOCK_RECORD
  5
1
330
0
100
AcDbSymbolTable
 70
     9
  0
BLOCK_RECORD
  5
1F
330
1
100
AcDbSymbolTableRecord
100
AcDbBlockTableRecord
  2
*Model_Space
340
22
  0
BLOCK_RECORD
  5
1B
330
1
100
AcDbSymbolTableRecord
100
AcDbBlockTableRecord
  2
*Paper_Space
340
1E
  0
BLOCK_RECORD
  5
23
330
1
100
AcDbSymbolTableRecord
100
AcDbBlockTableRecord
  2
*Paper_Space0
340
26
  0
BLOCK_RECORD
  5
108
330
1
100
AcDbSymbolTableRecord
100
AcDbBlockTableRecord
  2
a-border
340
0
102
{BLKREFS
331
152
102
}
  0
BLOCK_RECORD
  5
175
330
1
100
AcDbSymbolTableRecord
100
AcDbBlockTableRecord
  2
*D2
340
0
  0
BLOCK_RECORD
  5
220
330
1
100
AcDbSymbolTableRecord
100
AcDbBlockTableRecord
  2
6-32-thread
340
0
1001
ACAD
1000
DesignCenter Data
1002
{
1070
     1
1070
     1
1002
}
  0
BLOCK_RECORD
  5
277
330
1
100
AcDbSymbolTableRecord
100
AcDbBlockTableRecord
  2
*D4
340
0
  0
BLOCK_RECORD
  5
2AE
330
1
100
AcDbSymbolTableRecord
100
AcDbBlockTableRecord
  2
*D6
340
0
  0
BLOCK_RECORD
  5
2C1
330
1
100
AcDbSymbolTableRecord
100
AcDbBlockTableRecord
  2
*D7
340
0
  0
BLOCK_RECORD
  5
2CF
330
1
100
AcDbSymbolTableRecord
100
AcDbBlockTableRecord
  2
*D8
340
0
  0
ENDTAB
  0
ENDSEC
  0
SECTION
  2
BLOCKS
  0
BLOCK
  5
20
330
1F
100
AcDbEntity
  8
0
100
AcDbBlockBegin
  2
*Model_Space
 70
     0
 10
0.0
 20
0.0
 30
0.0
  3
*Model_Space
  1

  0
ENDBLK
  5
21
330
1F
100
AcDbEntity
  8
0
100
AcDbBlockEnd
  0
BLOCK
  5
1C
330
1B
100
AcDbEntity
 67
     1
  8
0
100
AcDbBlockBegin
  2
*Paper_Space
 70
     0
 10
0.0
 20
0.0
 30
0.0
  3
*Paper_Space
  1

  0
ENDBLK
  5
1D
330
1B
100
AcDbEntity
 67
     1
  8
0
100
AcDbBlockEnd
  0
BLOCK
  5
24
330
23
100
AcDbEntity
  8
0
100
AcDbBlockBegin
  2
*Paper_Space0
 70
     0
 10
0.0
 20
0.0
 30
0.0
  3
*Paper_Space0
  1

  0
ENDBLK
  5
25
330
23
100
AcDbEntity
  8
0
100
AcDbBlockEnd
  0
BLOCK
  5
150
330
108
100
AcDbEntity
  8
0
100
AcDbBlockBegin
  2
a-border
 70
     2
 10
0.0
 20
0.0
 30
0.0
  3
a-border
  1

  0
ATTDEF
  5
109
330
108
100
AcDbEntity
  8
TEXT
100
AcDbText
 10
9.166299999999999
 20
0.2313
 30
0.0
 40
0.06
  1

100
AcDbAttributeDefinition
  3
Enter File Name
  2
FILE
 70
     0
  0
ATTDEF
  5
10A
330
108
100
AcDbEntity
  8
TEXT
100
AcDbText
 10
7.8768
 20
0.4075
 30
0.0
 40
0.03
  1

100
AcDbAttributeDefinition
  3
Enter the Date
  2
DATE
 70
     0
  0
ATTDEF
  5
10B
330
108
100
AcDbEntity
  8
TEXT
100
AcDbText
 10
7.381999999999999
 20
0.4188
 30
0.0
 40
0.06
  1
S. KYRE
100
AcDbAttributeDefinition
  3
Enter Your Name
  2
NAME
 70
     0
  0
ATTDEF
  5
10C
330
108
100
AcDbEntity
  8
TEXT
100
AcDbText
 10
8.3488
 20
0.0891
 30
0.0
 40
0.06
  1

100
AcDbAttributeDefinition
  3
Enter Drawing Scale
  2
SCALE
 70
     0
  0
ATTDEF
  5
10D
330
108
100
AcDbEntity
  8
TEXT
100
AcDbText
 10
8.3602
 20
0.2256
 30
0.0
 40
0.06
  1

100
AcDbAttributeDefinition
  3
Enter Drawing Directory
  2
DIRECTORY
 70
     0
  0
TEXT
  5
10E
330
108
100
AcDbEntity
  8
TEXT
100
AcDbText
 10
9.806017901868278
 20
0.1221884730513363
 30
0.0
 40
0.0325
  1
OF
  7
ADESK2
100
AcDbText
  0
TEXT
  5
10F
330
108
100
AcDbEntity
  8
TEXT
100
AcDbText
 10
7.926233901868277
 20
0.4874754730513367
 30
0.0
 40
0.0325
  1
DATE
  7
ADESK2
100
AcDbText
  0
LINE
  5
110
330
108
100
AcDbEntity
  8
TEXT
100
AcDbLine
 10
7.864524401868278
 20
0.5457504730513368
 30
0.0
 11
7.864524401868278
 21
0.0625
 31
0.0
  0
TEXT
  5
111
330
108
100
AcDbEntity
  8
TEXT
100
AcDbText
 10
7.154532401868278
 20
0.1782504730513361
 30
0.0
 40
0.0325
  1
DESIGN
  7
ADESK2
100
AcDbText
  0
TEXT
  5
112
330
108
100
AcDbEntity
  8
TEXT
100
AcDbText
 10
7.154532401868278
 20
0.3357504730513368
 30
0.0
 40
0.0325
  1
CHECKED
  7
ADESK2
100
AcDbText
  0
LINE
  5
113
330
108
100
AcDbEntity
  8
TEXT
100
AcDbLine
 10
7.114532401868278
 20
0.5457504730513368
 30
0.0
 11
8.114532401868279
 21
0.5457504730513368
 31
0.0
  0
TEXT
  5
114
330
108
100
AcDbEntity
  8
TEXT
100
AcDbText
 10
9.848673055561846
 20
7.044547729948104
 30
0.0
 40
0.0325
  1
APPROVED
  7
ADESK2
100
AcDbText
  0
TEXT
  5
115
330
108
100
AcDbEntity
  8
TEXT
100
AcDbText
 10
9.451823055561847
 20
7.044547729948104
 30
0.0
 40
0.0325
  1
DATE
  7
ADESK2
100
AcDbText
  0
TEXT
  5
116
330
108
100
AcDbEntity
  8
TEXT
100
AcDbText
 10
8.418973055561847
 20
7.044547729948104
 30
0.0
 40
0.0325
  1
DESCRIPTION
  7
ADESK2
100
AcDbText
  0
TEXT
  5
117
330
108
100
AcDbEntity
  8
TEXT
100
AcDbText
 10
7.768023055561846
 20
7.044547729948104
 30
0.0
 40
0.0325
  1
REV
  7
ADESK2
100
AcDbText
  0
TEXT
  5
118
330
108
100
AcDbEntity
  8
TEXT
100
AcDbText
 10
8.833073055561845
 20
7.165647729948104
 30
0.0
 40
0.0325
  1
REVISIONS
  7
ADESK2
100
AcDbText
  0
LINE
  5
119
330
108
100
AcDbEntity
  8
TEXT
100
AcDbLine
 10
9.727973055561847
 20
6.999397729948103
 30
0.0
 11
9.727973055561847
 21
7.124397729948103
 31
0.0
  0
LINE
  5
11A
330
108
100
AcDbEntity
  8
TEXT
100
AcDbLine
 10
9.287973055561847
 20
6.999397729948103
 30
0.0
 11
9.287973055561847
 21
7.124397729948103
 31
0.0
  0
LINE
  5
11B
330
108
100
AcDbEntity
  8
TEXT
100
AcDbLine
 10
7.917973055561846
 20
6.999397729948103
 30
0.0
 11
7.917973055561846
 21
7.124397729948103
 31
0.0
  0
LINE
  5
11C
330
108
100
AcDbEntity
  8
TEXT
100
AcDbLine
 10
7.722846844446165
 20
7.279429703003084
 30
0.0
 11
7.722846844446165
 21
6.999397729948103
 31
0.0
  0
LINE
  5
11D
330
108
100
AcDbEntity
  8
TEXT
100
AcDbLine
 10
7.722846844446165
 20
6.999397729948103
 30
0.0
 11
10.25
 21
6.999397729948104
 31
0.0
  0
LINE
  5
11E
330
108
100
AcDbEntity
  8
TEXT
100
AcDbLine
 10
7.722846844446165
 20
7.124397729948103
 30
0.0
 11
10.25
 21
7.124397729948104
 31
0.0
  0
TEXT
  5
11F
330
108
100
AcDbEntity
  8
TEXT
100
AcDbText
 10
10.08978240186827
 20
0.3337004730513362
 30
0.0
 40
0.0325
  1
REV
  7
ADESK2
100
AcDbText
  0
TEXT
  5
120
330
108
100
AcDbEntity
  8
TEXT
100
AcDbText
 10
8.900032401868278
 20
0.3337004730513362
 30
0.0
 40
0.0325
  1
DWG NO.
  7
ADESK2
100
AcDbText
  0
TEXT
  5
121
330
108
100
AcDbEntity
  8
TEXT
100
AcDbText
 10
8.158482401868278
 20
0.3337004730513362
 30
0.0
 40
0.0325
  1
SIZE
  7
ADESK2
100
AcDbText
  0
TEXT
  5
122
330
108
100
AcDbEntity
  8
TEXT
100
AcDbText
 10
9.390932401868278
 20
0.1220004730513366
 30
0.0
 40
0.0325
  1
SHEET
  7
ADESK2
100
AcDbText
  0
TEXT
  5
123
330
108
100
AcDbEntity
  8
TEXT
100
AcDbText
 10
8.140682401868277
 20
0.1220004730513366
 30
0.0
 40
0.0325
  1
SCALE
  7
ADESK2
100
AcDbText
  0
LINE
  5
124
330
108
100
AcDbEntity
  8
TEXT
100
AcDbLine
 10
10.04953240186827
 20
0.200750473051337
 30
0.0
 11
10.04953240186827
 21
0.3907504730513365
 31
0.0
  0
LINE
  5
125
330
108
100
AcDbEntity
  8
TEXT
100
AcDbLine
 10
8.864532401868279
 20
0.200750473051337
 30
0.0
 11
8.864532401868279
 21
0.3907504730513365
 31
0.0
  0
LINE
  5
126
330
108
100
AcDbEntity
  8
TEXT
100
AcDbLine
 10
8.304532401868277
 20
0.200750473051337
 30
0.0
 11
8.304532401868277
 21
0.3907504730513365
 31
0.0
  0
LINE
  5
127
330
108
100
AcDbEntity
  8
TEXT
100
AcDbLine
 10
9.364532401868279
 20
0.0625
 30
0.0
 11
9.364532401868279
 21
0.200750473051337
 31
0.0
  0
LINE
  5
128
330
108
100
AcDbEntity
  8
TEXT
100
AcDbLine
 10
8.614532401868279
 20
0.0625
 30
0.0
 11
8.614532401868279
 21
0.200750473051337
 31
0.0
  0
LINE
  5
129
330
108
100
AcDbEntity
  8
BORDER
100
AcDbLine
 10
8.114532401868279
 20
0.0625
 30
0.0
 11
8.114532401868279
 21
0.9507504730513369
 31
0.0
  0
LINE
  5
12A
330
108
100
AcDbEntity
  8
BORDER
100
AcDbLine
 10
8.114532401868279
 20
0.700750473051337
 30
0.0
 11
10.25043121410005
 21
0.700750473051337
 31
0.0
  0
LINE
  5
12B
330
108
100
AcDbEntity
  8
TEXT
100
AcDbLine
 10
8.114532401868279
 20
0.200750473051337
 30
0.0
 11
10.25043121410005
 21
0.200750473051337
 31
0.0
  0
LINE
  5
12C
330
108
100
AcDbEntity
  8
TEXT
100
AcDbLine
 10
7.114532401868278
 20
0.3907504730513365
 30
0.0
 11
10.25043121410005
 21
0.3907504730513365
 31
0.0
  0
LINE
  5
12D
330
108
100
AcDbEntity
  8
TEXT
100
AcDbLine
 10
7.114532401868278
 20
0.2332504730513367
 30
0.0
 11
8.114532401868279
 21
0.2332504730513367
 31
0.0
  0
LINE
  5
12E
330
108
100
AcDbEntity
  8
BORDER
100
AcDbLine
 10
7.114532401868278
 20
0.9507504730513369
 30
0.0
 11
10.25043121410005
 21
0.9507504730513369
 31
0.0
  0
LINE
  5
12F
330
108
100
AcDbEntity
  8
BORDER
100
AcDbLine
 10
7.114532401868278
 20
0.0625
 30
0.0
 11
7.114532401868278
 21
1.162073490813602
 31
0.0
  0
TEXT
  5
130
330
108
100
AcDbEntity
  8
TEXT
100
AcDbText
 10
7.148687401868278
 20
0.4899819730513367
 30
0.0
 40
0.0325
  1
DRAWN
  7
ADESK2
100
AcDbText
  0
TEXT
  5
131
330
108
100
AcDbEntity
  8
BORDER
100
AcDbText
 10
7.203514652868109
 20
1.024613929072771
 30
0.0
 40
0.075
  1
UNIVERSITY OF CALIFORNIA @ SANTA BARBARA
100
AcDbText
  0
LINE
  5
132
330
108
100
AcDbEntity
  8
BORDER
100
AcDbLine
 10
7.114012285752607
 20
1.162073490813602
 30
0.0
 11
10.25043121410005
 21
1.162073490813602
 31
0.0
  0
LINE
  5
133
330
108
100
AcDbEntity
  8
BORDER
100
AcDbLine
 10
10.25
 20
0.0625
 30
0.0
 11
10.25
 21
7.3025
 31
0.0
  0
LINE
  5
134
330
108
100
AcDbEntity
  8
BORDER
100
AcDbLine
 10
0.25
 20
7.3025
 30
0.0
 11
0.25
 21
0.0625
 31
0.0
  0
LINE
  5
135
330
108
100
AcDbEntity
  8
BORDER
100
AcDbLine
 10
0.25
 20
0.0625
 30
0.0
 11
10.25
 21
0.0625
 31
0.0
  0
TEXT
  5
136
330
108
100
AcDbEntity
  8
BORDER
100
AcDbText
 10
8.183852051433854
 20
0.2259812000243528
 30
0.0
 40
0.075
  1
A
100
AcDbText
  0
TEXT
  5
137
330
108
100
AcDbEntity
  8
TEXT
100
AcDbText
 10
8.340068360089324
 20
0.3326771653542698
 30
0.0
 40
0.0375
  1
DIRECTORY
100
AcDbText
  0
LINE
  5
138
330
108
100
AcDbEntity
  8
BORDER
100
AcDbLine
 10
0.25
 20
7.3025
 30
0.0
 11
10.25
 21
7.3025
 31
0.0
  0
TEXT
  5
139
330
108
100
AcDbEntity
  8
BORDER
100
AcDbText
 10
8.458303959452241
 20
0.7877830678141449
 30
0.0
 40
0.075
  1
HIGH ENERGY PHYSICS
100
AcDbText
  0
TEXT
  5
13A
330
108
100
AcDbEntity
  8
TEXT
100
AcDbText
 10
7.229175259011135
 20
0.8925444730513369
 30
0.0
 40
0.0325
  1
UNLESS OTHERWISE SPECIFIED:
  7
ADESK2
 72
     1
 11
7.614532401868278
 21
0.8925444730513369
 31
0.0
100
AcDbText
  0
TEXT
  5
13B
330
108
100
AcDbEntity
  8
TEXT
100
AcDbText
 10
7.266318116153993
 20
0.8399254730513369
 30
0.0
 40
0.0325
  1
DIMENSIONS ARE IN INCHES
  7
ADESK2
 72
     1
 11
7.614532401868278
 21
0.8399254730513369
 31
0.0
100
AcDbText
  0
TEXT
  5
13C
330
108
100
AcDbEntity
  8
TEXT
100
AcDbText
 10
7.46518716377304
 20
0.787306473051337
 30
0.0
 40
0.0325
  1
TOLERANCES
  7
ADESK2
 72
     1
 11
7.614532401868278
 21
0.787306473051337
 31
0.0
100
AcDbText
  0
TEXT
  5
13D
330
108
100
AcDbEntity
  8
TEXT
100
AcDbText
 10
7.272011401868279
 20
0.733371473051337
 30
0.0
 40
0.0325
  1
DECIMALS
  7
ADESK2
100
AcDbText
  0
TEXT
  5
13E
330
108
100
AcDbEntity
  8
TEXT
100
AcDbText
 10
7.272011401868279
 20
0.680752473051337
 30
0.0
 40
0.0325
  1
.XX  %%P .05
  7
ADESK2
100
AcDbText
  0
TEXT
  5
13F
330
108
100
AcDbEntity
  8
TEXT
100
AcDbText
 10
7.272011401868279
 20
0.628133473051337
 30
0.0
 40
0.0325
  1
.XXX %%P .005
  7
ADESK2
100
AcDbText
  0
TEXT
  5
140
330
108
100
AcDbEntity
  8
TEXT
100
AcDbText
 10
7.307330020915897
 20
0.576871973051337
 30
0.0
 40
0.0325
  1
DO NOT SCALE DRAWING
  7
ADESK2
 72
     1
 11
7.614532401868278
 21
0.576871973051337
 31
0.0
100
AcDbText
  0
TEXT
  5
141
330
108
100
AcDbEntity
  8
TEXT
100
AcDbText
 10
7.703959901868278
 20
0.733371473051337
 30
0.0
 40
0.0325
  1
ANGULAR
  7
ADESK2
100
AcDbText
  0
TEXT
  5
142
330
108
100
AcDbEntity
  8
TEXT
100
AcDbText
 10
7.703959901868278
 20
0.680752473051337
 30
0.0
 40
0.0325
  1
  %%P 0.5%%D
  7
ADESK2
100
AcDbText
  0
LINE
  5
143
330
108
100
AcDbEntity
  8
TEXT
100
AcDbLine
 10
1.53125
 20
6.9275
 30
0.0
 11
0.25
 21
6.9275
 31
0.0
  0
LINE
  5
144
330
108
100
AcDbEntity
  8
TEXT
100
AcDbLine
 10
1.53125
 20
7.0525
 30
0.0
 11
1.53125
 21
6.9275
 31
0.0
  0
TEXT
  5
145
330
108
100
AcDbEntity
  8
TEXT
100
AcDbText
 10
0.34375
 20
6.959913795125819
 30
0.0
 40
0.05
  1
THIRD ANGLE PROJECTION
100
AcDbText
  0
LINE
  5
146
330
108
100
AcDbEntity
  8
TEXT
100
AcDbLine
 10
1.065631518781287
 20
7.26448044872969
 30
0.0
 11
1.065631518781287
 21
7.07698044872969
 31
0.0
  0
LINE
  5
147
330
108
100
AcDbEntity
  8
TEXT
100
AcDbLine
 10
0.8233106911879986
 20
7.12385544872969
 30
0.0
 11
0.8233106911879986
 21
7.21760544872969
 31
0.0
  0
LINE
  5
148
330
108
100
AcDbEntity
  8
TEXT
100
AcDbLine
 10
0.8233106911879986
 20
7.12385544872969
 30
0.0
 11
1.065631518781287
 21
7.07698044872969
 31
0.0
  0
LINE
  5
149
330
108
100
AcDbEntity
  8
TEXT
100
AcDbLine
 10
0.8233106911879986
 20
7.21760544872969
 30
0.0
 11
1.065631518781287
 21
7.26448044872969
 31
0.0
  0
LINE
  5
14A
330
108
100
AcDbEntity
  8
TEXT
  6
CENTER
100
AcDbLine
 10
0.5889356911879986
 20
7.056389515976311
 30
0.0
 11
0.5889356911879986
 21
7.290327922590398
 31
0.0
  0
LINE
  5
14B
330
108
100
AcDbEntity
  8
TEXT
  6
CENTER
100
AcDbLine
 10
0.4719755965241177
 20
7.17073044872969
 30
0.0
 11
1.198310691187998
 21
7.17073044872969
 31
0.0
  0
CIRCLE
  5
14C
330
108
100
AcDbEntity
  8
TEXT
100
AcDbCircle
 10
0.5889356911879986
 20
7.17073044872969
 30
0.0
 40
0.046875
  0
CIRCLE
  5
14D
330
108
100
AcDbEntity
  8
TEXT
100
AcDbCircle
 10
0.5889356911879986
 20
7.17073044872969
 30
0.0
 40
0.09375
  0
LINE
  5
14E
330
108
100
AcDbEntity
  8
TEXT
100
AcDbLine
 10
1.53125
 20
7.0525
 30
0.0
 11
1.53125
 21
7.3025
 31
0.0
  0
LINE
  5
14F
330
108
100
AcDbEntity
  8
TEXT
100
AcDbLine
 10
0.25
 20
7.0525
 30
0.0
 11
1.53125
 21
7.0525
 31
0.0
  0
ENDBLK
  5
151
330
108
100
AcDbEntity
  8
0
100
AcDbBlockEnd
  0
BLOCK
  5
17E
330
175
100
AcDbEntity
  8
0
100
AcDbBlockBegin
  2
*D2
 70
     1
 10
0.0
 20
0.0
 30
0.0
  3
*D2
  1

  0
LINE
  5
25C
330
175
100
AcDbEntity
  8
DIM
 62
     0
370
    -2
100
AcDbLine
 10
3.646626591469873
 20
3.591149270035795
 30
0.0
 11
3.357032192141526
 21
4.119270404300306
 31
0.0
  0
LINE
  5
25D
330
175
100
AcDbEntity
  8
DIM
 62
     0
370
    -2
100
AcDbLine
 10
3.357032192141526
 20
4.119270404300306
 30
0.0
 11
3.267032192141525
 21
4.119270404300306
 31
0.0
  0
SOLID
  5
25E
330
175
100
AcDbEntity
  8
DIM
 62
     0
100
AcDbTrace
 10
3.659778991956113
 20
3.598361368305338
 30
0.0
 11
3.633474190983633
 21
3.583937171766251
 31
0.0
 12
3.689899181087135
 22
3.512234867118355
 32
0.0
 13
3.689899181087135
 23
3.512234867118355
 33
0.0
  0
MTEXT
  5
25F
330
175
100
AcDbEntity
  8
DIM
 62
     0
100
AcDbMText
 10
3.012032192141524
 20
4.119270404300305
 30
0.0
 40
0.09
 41
0.0
 71
     5
 72
     1
  1
\A1;\U+22050.250
 73
     1
 44
1.0
  0
LINE
  5
260
330
175
100
AcDbEntity
  8
DIM
 62
     0
370
    -2
100
AcDbLine
 10
3.705
 20
3.40263152973302
 30
0.0
 11
3.794999999999999
 21
3.40263152973302
 31
0.0
  0
LINE
  5
261
330
175
100
AcDbEntity
  8
DIM
 62
     0
370
    -2
100
AcDbLine
 10
3.75
 20
3.35763152973302
 30
0.0
 11
3.749999999999999
 21
3.44763152973302
 31
0.0
  0
POINT
  5
262
330
175
100
AcDbEntity
  8
Defpoints
 62
     0
100
AcDbPoint
 10
3.689899181087135
 20
3.512234867118355
 30
0.0
  0
POINT
  5
263
330
175
100
AcDbEntity
  8
Defpoints
 62
     0
100
AcDbPoint
 10
3.810100818912865
 20
3.293028192347685
 30
0.0
  0
ENDBLK
  5
17F
330
175
100
AcDbEntity
  8
0
100
AcDbBlockEnd
  0
BLOCK
  5
225
330
220
100
AcDbEntity
  8
0
100
AcDbBlockBegin
  2
6-32-thread
 70
     0
 10
0.0
 20
0.0
 30
0.0
  3
6-32-thread
  1

  0
CIRCLE
  5
221
330
220
100
AcDbEntity
  8
0
  6
HIDDEN
100
AcDbCircle
 10
0.0
 20
0.0
 30
0.0
 40
0.069
  0
LINE
  5
222
330
220
100
AcDbEntity
  8
CENTER
100
AcDbLine
 10
0.0
 20
-0.1279832183029228
 30
0.0
 11
0.0
 21
0.1336872602465959
 31
0.0
  0
LINE
  5
223
330
220
100
AcDbEntity
  8
CENTER
100
AcDbLine
 10
-0.1318975397983451
 20
0.0
 30
0.0
 11
0.1232160353974194
 21
0.0
 31
0.0
  0
CIRCLE
  5
224
330
220
100
AcDbEntity
  8
0
100
AcDbCircle
 10
0.0
 20
0.0
 30
0.0
 40
0.052
  0
ENDBLK
  5
226
330
220
100
AcDbEntity
  8
0
100
AcDbBlockEnd
  0
BLOCK
  5
282
330
277
100
AcDbEntity
  8
0
100
AcDbBlockBegin
  2
*D4
 70
     1
 10
0.0
 20
0.0
 30
0.0
  3
*D4
  1

  0
LINE
  5
278
330
277
100
AcDbEntity
  8
DIM
 62
     0
370
    -2
100
AcDbLine
 10
5.118434495883438
 20
3.246381529733028
 30
0.0
 11
5.118434495883438
 21
2.895107611612766
 31
0.0
  0
LINE
  5
279
330
277
100
AcDbEntity
  8
DIM
 62
     0
370
    -2
100
AcDbLine
 10
6.118454856513437
 20
3.246381529733021
 30
0.0
 11
6.118454856513437
 21
2.895107611612766
 31
0.0
  0
LINE
  5
27A
330
277
100
AcDbEntity
  8
DIM
 62
     0
370
    -2
100
AcDbLine
 10
5.208434495883437
 20
2.985107611612766
 30
0.0
 11
5.430944676198437
 21
2.985107611612766
 31
0.0
  0
LINE
  5
27B
330
277
100
AcDbEntity
  8
DIM
 62
     0
370
    -2
100
AcDbLine
 10
6.028454856513437
 20
2.985107611612766
 30
0.0
 11
5.805944676198437
 21
2.985107611612766
 31
0.0
  0
SOLID
  5
27C
330
277
100
AcDbEntity
  8
DIM
 62
     0
100
AcDbTrace
 10
5.208434495883437
 20
3.000107611612766
 30
0.0
 11
5.208434495883437
 21
2.970107611612766
 31
0.0
 12
5.118434495883438
 22
2.985107611612766
 32
0.0
 13
5.118434495883438
 23
2.985107611612766
 33
0.0
  0
SOLID
  5
27D
330
277
100
AcDbEntity
  8
DIM
 62
     0
100
AcDbTrace
 10
6.028454856513437
 20
3.000107611612766
 30
0.0
 11
6.028454856513437
 21
2.970107611612766
 31
0.0
 12
6.118454856513437
 22
2.985107611612766
 32
0.0
 13
6.118454856513437
 23
2.985107611612766
 33
0.0
  0
MTEXT
  5
27E
330
277
100
AcDbEntity
  8
DIM
 62
     0
100
AcDbMText
 10
5.618444676198437
 20
2.985107611612766
 30
0.0
 40
0.09
 41
0.0
 71
     5
 72
     1
  1
\A1;1.000
 73
     1
 44
1.0
  0
POINT
  5
27F
330
277
100
AcDbEntity
  8
Defpoints
 62
     0
100
AcDbPoint
 10
5.118434495883438
 20
3.277631529733028
 30
0.0
  0
POINT
  5
280
330
277
100
AcDbEntity
  8
Defpoints
 62
     0
100
AcDbPoint
 10
6.118454856513437
 20
3.277631529733021
 30
0.0
  0
POINT
  5
281
330
277
100
AcDbEntity
  8
Defpoints
 62
     0
100
AcDbPoint
 10
6.118454856513437
 20
2.985107611612766
 30
0.0
  0
ENDBLK
  5
283
330
277
100
AcDbEntity
  8
0
100
AcDbBlockEnd
  0
BLOCK
  5
2B7
330
2AE
100
AcDbEntity
  8
0
100
AcDbBlockBegin
  2
*D6
 70
     1
 10
0.0
 20
0.0
 30
0.0
  3
*D6
  1

  0
LINE
  5
2AF
330
2AE
100
AcDbEntity
  8
DIM
 62
     0
370
    -2
100
AcDbLine
 10
3.659011834726805
 20
3.488341236185778
 30
0.0
 11
3.346722637345924
 21
3.782513729449232
 31
0.0
  0
LINE
  5
2B0
330
2AE
100
AcDbEntity
  8
DIM
 62
     0
370
    -2
100
AcDbLine
 10
3.346722637345924
 20
3.782513729449232
 30
0.0
 11
3.256722637345925
 21
3.782513729449232
 31
0.0
  0
SOLID
  5
2B1
330
2AE
100
AcDbEntity
  8
DIM
 62
     0
100
AcDbTrace
 10
3.669296999501136
 20
3.499259816018561
 30
0.0
 11
3.648726669952475
 21
3.477422656352995
 31
0.0
 12
3.724523313723505
 22
3.426630247539793
 32
0.0
 13
3.724523313723505
 23
3.426630247539793
 33
0.0
  0
MTEXT
  5
2B2
330
2AE
100
AcDbEntity
  8
DIM
 62
     0
100
AcDbMText
 10
3.009222637345925
 20
3.782513729449232
 30
0.0
 40
0.09
 41
0.0
 71
     5
 72
     1
  1
\A1;\U+22050.070
 73
     1
 44
1.0
  0
LINE
  5
2B3
330
2AE
100
AcDbEntity
  8
DIM
 62
     0
370
    -2
100
AcDbLine
 10
3.705
 20
3.402631529733021
 30
0.0
 11
3.794999999999999
 21
3.402631529733021
 31
0.0
  0
LINE
  5
2B4
330
2AE
100
AcDbEntity
  8
DIM
 62
     0
370
    -2
100
AcDbLine
 10
3.749999999999999
 20
3.357631529733021
 30
0.0
 11
3.75
 21
3.447631529733021
 31
0.0
  0
POINT
  5
2B5
330
2AE
100
AcDbEntity
  8
Defpoints
 62
     0
100
AcDbPoint
 10
3.724523313723505
 20
3.426630247539793
 30
0.0
  0
POINT
  5
2B6
330
2AE
100
AcDbEntity
  8
Defpoints
 62
     0
100
AcDbPoint
 10
3.775476686276494
 20
3.378632811926249
 30
0.0
  0
ENDBLK
  5
2B8
330
2AE
100
AcDbEntity
  8
0
100
AcDbBlockEnd
  0
BLOCK
  5
2CC
330
2C1
100
AcDbEntity
  8
0
100
AcDbBlockBegin
  2
*D7
 70
     1
 10
0.0
 20
0.0
 30
0.0
  3
*D7
  1

  0
LINE
  5
2C2
330
2C1
100
AcDbEntity
  8
DIM
 62
     0
370
    -2
100
AcDbLine
 10
4.993391405333428
 20
3.371381529733019
 30
0.0
 11
4.993391405333428
 21
2.677230090010572
 31
0.0
  0
LINE
  5
2C3
330
2C1
100
AcDbEntity
  8
DIM
 62
     0
370
    -2
100
AcDbLine
 10
6.118454856513437
 20
3.246381529733021
 30
0.0
 11
6.118454856513437
 21
2.677230090010572
 31
0.0
  0
LINE
  5
2C4
330
2C1
100
AcDbEntity
  8
DIM
 62
     0
370
    -2
100
AcDbLine
 10
5.083391405333427
 20
2.767230090010572
 30
0.0
 11
5.360923130923432
 21
2.767230090010572
 31
0.0
  0
LINE
  5
2C5
330
2C1
100
AcDbEntity
  8
DIM
 62
     0
370
    -2
100
AcDbLine
 10
6.028454856513437
 20
2.767230090010572
 30
0.0
 11
5.750923130923433
 21
2.767230090010572
 31
0.0
  0
SOLID
  5
2C6
330
2C1
100
AcDbEntity
  8
DIM
 62
     0
100
AcDbTrace
 10
5.083391405333427
 20
2.782230090010572
 30
0.0
 11
5.083391405333427
 21
2.752230090010572
 31
0.0
 12
4.993391405333428
 22
2.767230090010572
 32
0.0
 13
4.993391405333428
 23
2.767230090010572
 33
0.0
  0
SOLID
  5
2C7
330
2C1
100
AcDbEntity
  8
DIM
 62
     0
100
AcDbTrace
 10
6.028454856513437
 20
2.782230090010572
 30
0.0
 11
6.028454856513437
 21
2.752230090010572
 31
0.0
 12
6.118454856513437
 22
2.767230090010572
 32
0.0
 13
6.118454856513437
 23
2.767230090010572
 33
0.0
  0
MTEXT
  5
2C8
330
2C1
100
AcDbEntity
  8
DIM
 62
     0
100
AcDbMText
 10
5.555923130923432
 20
2.767230090010572
 30
0.0
 40
0.09
 41
0.0
 71
     5
 72
     1
  1
\A1;1.125
 73
     1
 44
1.0
  0
POINT
  5
2C9
330
2C1
100
AcDbEntity
  8
Defpoints
 62
     0
100
AcDbPoint
 10
4.993391405333428
 20
3.402631529733019
 30
0.0
  0
POINT
  5
2CA
330
2C1
100
AcDbEntity
  8
Defpoints
 62
     0
100
AcDbPoint
 10
6.118454856513437
 20
3.277631529733021
 30
0.0
  0
POINT
  5
2CB
330
2C1
100
AcDbEntity
  8
Defpoints
 62
     0
100
AcDbPoint
 10
6.118454856513437
 20
2.767230090010572
 30
0.0
  0
ENDBLK
  5
2CD
330
2C1
100
AcDbEntity
  8
0
100
AcDbBlockEnd
  0
BLOCK
  5
2D8
330
2CF
100
AcDbEntity
  8
0
100
AcDbBlockBegin
  2
*D8
 70
     1
 10
0.0
 20
0.0
 30
0.0
  3
*D8
  1

  0
LINE
  5
2D0
330
2CF
100
AcDbEntity
  8
DIM
 62
     0
370
    -2
100
AcDbLine
 10
4.944801961821617
 20
3.495571321713555
 30
0.0
 11
4.683429936807408
 21
3.786180525624807
 31
0.0
  0
LINE
  5
2D1
330
2CF
100
AcDbEntity
  8
DIM
 62
     0
370
    -2
100
AcDbLine
 10
4.683429936807408
 20
3.786180525624807
 30
0.0
 11
4.593429936807408
 21
3.786180525624807
 31
0.0
  0
SOLID
  5
2D2
330
2CF
100
AcDbEntity
  8
DIM
 62
     0
100
AcDbTrace
 10
4.955954736859281
 20
3.505602054934972
 30
0.0
 11
4.933649186783952
 21
3.485540588492137
 31
0.0
 12
5.004986361150121
 22
3.428654671487568
 32
0.0
 13
5.004986361150121
 23
3.428654671487568
 33
0.0
  0
MTEXT
  5
2D3
330
2CF
100
AcDbEntity
  8
DIM
 62
     0
100
AcDbMText
 10
4.345929936807406
 20
3.786180525624804
 30
0.0
 40
0.09
 41
0.0
 71
     5
 72
     1
  1
\A1;\U+22050.070
 73
     1
 44
1.0
  0
LINE
  5
2D4
330
2CF
100
AcDbEntity
  8
DIM
 62
     0
370
    -2
100
AcDbLine
 10
4.98339140533343
 20
3.402631529733016
 30
0.0
 11
5.073391405333429
 21
3.402631529733016
 31
0.0
  0
LINE
  5
2D5
330
2CF
100
AcDbEntity
  8
DIM
 62
     0
370
    -2
100
AcDbLine
 10
5.028391405333429
 20
3.357631529733017
 30
0.0
 11
5.028391405333428
 21
3.447631529733016
 31
0.0
  0
POINT
  5
2D6
330
2CF
100
AcDbEntity
  8
Defpoints
 62
     0
100
AcDbPoint
 10
5.004986361150121
 20
3.428654671487568
 30
0.0
  0
POINT
  5
2D7
330
2CF
100
AcDbEntity
  8
Defpoints
 62
     0
100
AcDbPoint
 10
5.051796449516738
 20
3.376608387978466
 30
0.0
  0
ENDBLK
  5
2D9
330
2CF
100
AcDbEntity
  8
0
100
AcDbBlockEnd
  0
ENDSEC
  0
SECTION
  2
ENTITIES
  0
INSERT
  5
152
330
1F
100
AcDbEntity
  8
0
100
AcDbBlockReference
 66
     1
  2
a-border
 10
0.0
 20
0.0
 30
0.0
  0
ATTRIB
  5
153
330
152
100
AcDbEntity
  8
TEXT
100
AcDbText
 10
9.166299999999999
 20
0.2313
 30
0.0
 40
0.06
  1
MOD-PICK-RP-15
100
AcDbAttribute
  2
FILE
 70
     0
  0
ATTRIB
  5
154
330
152
100
AcDbEntity
  8
TEXT
100
AcDbText
 10
7.8768
 20
0.4075
 30
0.0
 40
0.03
  1
07-24-03
100
AcDbAttribute
  2
DATE
 70
     0
  0
ATTRIB
  5
155
330
152
100
AcDbEntity
  8
TEXT
100
AcDbText
 10
7.381999999999999
 20
0.4188
 30
0.0
 40
0.06
  1
S. KYRE
100
AcDbAttribute
  2
NAME
 70
     0
  0
ATTRIB
  5
156
330
152
100
AcDbEntity
  8
TEXT
100
AcDbText
 10
8.3488
 20
0.0891
 30
0.0
 40
0.06
  1
1=1
100
AcDbAttribute
  2
SCALE
 70
     0
  0
ATTRIB
  5
157
330
152
100
AcDbEntity
  8
TEXT
100
AcDbText
 10
8.3602
 20
0.2256
 30
0.0
 40
0.06
  1
ROD
100
AcDbAttribute
  2
DIRECTORY
 70
     0
  0
SEQEND
  5
158
330
152
100
AcDbEntity
  8
0
  0
MTEXT
  5
165
330
1F
100
AcDbEntity
  8
TEXT
100
AcDbMText
 10
9.182482401868279
 20
0.5457504730513368
 30
0.0
 40
0.06
 41
2.135899999999999
 71
     5
 72
     5
  1
COOLING BLOCK PIN FOR UP FACING R-PHI MODULE PICK UP TOOL
 73
     1
 44
1.0
  0
LINE
  5
16E
330
1F
100
AcDbEntity
  8
CENTER
100
AcDbLine
 10
3.293010769217858
 20
3.402631529733021
 30
0.0
 11
8.78340349966869
 21
3.402631529733014
 31
0.0
  0
LINE
  5
170
330
1F
100
AcDbEntity
  8
CENTER
100
AcDbLine
 10
3.75
 20
3.125
 30
0.0
 11
3.75
 21
3.75
 31
0.0
  0
CIRCLE
  5
171
330
1F
100
AcDbEntity
  8
downstop
100
AcDbCircle
 10
3.75
 20
3.40263152973302
 30
0.0
 40
0.125
  0
DIMENSION
  5
174
330
1F
100
AcDbEntity
  8
DIM
100
AcDbDimension
  2
*D2
 10
3.810100818912865
 20
3.293028192347685
 30
0.0
 11
3.012032192141524
 21
4.119270404300305
 31
0.0
 70
   163
 71
     5
 42
0.2500000000000031
  3
SU1$3
100
AcDbDiametricDimension
 15
3.689899181087135
 25
3.512234867118355
 35
0.0
 40
0.0
  0
MTEXT
  5
1A8
330
1F
100
AcDbEntity
  8
TEXT
100
AcDbMText
 10
1.25
 20
1.625
 30
0.0
 40
0.18
 41
5.25
 71
     1
 72
     5
  1
MATERIAL: .250" DIA. DRILL ROD\P1 EA REQUIRED
 73
     1
 44
1.0
  0
LWPOLYLINE
  5
273
330
1F
100
AcDbEntity
  8
downstop
100
AcDbPolyline
 90
        4
 70
     1
 43
0.0
 10
5.118434495883438
 20
3.277631529733028
 10
5.118434495883438
 20
3.527631529733028
 10
6.118454856513437
 20
3.527631529733021
 10
6.118454856513437
 20
3.277631529733021
  0
LWPOLYLINE
  5
274
330
1F
100
AcDbEntity
  8
downstop
100
AcDbPolyline
 90
        4
 70
     0
 43
0.0
 10
5.028391405333429
 20
3.36763152973302
 10
5.118434495883438
 20
3.36763152973302
 10
5.118434495883438
 20
3.43763152973302
 10
5.028391405333429
 20
3.43763152973302
  0
DIMENSION
  5
276
330
1F
100
AcDbEntity
  8
DIM
100
AcDbDimension
  2
*D4
 10
6.118454856513437
 20
2.985107611612766
 30
0.0
 11
5.618444676198437
 21
2.985107611612766
 31
0.0
 70
    32
 71
     5
 42
1.000020360629999
  3
SU1
100
AcDbAlignedDimension
 13
5.118434495883438
 23
3.277631529733028
 33
0.0
 14
6.118454856513437
 24
3.277631529733021
 34
0.0
100
AcDbRotatedDimension
  0
CIRCLE
  5
29B
330
1F
100
AcDbEntity
  8
downstop
100
AcDbCircle
 10
3.75
 20
3.40263152973302
 30
0.0
 40
0.035
  0
DIMENSION
  5
2AD
330
1F
100
AcDbEntity
  8
DIM
100
AcDbDimension
  2
*D6
 10
3.775476686276494
 20
3.378632811926249
 30
0.0
 11
3.009222637345925
 21
3.782513729449232
 31
0.0
 70
   163
 71
     5
 42
0.0699999999999994
  3
SU1$3
100
AcDbDiametricDimension
 15
3.724523313723505
 25
3.426630247539793
 35
0.0
 40
0.0
  0
ARC
  5
2BF
330
1F
100
AcDbEntity
  8
downstop
100
AcDbCircle
 10
5.028391405333429
 20
3.402631529733018
 30
0.0
 40
0.0350000000000015
100
AcDbArc
 50
90.0
 51
270.0
  0
DIMENSION
  5
2C0
330
1F
100
AcDbEntity
  8
DIM
100
AcDbDimension
  2
*D7
 10
6.118454856513437
 20
2.767230090010572
 30
0.0
 11
5.555923130923432
 21
2.767230090010572
 31
0.0
 70
    32
 71
     5
 42
1.125063451180009
  3
SU1
100
AcDbAlignedDimension
 13
4.993391405333428
 23
3.402631529733019
 33
0.0
 14
6.118454856513437
 24
3.277631529733021
 34
0.0
100
AcDbRotatedDimension
  0
DIMENSION
  5
2CE
330
1F
100
AcDbEntity
  8
DIM
100
AcDbDimension
  2
*D8
 10
5.051796449516738
 20
3.376608387978466
 30
0.0
 11
4.345929936807406
 21
3.786180525624804
 31
0.0
 70
   163
 71
     5
 42
0.0700000000000021
  3
SU1$3
100
AcDbDiametricDimension
 15
5.004986361150121
 25
3.428654671487568
 35
0.0
 40
0.0
  0
ENDSEC
  0
SECTION
  2
OBJECTS
  0
DICTIONARY
  5
C
330
0
100
AcDbDictionary
281
     1
  3
ACAD_GROUP
350
D
  3
ACAD_LAYOUT
350
1A
  3
ACAD_MLINESTYLE
350
17
  3
ACAD_PLOTSETTINGS
350
19
  3
ACAD_PLOTSTYLENAME
350
E
  3
AcadDim
350
EE
  0
DICTIONARY
  5
D
102
{ACAD_REACTORS
330
C
102
}
330
C
100
AcDbDictionary
281
     1
  0
DICTIONARY
  5
1A
102
{ACAD_REACTORS
330
C
102
}
330
C
100
AcDbDictionary
281
     1
  3
Layout1
350
1E
  3
Layout2
350
26
  3
Model
350
22
  0
DICTIONARY
  5
17
102
{ACAD_REACTORS
330
C
102
}
330
C
100
AcDbDictionary
281
     1
  3
Standard
350
18
  0
DICTIONARY
  5
19
102
{ACAD_REACTORS
330
C
102
}
330
C
100
AcDbDictionary
281
     1
  0
ACDBDICTIONARYWDFLT
  5
E
102
{ACAD_REACTORS
330
C
102
}
330
C
100
AcDbDictionary
281
     1
  3
Normal
350
F
100
AcDbDictionaryWithDefault
340
F
  0
XRECORD
  5
EE
102
{ACAD_REACTORS
330
C
102
}
330
C
100
AcDbXrecord
280
     1
 90
   990106
  3

 60
     0
 61
     0
 62
     2
 63
     2
 64
     0
 65
     0
 66
     0
 67
     3
 68
     1
 69
     0
 70
     0
 71
     0
 72
     0
 40
0.0
170
     2
340
0
  0
LAYOUT
  5
1E
102
{ACAD_REACTORS
330
1A
102
}
330
1A
100
AcDbPlotSettings
  1

  2

  4

  6

 40
0.0
 41
0.0
 42
0.0
 43
0.0
 44
0.0
 45
0.0
 46
0.0
 47
0.0
 48
0.0
 49
0.0
140
0.0
141
0.0
142
1.0
143
1.0
 70
   688
 72
     0
 73
     0
 74
     5
  7
style-1.ctb
 75
    16
147
1.0
148
0.0
149
0.0
100
AcDbLayout
  1
Layout1
 70
     1
 71
     1
 10
0.0
 20
0.0
 11
12.0
 21
9.0
 12
0.0
 22
0.0
 32
0.0
 14
1.000000000000000E+20
 24
1.000000000000000E+20
 34
1.000000000000000E+20
 15
-1.000000000000000E+20
 25
-1.000000000000000E+20
 35
-1.000000000000000E+20
146
0.0
 13
0.0
 23
0.0
 33
0.0
 16
1.0
 26
0.0
 36
0.0
 17
0.0
 27
1.0
 37
0.0
 76
     0
330
1B
  0
LAYOUT
  5
26
102
{ACAD_REACTORS
330
1A
102
}
330
1A
100
AcDbPlotSettings
  1

  2

  4

  6

 40
0.0
 41
0.0
 42
0.0
 43
0.0
 44
0.0
 45
0.0
 46
0.0
 47
0.0
 48
0.0
 49
0.0
140
0.0
141
0.0
142
1.0
143
1.0
 70
   688
 72
     0
 73
     0
 74
     5
  7
style-1.ctb
 75
    16
147
1.0
148
0.0
149
0.0
100
AcDbLayout
  1
Layout2
 70
     1
 71
     2
 10
0.0
 20
0.0
 11
12.0
 21
9.0
 12
0.0
 22
0.0
 32
0.0
 14
0.0
 24
0.0
 34
0.0
 15
0.0
 25
0.0
 35
0.0
146
0.0
 13
0.0
 23
0.0
 33
0.0
 16
1.0
 26
0.0
 36
0.0
 17
0.0
 27
1.0
 37
0.0
 76
     0
330
23
  0
LAYOUT
  5
22
102
{ACAD_REACTORS
330
1A
102
}
330
1A
100
AcDbPlotSettings
  1

  2
HP OfficeJet G Series
  4
Letter
  6

 40
7.143749713897705
 41
12.47774982452392
 42
7.14373779296875
 43
3.17498779296875
 44
215.8999938964843
 45
279.3999938964843
 46
8.889999999999998
 47
4.825999999999999
 48
0.0
 49
0.0
140
0.0
141
0.0
142
1.0
143
1.0
 70
 11956
 72
     0
 73
     1
 74
     1
  7
style-1.ctb
 75
    16
147
1.0
148
-6.33914866626629
149
-1.580136642488809
100
AcDbLayout
  1
Model
 70
     1
 71
     0
 10
0.0
 20
0.0
 11
12.0
 21
9.0
 12
0.0
 22
0.0
 32
0.0
 14
0.0
 24
0.0
 34
0.0
 15
0.0
 25
0.0
 35
0.0
146
0.0
 13
0.0
 23
0.0
 33
0.0
 16
1.0
 26
0.0
 36
0.0
 17
0.0
 27
1.0
 37
0.0
 76
     0
330
1F
  0
MLINESTYLE
  5
18
102
{ACAD_REACTORS
330
17
102
}
330
17
100
AcDbMlineStyle
  2
STANDARD
 70
     0
  3

 62
   256
 51
90.0
 52
90.0
 71
     2
 49
0.5
 62
   256
  6
BYLAYER
 49
-0.5
 62
   256
  6
BYLAYER
  0
ACDBPLACEHOLDER
  5
F
102
{ACAD_REACTORS
330
E
102
}
330
E
  0
ENDSEC
  0
EOF
