  0
SECTION
  2
HEADER
  9
$ACADVER
  1
AC1015
  9
$ACADMAINTVER
 70
     6
  9
$DWGCODEPAGE
  3
ANSI_1252
  9
$INSBASE
 10
0.0
 20
0.0
 30
0.0
  9
$EXTMIN
 10
0.671218949685823
 20
0.1243286623204227
 30
-0.0000000000000053
  9
$EXTMAX
 10
31.17315681298864
 20
20.12585454006429
 30
0.0000000000000099
  9
$LIMMIN
 10
0.0
 20
0.0
  9
$LIMMAX
 10
33.0
 20
21.0
  9
$ORTHOMODE
 70
     0
  9
$REGENMODE
 70
     1
  9
$FILLMODE
 70
     1
  9
$QTEXTMODE
 70
     0
  9
$MIRRTEXT
 70
     1
  9
$LTSCALE
 40
0.125
  9
$ATTMODE
 70
     1
  9
$TEXTSIZE
 40
0.2
  9
$TRACEWID
 40
0.05
  9
$TEXTSTYLE
  7
Standard
  9
$CLAYER
  8
TEXT
  9
$CELTYPE
  6
ByLayer
  9
$CECOLOR
 62
   256
  9
$CELTSCALE
 40
1.0
  9
$DISPSILH
 70
     0
  9
$DIMSCALE
 40
1.0
  9
$DIMASZ
 40
0.18
  9
$DIMEXO
 40
0.0625
  9
$DIMDLI
 40
0.38
  9
$DIMRND
 40
0.0
  9
$DIMDLE
 40
0.0
  9
$DIMEXE
 40
0.18
  9
$DIMTP
 40
0.001
  9
$DIMTM
 40
0.001
  9
$DIMTXT
 40
0.18
  9
$DIMCEN
 40
0.09
  9
$DIMTSZ
 40
0.0
  9
$DIMTOL
 70
     0
  9
$DIMLIM
 70
     0
  9
$DIMTIH
 70
     1
  9
$DIMTOH
 70
     1
  9
$DIMSE1
 70
     0
  9
$DIMSE2
 70
     0
  9
$DIMTAD
 70
     0
  9
$DIMZIN
 70
     0
  9
$DIMBLK
  1

  9
$DIMASO
 70
     1
  9
$DIMSHO
 70
     1
  9
$DIMPOST
  1

  9
$DIMAPOST
  1
mm
  9
$DIMALT
 70
     0
  9
$DIMALTD
 70
     2
  9
$DIMALTF
 40
25.4
  9
$DIMLFAC
 40
1.0
  9
$DIMTOFL
 70
     0
  9
$DIMTVP
 40
0.0
  9
$DIMTIX
 70
     0
  9
$DIMSOXD
 70
     0
  9
$DIMSAH
 70
     0
  9
$DIMBLK1
  1

  9
$DIMBLK2
  1

  9
$DIMSTYLE
  2
SU1
  9
$DIMCLRD
 70
     0
  9
$DIMCLRE
 70
     0
  9
$DIMCLRT
 70
     0
  9
$DIMTFAC
 40
1.0
  9
$DIMGAP
 40
0.09
  9
$DIMJUST
 70
     0
  9
$DIMSD1
 70
     0
  9
$DIMSD2
 70
     0
  9
$DIMTOLJ
 70
     1
  9
$DIMTZIN
 70
     0
  9
$DIMALTZ
 70
     0
  9
$DIMALTTZ
 70
     0
  9
$DIMUPT
 70
     0
  9
$DIMDEC
 70
     3
  9
$DIMTDEC
 70
     3
  9
$DIMALTU
 70
     2
  9
$DIMALTTD
 70
     2
  9
$DIMTXSTY
  7
Standard
  9
$DIMAUNIT
 70
     0
  9
$DIMADEC
 70
     0
  9
$DIMALTRND
 40
0.0
  9
$DIMAZIN
 70
     0
  9
$DIMDSEP
 70
    46
  9
$DIMATFIT
 70
     0
  9
$DIMFRAC
 70
     0
  9
$DIMLDRBLK
  1

  9
$DIMLUNIT
 70
     2
  9
$DIMLWD
 70
    -2
  9
$DIMLWE
 70
    -2
  9
$DIMTMOVE
 70
     0
  9
$LUNITS
 70
     2
  9
$LUPREC
 70
     4
  9
$SKETCHINC
 40
0.1
  9
$FILLETRAD
 40
0.5
  9
$AUNITS
 70
     0
  9
$AUPREC
 70
     0
  9
$MENU
  1
.
  9
$ELEVATION
 40
0.0
  9
$PELEVATION
 40
0.0
  9
$THICKNESS
 40
0.0
  9
$LIMCHECK
 70
     0
  9
$CHAMFERA
 40
0.5
  9
$CHAMFERB
 40
0.5
  9
$CHAMFERC
 40
1.0
  9
$CHAMFERD
 40
0.0
  9
$SKPOLY
 70
     0
  9
$TDCREATE
 40
2452832.354201562
  9
$TDUCREATE
 40
2452832.687534896
  9
$TDUPDATE
 40
2452951.376153241
  9
$TDUUPDATE
 40
2452951.709486574
  9
$TDINDWG
 40
0.2790758796
  9
$TDUSRTIMER
 40
0.2790758796
  9
$USRTIMER
 70
     1
  9
$ANGBASE
 50
0.0
  9
$ANGDIR
 70
     0
  9
$PDMODE
 70
     0
  9
$PDSIZE
 40
0.0
  9
$PLINEWID
 40
0.0
  9
$SPLFRAME
 70
     0
  9
$SPLINETYPE
 70
     6
  9
$SPLINESEGS
 70
     8
  9
$HANDSEED
  5
DA0
  9
$SURFTAB1
 70
     6
  9
$SURFTAB2
 70
     6
  9
$SURFTYPE
 70
     6
  9
$SURFU
 70
     6
  9
$SURFV
 70
     6
  9
$UCSBASE
  2

  9
$UCSNAME
  2

  9
$UCSORG
 10
0.0
 20
0.0
 30
0.0
  9
$UCSXDIR
 10
1.0
 20
0.0
 30
0.0
  9
$UCSYDIR
 10
0.0
 20
1.0
 30
0.0
  9
$UCSORTHOREF
  2

  9
$UCSORTHOVIEW
 70
     0
  9
$UCSORGTOP
 10
0.0
 20
0.0
 30
0.0
  9
$UCSORGBOTTOM
 10
0.0
 20
0.0
 30
0.0
  9
$UCSORGLEFT
 10
0.0
 20
0.0
 30
0.0
  9
$UCSORGRIGHT
 10
0.0
 20
0.0
 30
0.0
  9
$UCSORGFRONT
 10
0.0
 20
0.0
 30
0.0
  9
$UCSORGBACK
 10
0.0
 20
0.0
 30
0.0
  9
$PUCSBASE
  2

  9
$PUCSNAME
  2

  9
$PUCSORG
 10
0.0
 20
0.0
 30
0.0
  9
$PUCSXDIR
 10
1.0
 20
0.0
 30
0.0
  9
$PUCSYDIR
 10
0.0
 20
1.0
 30
0.0
  9
$PUCSORTHOREF
  2

  9
$PUCSORTHOVIEW
 70
     0
  9
$PUCSORGTOP
 10
0.0
 20
0.0
 30
0.0
  9
$PUCSORGBOTTOM
 10
0.0
 20
0.0
 30
0.0
  9
$PUCSORGLEFT
 10
0.0
 20
0.0
 30
0.0
  9
$PUCSORGRIGHT
 10
0.0
 20
0.0
 30
0.0
  9
$PUCSORGFRONT
 10
0.0
 20
0.0
 30
0.0
  9
$PUCSORGBACK
 10
0.0
 20
0.0
 30
0.0
  9
$USERI1
 70
     0
  9
$USERI2
 70
     0
  9
$USERI3
 70
     0
  9
$USERI4
 70
     0
  9
$USERI5
 70
     0
  9
$USERR1
 40
0.0
  9
$USERR2
 40
0.0
  9
$USERR3
 40
0.0
  9
$USERR4
 40
0.0
  9
$USERR5
 40
0.0
  9
$WORLDVIEW
 70
     1
  9
$SHADEDGE
 70
     3
  9
$SHADEDIF
 70
    70
  9
$TILEMODE
 70
     1
  9
$MAXACTVP
 70
    64
  9
$PINSBASE
 10
0.0
 20
0.0
 30
0.0
  9
$PLIMCHECK
 70
     0
  9
$PEXTMIN
 10
1.000000000000000E+20
 20
1.000000000000000E+20
 30
1.000000000000000E+20
  9
$PEXTMAX
 10
-1.000000000000000E+20
 20
-1.000000000000000E+20
 30
-1.000000000000000E+20
  9
$PLIMMIN
 10
0.0
 20
0.0
  9
$PLIMMAX
 10
12.0
 20
9.0
  9
$UNITMODE
 70
     0
  9
$VISRETAIN
 70
     1
  9
$PLINEGEN
 70
     0
  9
$PSLTSCALE
 70
     1
  9
$TREEDEPTH
 70
  3020
  9
$CMLSTYLE
  2
Standard
  9
$CMLJUST
 70
     0
  9
$CMLSCALE
 40
1.0
  9
$PROXYGRAPHICS
 70
     1
  9
$MEASUREMENT
 70
     0
  9
$CELWEIGHT
370
    -1
  9
$ENDCAPS
280
     0
  9
$JOINSTYLE
280
     0
  9
$LWDISPLAY
290
     0
  9
$INSUNITS
 70
     1
  9
$HYPERLINKBASE
  1

  9
$STYLESHEET
  1
style-1.ctb
  9
$XEDIT
290
     1
  9
$CEPSNTYPE
380
     0
  9
$PSTYLEMODE
290
     1
  9
$FINGERPRINTGUID
  2
{FDEAD576-A652-11D2-9A35-0060089B3A3F}
  9
$VERSIONGUID
  2
{760854BD-2D10-41CD-B6DA-AF02630E2477}
  9
$EXTNAMES
290
     1
  9
$PSVPSCALE
 40
0.0
  9
$OLESTARTUP
290
     0
  0
ENDSEC
  0
SECTION
  2
CLASSES
  0
CLASS
  1
ACDBDICTIONARYWDFLT
  2
AcDbDictionaryWithDefault
  3
AutoCAD 2000
 90
        0
280
     0
281
     0
  0
CLASS
  1
ACDBPLACEHOLDER
  2
AcDbPlaceHolder
  3
AutoCAD 2000
 90
        0
280
     0
281
     0
  0
CLASS
  1
LAYOUT
  2
AcDbLayout
  3
AutoCAD 2000
 90
        0
280
     0
281
     0
  0
ENDSEC
  0
SECTION
  2
TABLES
  0
TABLE
  2
VPORT
  5
8
330
0
100
AcDbSymbolTable
 70
     2
  0
VPORT
  5
D9F
330
8
100
AcDbSymbolTableRecord
100
AcDbViewportTableRecord
  2
*Active
 70
     0
 10
0.0
 20
0.0
 11
1.0
 21
1.0
 12
15.92218788133723
 22
10.12509160119235
 13
0.0
 23
0.0
 14
0.125
 24
0.125
 15
1.0
 25
1.0
 16
0.0
 26
0.0
 36
1.0
 17
0.0
 27
0.0
 37
0.0
 40
20.13104668607958
 41
1.629473684210526
 42
50.0
 43
0.0
 44
0.0
 50
0.0
 51
0.0
 71
     0
 72
   100
 73
     1
 74
     3
 75
     0
 76
     1
 77
     0
 78
     0
281
     0
 65
     1
110
0.0
120
0.0
130
0.0
111
1.0
121
0.0
131
0.0
112
0.0
122
1.0
132
0.0
 79
     0
146
0.0
  0
ENDTAB
  0
TABLE
  2
LTYPE
  5
5
330
0
100
AcDbSymbolTable
 70
     3
  0
LTYPE
  5
14
330
5
100
AcDbSymbolTableRecord
100
AcDbLinetypeTableRecord
  2
ByBlock
 70
     0
  3

 72
    65
 73
     0
 40
0.0
  0
LTYPE
  5
15
330
5
100
AcDbSymbolTableRecord
100
AcDbLinetypeTableRecord
  2
ByLayer
 70
     0
  3

 72
    65
 73
     0
 40
0.0
  0
LTYPE
  5
16
330
5
100
AcDbSymbolTableRecord
100
AcDbLinetypeTableRecord
  2
Continuous
 70
     0
  3
Solid line
 72
    65
 73
     0
 40
0.0
  0
LTYPE
  5
48
330
5
100
AcDbSymbolTableRecord
100
AcDbLinetypeTableRecord
  2
CENTER
 70
     0
  3
____ _ ____ _ ____ _ ____ _ ____ _ ____ _ ____ 
 72
    65
 73
     4
 40
2.0
 49
1.25
 74
     0
 49
-0.25
 74
     0
 49
0.25
 74
     0
 49
-0.25
 74
     0
  0
LTYPE
  5
F9
330
5
100
AcDbSymbolTableRecord
100
AcDbLinetypeTableRecord
  2
HIDDEN
 70
     0
  3
Hidden __ __ __ __ __ __ __ __ __ __ __ __ __ _
 72
    65
 73
     2
 40
0.375
 49
0.25
 74
     0
 49
-0.125
 74
     0
  0
ENDTAB
  0
TABLE
  2
LAYER
  5
2
330
0
100
AcDbSymbolTable
 70
    12
  0
LAYER
  5
10
330
2
100
AcDbSymbolTableRecord
100
AcDbLayerTableRecord
  2
0
 70
     0
 62
     7
  6
Continuous
370
    -3
390
F
  0
LAYER
  5
49
330
2
100
AcDbSymbolTableRecord
100
AcDbLayerTableRecord
  2
TEXT
 70
     0
 62
     7
  6
Continuous
370
    -3
390
F
  0
LAYER
  5
4A
330
2
100
AcDbSymbolTableRecord
100
AcDbLayerTableRecord
  2
BORDER
 70
     0
 62
     8
  6
Continuous
370
    -3
390
F
  0
LAYER
  5
A1
330
2
100
AcDbSymbolTableRecord
100
AcDbLayerTableRecord
  2
Defpoints
 70
     0
 62
     7
  6
Continuous
290
     0
370
    -3
390
F
  0
LAYER
  5
D8
330
2
100
AcDbSymbolTableRecord
100
AcDbLayerTableRecord
  2
DIM
 70
     0
 62
     3
  6
Continuous
370
    -3
390
F
  0
LAYER
  5
D9
330
2
100
AcDbSymbolTableRecord
100
AcDbLayerTableRecord
  2
CENTER
 70
     0
 62
     1
  6
CENTER
370
    -3
390
F
  0
LAYER
  5
166
330
2
100
AcDbSymbolTableRecord
100
AcDbLayerTableRecord
  2
VAC-CUP
 70
     1
 62
     5
  6
Continuous
370
    -3
390
F
  0
LAYER
  5
167
330
2
100
AcDbSymbolTableRecord
100
AcDbLayerTableRecord
  2
downstop
 70
     1
 62
     2
  6
Continuous
370
    -3
390
F
  0
LAYER
  5
168
330
2
100
AcDbSymbolTableRecord
100
AcDbLayerTableRecord
  2
handle
 70
     0
 62
     7
  6
Continuous
370
    -3
390
F
  0
LAYER
  5
6F9
330
2
100
AcDbSymbolTableRecord
100
AcDbLayerTableRecord
  2
vacuum-cup
 70
     1
 62
     5
  6
Continuous
370
    -3
390
F
  0
LAYER
  5
6FA
330
2
100
AcDbSymbolTableRecord
100
AcDbLayerTableRecord
  2
POST
 70
     0
 62
     7
  6
Continuous
370
    -3
390
F
  0
LAYER
  5
D83
330
2
100
AcDbSymbolTableRecord
100
AcDbLayerTableRecord
  2
SIDE-STOP
 70
     0
 62
     7
  6
Continuous
370
    -3
390
F
  0
ENDTAB
  0
TABLE
  2
STYLE
  5
3
330
0
100
AcDbSymbolTable
 70
     3
  0
STYLE
  5
11
330
3
100
AcDbSymbolTableRecord
100
AcDbTextStyleTableRecord
  2
Standard
 70
     0
 40
0.0
 41
1.0
 50
0.0
 71
     0
 42
0.2
  3
txt
  4

  0
STYLE
  5
4B
330
3
100
AcDbSymbolTableRecord
100
AcDbTextStyleTableRecord
  2
ADESK2
 70
     0
 40
0.0
 41
1.0
 50
0.0
 71
     0
 42
0.065
  3
romans
  4

  0
STYLE
  5
F8
330
3
100
AcDbSymbolTableRecord
100
AcDbTextStyleTableRecord
  2

 70
     1
 40
0.0
 41
1.0
 50
0.0
 71
     0
 42
0.2
  3
ltypeshp.shx
  4

  0
ENDTAB
  0
TABLE
  2
VIEW
  5
6
330
0
100
AcDbSymbolTable
 70
     0
  0
ENDTAB
  0
TABLE
  2
UCS
  5
7
330
0
100
AcDbSymbolTable
 70
     0
  0
ENDTAB
  0
TABLE
  2
APPID
  5
9
330
0
100
AcDbSymbolTable
 70
     1
  0
APPID
  5
12
330
9
100
AcDbSymbolTableRecord
100
AcDbRegAppTableRecord
  2
ACAD
 70
     0
  0
ENDTAB
  0
TABLE
  2
DIMSTYLE
  5
A
330
0
100
AcDbSymbolTable
 70
     4
100
AcDbDimStyleTable
 71
     4
340
E0
340
4C
340
DF
340
27
  0
DIMSTYLE
105
27
330
A
100
AcDbSymbolTableRecord
100
AcDbDimStyleTableRecord
  2
Standard
 70
     0
340
11
  0
DIMSTYLE
105
4C
102
{ACAD_REACTORS
330
27B
330
289
330
297
330
2A6
330
86E
330
87C
330
88A
330
8A6
330
8B4
330
8F4
330
902
330
910
330
91E
330
92C
330
93A
330
984
330
992
330
9A0
330
9AE
330
9E3
330
9F2
330
A00
330
A0E
330
A1C
330
A2A
330
A38
330
A46
330
A54
330
CCC
102
}
330
A
100
AcDbSymbolTableRecord
100
AcDbDimStyleTableRecord
  2
SU1
 70
     0
  4
mm
 47
0.001
 48
0.001
271
     3
272
     3
289
     0
340
11
  0
DIMSTYLE
105
DF
330
A
100
AcDbSymbolTableRecord
100
AcDbDimStyleTableRecord
  2
SU1$4
 70
     0
  4
mm
 47
0.001
 48
0.001
271
     3
272
     3
288
     1
289
     0
340
11
  0
DIMSTYLE
105
E0
102
{ACAD_REACTORS
330
5E7
330
60F
330
61B
330
C3A
330
CA4
330
D31
102
}
330
A
100
AcDbSymbolTableRecord
100
AcDbDimStyleTableRecord
  2
SU1$3
 70
     0
  4
mm
 47
0.001
 48
0.001
271
     3
272
     3
288
     1
289
     0
340
11
  0
ENDTAB
  0
TABLE
  2
BLOCK_RECORD
  5
1
330
0
100
AcDbSymbolTable
 70
    44
  0
BLOCK_RECORD
  5
1F
330
1
100
AcDbSymbolTableRecord
100
AcDbBlockTableRecord
  2
*Model_Space
340
22
  0
BLOCK_RECORD
  5
1B
330
1
100
AcDbSymbolTableRecord
100
AcDbBlockTableRecord
  2
*Paper_Space
340
1E
  0
BLOCK_RECORD
  5
23
330
1
100
AcDbSymbolTableRecord
100
AcDbBlockTableRecord
  2
*Paper_Space0
340
26
  0
BLOCK_RECORD
  5
108
330
1
100
AcDbSymbolTableRecord
100
AcDbBlockTableRecord
  2
d-border
340
0
102
{BLKREFS
331
156
102
}
  0
BLOCK_RECORD
  5
15E
330
1
100
AcDbSymbolTableRecord
100
AcDbBlockTableRecord
  2
vac-cup-top
340
0
310
2800000020000000200000000100080000000000000400000000000000000000000000000000000000000000000080000080000000808000800000008000800080800000C0C0C000C0DCC000F0CAA6000020400000206000002080000020A0000020C0000020E00000400000004020000040400000406000004080000040A0
310
000040C0000040E00000600000006020000060400000606000006080000060A0000060C0000060E00000800000008020000080400000806000008080000080A0000080C0000080E00000A0000000A0200000A0400000A0600000A0800000A0A00000A0C00000A0E00000C0000000C0200000C0400000C0600000C0800000C0
310
A00000C0C00000C0E00000E0000000E0200000E0400000E0600000E0800000E0A00000E0C00000E0E00040000000400020004000400040006000400080004000A0004000C0004000E00040200000402020004020400040206000402080004020A0004020C0004020E000404000004040200040404000404060004040800040
310
40A0004040C0004040E00040600000406020004060400040606000406080004060A0004060C0004060E00040800000408020004080400040806000408080004080A0004080C0004080E00040A0000040A0200040A0400040A0600040A0800040A0A00040A0C00040A0E00040C0000040C0200040C0400040C0600040C08000
310
40C0A00040C0C00040C0E00040E0000040E0200040E0400040E0600040E0800040E0A00040E0C00040E0E00080000000800020008000400080006000800080008000A0008000C0008000E00080200000802020008020400080206000802080008020A0008020C0008020E00080400000804020008040400080406000804080
310
008040A0008040C0008040E00080600000806020008060400080606000806080008060A0008060C0008060E00080800000808020008080400080806000808080008080A0008080C0008080E00080A0000080A0200080A0400080A0600080A0800080A0A00080A0C00080A0E00080C0000080C0200080C0400080C0600080C0
310
800080C0A00080C0C00080C0E00080E0000080E0200080E0400080E0600080E0800080E0A00080E0C00080E0E000C0000000C0002000C0004000C0006000C0008000C000A000C000C000C000E000C0200000C0202000C0204000C0206000C0208000C020A000C020C000C020E000C0400000C0402000C0404000C0406000C0
310
408000C040A000C040C000C040E000C0600000C0602000C0604000C0606000C0608000C060A000C060C000C060E000C0800000C0802000C0804000C0806000C0808000C080A000C080C000C080E000C0A00000C0A02000C0A04000C0A06000C0A08000C0A0A000C0A0C000C0A0E000C0C00000C0C02000C0C04000C0C06000
310
C0C08000C0C0A000F0FBFF00A4A0A000808080000000FF0000FF000000FFFF00FF000000FF00FF00FFFF0000FFFFFF0000000000000000000000000000000000000000000000000000000000000000000000000000000000000000000000000000000000000000000000000000000000000000000000000000000000000000
310
F900000000000000000000000000000000000000000000000000000000000000F900000000000000000000000000000000000000000000000000000000000000F900000000000000000000000000000000000000000000000000000000000000F900000000000000000000000000000000000000000000000000000000FCFC
310
FCFCFCFCFCFC00000000000000000000000000000000000000000000FCFC000000F900000000FCFC00000000000000000000000000000000000000FC0000000000F9000000000000FC0000000000000000000000000000000000FC00000000FCFCFCFCFCFC000000FC0000000000000000000000000000000000FC0000FCFC
310
0000F9000000FC000000FCFC0000000000000000000000000000FC0000FC000000FCFCFCFC0000FC000000FC0000000000000000000000000000FC0000FC00FCFC00F90000FC0000FC0000FC00000000000000000000000000FC000000FCFCFC0000F9000000FC00FC000000FC000000000000000000000000FC0000FC00FC
310
000000F9000000FC0000FC0000FC00000000000000F9F9F9F9F9FCF9F9FCF9FCF9F9F9F9F9F9F9F9FCF9FCF9F9FCF9F9F9F9F900000000000000FC0000FC00FC000000F900000000FC00FC0000FC000000000000000000000000FC0000FC00FC000000F9000000FC0000FC0000FC000000000000000000000000FC000000FC
310
00FC0000F90000FCFC00FC000000FC00000000000000000000000000FC0000FC00FCFCFCF900FCFC0000FC0000FC0000000000000000000000000000FC000000FC000000FCFC000000FC000000FC000000000000000000000000000000FC000000FCFC00F90000FCFC00000000FC00000000000000000000000000000000FC
310
00000000FCFCFCFC00000000FCFC0000000000000000000000000000000000FC0000000000F90000000000FC0000000000000000000000000000000000000000FC00000000F9000000FCFC00000000000000000000000000000000000000000000FCFCFCFCFCFCFCFC00000000000000000000000000000000000000000000
310
000000000000F900000000000000000000000000000000000000000000000000000000000000F900000000000000000000000000000000000000000000000000000000000000F900000000000000000000000000000000000000000000000000000000000000F9000000000000000000000000000000000000000000000000
310
0000000000000000000000000000000000000000000000000000000000000000000000000000000000000000000000000000000000000000
1001
ACAD
1000
DesignCenter Data
1002
{
1070
     1
1070
     1
1002
}
  0
BLOCK_RECORD
  5
1C3
330
1
100
AcDbSymbolTableRecord
100
AcDbBlockTableRecord
  2
10-32-THREAD
340
0
310
2800000020000000200000000100080000000000000400000000000000000000000000000000000000000000000080000080000000808000800000008000800080800000C0C0C000C0DCC000F0CAA6000020400000206000002080000020A0000020C0000020E00000400000004020000040400000406000004080000040A0
310
000040C0000040E00000600000006020000060400000606000006080000060A0000060C0000060E00000800000008020000080400000806000008080000080A0000080C0000080E00000A0000000A0200000A0400000A0600000A0800000A0A00000A0C00000A0E00000C0000000C0200000C0400000C0600000C0800000C0
310
A00000C0C00000C0E00000E0000000E0200000E0400000E0600000E0800000E0A00000E0C00000E0E00040000000400020004000400040006000400080004000A0004000C0004000E00040200000402020004020400040206000402080004020A0004020C0004020E000404000004040200040404000404060004040800040
310
40A0004040C0004040E00040600000406020004060400040606000406080004060A0004060C0004060E00040800000408020004080400040806000408080004080A0004080C0004080E00040A0000040A0200040A0400040A0600040A0800040A0A00040A0C00040A0E00040C0000040C0200040C0400040C0600040C08000
310
40C0A00040C0C00040C0E00040E0000040E0200040E0400040E0600040E0800040E0A00040E0C00040E0E00080000000800020008000400080006000800080008000A0008000C0008000E00080200000802020008020400080206000802080008020A0008020C0008020E00080400000804020008040400080406000804080
310
008040A0008040C0008040E00080600000806020008060400080606000806080008060A0008060C0008060E00080800000808020008080400080806000808080008080A0008080C0008080E00080A0000080A0200080A0400080A0600080A0800080A0A00080A0C00080A0E00080C0000080C0200080C0400080C0600080C0
310
800080C0A00080C0C00080C0E00080E0000080E0200080E0400080E0600080E0800080E0A00080E0C00080E0E000C0000000C0002000C0004000C0006000C0008000C000A000C000C000C000E000C0200000C0202000C0204000C0206000C0208000C020A000C020C000C020E000C0400000C0402000C0404000C0406000C0
310
408000C040A000C040C000C040E000C0600000C0602000C0604000C0606000C0608000C060A000C060C000C060E000C0800000C0802000C0804000C0806000C0808000C080A000C080C000C080E000C0A00000C0A02000C0A04000C0A06000C0A08000C0A0A000C0A0C000C0A0E000C0C00000C0C02000C0C04000C0C06000
310
C0C08000C0C0A000F0FBFF00A4A0A000808080000000FF0000FF000000FFFF00FF000000FF00FF00FFFF0000FFFFFF000000000000000000000000000000000000000000000000000000000000000000000000000000000000000000000000F900000000000000000000000000000000000000000000000000000000000000
310
F900000000000000000000000000000000000000000000000000000000000000F900000000000000000000000000000000000000000000000000000000000000F900000000000000000000000000000000000000000000000000000000000000F9000000000000000000000000000000000000000000000000000000000000
310
00F900000000000000000000000000000000000000000000000000000000000000F900000000000000000000000000000000000000000000000000000000000000F90000000000000000000000000000000000000000000000000000000000FFFFFFFFFFFF000000000000000000000000000000000000000000000000FFFF
310
FFFFFFFFFF00FF00000000000000000000000000000000000000000000FF00FF0000F90000FFFFFF0000000000000000000000000000000000000000FF00FF000000F9000000FF00FF00000000000000000000000000000000000000FFFF00000000F900000000FF00FF000000000000000000000000000000000000FFFF00
310
000000F900000000FF00FF0000000000000000000000000000000000FF00FF00000000F90000000000FFFF0000000000000000000000F9F9F9F9F9F9F9F9F9F9F9F9F9F9F9F9F9F9F9F9F9F9F9F9F9F9F9F90000000000000000000000FFFF00000000F90000000000FFFF000000000000000000000000000000000000FFFF
310
00000000F900000000FF00FF000000000000000000000000000000000000FF00FF000000F9000000FFFFFF0000000000000000000000000000000000000000FF00FF0000F9000000FFFF00000000000000000000000000000000000000000000FF00FFFFFFFFFFFFFF00000000000000000000000000000000000000000000
310
0000FFFFFFFFFFFFFF00000000000000000000000000000000000000000000000000000000F900000000000000000000000000000000000000000000000000000000000000F900000000000000000000000000000000000000000000000000000000000000F900000000000000000000000000000000000000000000000000
310
000000000000F900000000000000000000000000000000000000000000000000000000000000F900000000000000000000000000000000000000000000000000000000000000F900000000000000000000000000000000000000000000000000000000000000F9000000000000000000000000000000000000000000000000
310
00000000000000F9000000000000000000000000000000000000000000000000000000000000000000000000000000000000000000000000
102
{BLKREFS
331
761
331
762
331
767
331
768
331
779
331
788
331
791
331
7A0
331
7B9
331
7BA
331
7BC
331
7BD
331
85B
331
80A
331
850
331
832
331
820
331
840
331
848
331
810
331
817
331
823
331
826
331
869
102
}
1001
ACAD
1000
DesignCenter Data
1002
{
1070
     1
1070
     1
1002
}
  0
BLOCK_RECORD
  5
1D8
330
1
100
AcDbSymbolTableRecord
100
AcDbBlockTableRecord
  2
6-32-THREAD
340
0
310
2800000020000000200000000100080000000000000400000000000000000000000000000000000000000000000080000080000000808000800000008000800080800000C0C0C000C0DCC000F0CAA6000020400000206000002080000020A0000020C0000020E00000400000004020000040400000406000004080000040A0
310
000040C0000040E00000600000006020000060400000606000006080000060A0000060C0000060E00000800000008020000080400000806000008080000080A0000080C0000080E00000A0000000A0200000A0400000A0600000A0800000A0A00000A0C00000A0E00000C0000000C0200000C0400000C0600000C0800000C0
310
A00000C0C00000C0E00000E0000000E0200000E0400000E0600000E0800000E0A00000E0C00000E0E00040000000400020004000400040006000400080004000A0004000C0004000E00040200000402020004020400040206000402080004020A0004020C0004020E000404000004040200040404000404060004040800040
310
40A0004040C0004040E00040600000406020004060400040606000406080004060A0004060C0004060E00040800000408020004080400040806000408080004080A0004080C0004080E00040A0000040A0200040A0400040A0600040A0800040A0A00040A0C00040A0E00040C0000040C0200040C0400040C0600040C08000
310
40C0A00040C0C00040C0E00040E0000040E0200040E0400040E0600040E0800040E0A00040E0C00040E0E00080000000800020008000400080006000800080008000A0008000C0008000E00080200000802020008020400080206000802080008020A0008020C0008020E00080400000804020008040400080406000804080
310
008040A0008040C0008040E00080600000806020008060400080606000806080008060A0008060C0008060E00080800000808020008080400080806000808080008080A0008080C0008080E00080A0000080A0200080A0400080A0600080A0800080A0A00080A0C00080A0E00080C0000080C0200080C0400080C0600080C0
310
800080C0A00080C0C00080C0E00080E0000080E0200080E0400080E0600080E0800080E0A00080E0C00080E0E000C0000000C0002000C0004000C0006000C0008000C000A000C000C000C000E000C0200000C0202000C0204000C0206000C0208000C020A000C020C000C020E000C0400000C0402000C0404000C0406000C0
310
408000C040A000C040C000C040E000C0600000C0602000C0604000C0606000C0608000C060A000C060C000C060E000C0800000C0802000C0804000C0806000C0808000C080A000C080C000C080E000C0A00000C0A02000C0A04000C0A06000C0A08000C0A0A000C0A0C000C0A0E000C0C00000C0C02000C0C04000C0C06000
310
C0C08000C0C0A000F0FBFF00A4A0A000808080000000FF0000FF000000FFFF00FF000000FF00FF00FFFF0000FFFFFF00000000000000000000000000000000000000000000000000000000000000000000000000000000000000000000000000F9000000000000000000000000000000000000000000000000000000000000
310
00F900000000000000000000000000000000000000000000000000000000000000F900000000000000000000000000000000000000000000000000000000000000F900000000000000000000000000000000000000000000000000000000000000F90000000000000000000000000000000000000000000000000000000000
310
0000F900000000000000000000000000000000000000000000000000000000000000F90000000000000000000000000000000000000000000000000000000000FFFFF9FFFFFF000000000000000000000000000000000000000000000000FFFF0000F9000000FF00000000000000000000000000000000000000000000FF00
310
FFFFFFFFFFFF0000FF0000000000000000000000000000000000000000FF00FF000000F90000FFFF00FF000000000000000000000000000000000000FF0000FF000000F900000000FF00FF0000000000000000000000000000000000FF00FF00000000F900000000FF00FF0000000000000000000000000000000000FF00FF
310
00000000F900000000FF00FF00000000000000000000F9F9F9F9F9F9F9F9FFF9F9F9F9F9F9F9F9F9F9F9FFF9F9F9F9F9F9F90000000000000000000000FFFF0000000000F900000000FF00FF0000000000000000000000000000000000FF00FF00000000F900000000FF00FF0000000000000000000000000000000000FF00
310
FF00000000F900000000FF00FF0000000000000000000000000000000000FF0000FF000000F9000000FF00FF00000000000000000000000000000000000000FF0000FFFF00F900FFFF00FF000000000000000000000000000000000000000000FF000000FFFFFF0000FF000000000000000000000000000000000000000000
310
0000FFFFFF00F900FFFF000000000000000000000000000000000000000000000000000000FFF9FF000000000000000000000000000000000000000000000000000000000000F900000000000000000000000000000000000000000000000000000000000000F9000000000000000000000000000000000000000000000000
310
00000000000000F900000000000000000000000000000000000000000000000000000000000000F900000000000000000000000000000000000000000000000000000000000000F900000000000000000000000000000000000000000000000000000000000000F90000000000000000000000000000000000000000000000
310
0000000000000000F90000000000000000000000000000000000000000000000000000000000000000000000000000000000000000000000
102
{BLKREFS
331
1DF
331
1E1
102
}
1001
ACAD
1000
DesignCenter Data
1002
{
1070
     1
1070
     1
1002
}
  0
BLOCK_RECORD
  5
27C
330
1
100
AcDbSymbolTableRecord
100
AcDbBlockTableRecord
  2
*D5
340
0
  0
BLOCK_RECORD
  5
28A
330
1
100
AcDbSymbolTableRecord
100
AcDbBlockTableRecord
  2
*D6
340
0
  0
BLOCK_RECORD
  5
298
330
1
100
AcDbSymbolTableRecord
100
AcDbBlockTableRecord
  2
*D7
340
0
  0
BLOCK_RECORD
  5
2A7
330
1
100
AcDbSymbolTableRecord
100
AcDbBlockTableRecord
  2
*D8
340
0
  0
BLOCK_RECORD
  5
5E8
330
1
100
AcDbSymbolTableRecord
100
AcDbBlockTableRecord
  2
*D9
340
0
  0
BLOCK_RECORD
  5
610
330
1
100
AcDbSymbolTableRecord
100
AcDbBlockTableRecord
  2
*D10
340
0
  0
BLOCK_RECORD
  5
61C
330
1
100
AcDbSymbolTableRecord
100
AcDbBlockTableRecord
  2
*D11
340
0
  0
BLOCK_RECORD
  5
6F2
330
1
100
AcDbSymbolTableRecord
100
AcDbBlockTableRecord
  2
vac-cup-5-top
340
0
310
2800000020000000200000000100080000000000000400000000000000000000000000000000000000000000000080000080000000808000800000008000800080800000C0C0C000C0DCC000F0CAA6000020400000206000002080000020A0000020C0000020E00000400000004020000040400000406000004080000040A0
310
000040C0000040E00000600000006020000060400000606000006080000060A0000060C0000060E00000800000008020000080400000806000008080000080A0000080C0000080E00000A0000000A0200000A0400000A0600000A0800000A0A00000A0C00000A0E00000C0000000C0200000C0400000C0600000C0800000C0
310
A00000C0C00000C0E00000E0000000E0200000E0400000E0600000E0800000E0A00000E0C00000E0E00040000000400020004000400040006000400080004000A0004000C0004000E00040200000402020004020400040206000402080004020A0004020C0004020E000404000004040200040404000404060004040800040
310
40A0004040C0004040E00040600000406020004060400040606000406080004060A0004060C0004060E00040800000408020004080400040806000408080004080A0004080C0004080E00040A0000040A0200040A0400040A0600040A0800040A0A00040A0C00040A0E00040C0000040C0200040C0400040C0600040C08000
310
40C0A00040C0C00040C0E00040E0000040E0200040E0400040E0600040E0800040E0A00040E0C00040E0E00080000000800020008000400080006000800080008000A0008000C0008000E00080200000802020008020400080206000802080008020A0008020C0008020E00080400000804020008040400080406000804080
310
008040A0008040C0008040E00080600000806020008060400080606000806080008060A0008060C0008060E00080800000808020008080400080806000808080008080A0008080C0008080E00080A0000080A0200080A0400080A0600080A0800080A0A00080A0C00080A0E00080C0000080C0200080C0400080C0600080C0
310
800080C0A00080C0C00080C0E00080E0000080E0200080E0400080E0600080E0800080E0A00080E0C00080E0E000C0000000C0002000C0004000C0006000C0008000C000A000C000C000C000E000C0200000C0202000C0204000C0206000C0208000C020A000C020C000C020E000C0400000C0402000C0404000C0406000C0
310
408000C040A000C040C000C040E000C0600000C0602000C0604000C0606000C0608000C060A000C060C000C060E000C0800000C0802000C0804000C0806000C0808000C080A000C080C000C080E000C0A00000C0A02000C0A04000C0A06000C0A08000C0A0A000C0A0C000C0A0E000C0C00000C0C02000C0C04000C0C06000
310
C0C08000C0C0A000F0FBFF00A4A0A000808080000000FF0000FF000000FFFF00FF000000FF00FF00FFFF0000FFFFFF0000000000000000000000000000000000000000000000000000000000000000000000000000000000000000000000000000000000000000000000000000000000000000000000000000000000000000
310
F900000000000000000000000000000000000000000000000000000000000000F900000000000000000000000000000000000000000000000000000000000000F900000000000000000000000000000000000000000000000000000000000000F900000000000000000000000000000000000000000000000000000000FCFC
310
FCFCFCFCFC0000000000000000000000000000000000000000000000FCFC000000F9000000FCFCFC00000000000000000000000000000000000000FC000000FCFCFCFCFCFC000000FC0000000000000000000000000000000000FC0000FCFC0000F9000000FCFC00FC0000000000000000000000000000000000FC00FC0000
310
0000F90000000000FC00FC000000000000000000000000000000FC00FC0000000000F9000000000000FC00FC0000000000000000000000000000FCFC000000000000F9000000000000FC00FC00000000000000000000000000FC00FC000000000000F9000000000000FC0000FC000000000000000000000000FC00FC000000
310
000000F900000000000000FC00FC00000000000000F9F9F9F9F9F9F9FCF9F9F9F9F9F9F9F9F9F9F9F9F9F9FCF9F9F9F9F9F9F900000000000000FC00FC000000000000F900000000000000FC00FC000000000000000000000000FC00FC000000000000F900000000000000FC00FC000000000000000000000000FC00FC0000
310
00000000F9000000000000FC0000FC00000000000000000000000000FCFC000000000000F9000000000000FC00FC0000000000000000000000000000FC00FC0000000000F9000000000000FC00FC000000000000000000000000000000FC00FC00000000F90000000000FC00FC0000000000000000000000000000000000FC
310
00FC000000F90000FCFCFC00FC000000000000000000000000000000000000FC0000FCFCFCFCFCFC000000FC0000000000000000000000000000000000000000FC00000000F9000000FCFC00000000000000000000000000000000000000000000FCFCFCFCFCFCFCFC00000000000000000000000000000000000000000000
310
000000000000F900000000000000000000000000000000000000000000000000000000000000F900000000000000000000000000000000000000000000000000000000000000F900000000000000000000000000000000000000000000000000000000000000F9000000000000000000000000000000000000000000000000
310
0000000000000000000000000000000000000000000000000000000000000000000000000000000000000000000000000000000000000000
102
{BLKREFS
331
75B
331
75C
331
76D
331
76E
331
775
331
77D
331
789
331
790
331
79F
331
7AF
331
85C
331
80B
331
84F
331
831
331
816
331
81F
331
83F
331
849
331
811
331
822
102
}
1001
ACAD
1000
DesignCenter Data
1002
{
1070
     1
1070
     1
1002
}
  0
BLOCK_RECORD
  5
86F
330
1
100
AcDbSymbolTableRecord
100
AcDbBlockTableRecord
  2
*D13
340
0
  0
BLOCK_RECORD
  5
87D
330
1
100
AcDbSymbolTableRecord
100
AcDbBlockTableRecord
  2
*D14
340
0
  0
BLOCK_RECORD
  5
88B
330
1
100
AcDbSymbolTableRecord
100
AcDbBlockTableRecord
  2
*D15
340
0
  0
BLOCK_RECORD
  5
8A7
330
1
100
AcDbSymbolTableRecord
100
AcDbBlockTableRecord
  2
*D16
340
0
  0
BLOCK_RECORD
  5
8B5
330
1
100
AcDbSymbolTableRecord
100
AcDbBlockTableRecord
  2
*D17
340
0
  0
BLOCK_RECORD
  5
8F5
330
1
100
AcDbSymbolTableRecord
100
AcDbBlockTableRecord
  2
*D18
340
0
  0
BLOCK_RECORD
  5
903
330
1
100
AcDbSymbolTableRecord
100
AcDbBlockTableRecord
  2
*D19
340
0
  0
BLOCK_RECORD
  5
911
330
1
100
AcDbSymbolTableRecord
100
AcDbBlockTableRecord
  2
*D20
340
0
  0
BLOCK_RECORD
  5
91F
330
1
100
AcDbSymbolTableRecord
100
AcDbBlockTableRecord
  2
*D21
340
0
  0
BLOCK_RECORD
  5
92D
330
1
100
AcDbSymbolTableRecord
100
AcDbBlockTableRecord
  2
*D22
340
0
  0
BLOCK_RECORD
  5
93B
330
1
100
AcDbSymbolTableRecord
100
AcDbBlockTableRecord
  2
*D23
340
0
  0
BLOCK_RECORD
  5
985
330
1
100
AcDbSymbolTableRecord
100
AcDbBlockTableRecord
  2
*D24
340
0
  0
BLOCK_RECORD
  5
993
330
1
100
AcDbSymbolTableRecord
100
AcDbBlockTableRecord
  2
*D25
340
0
  0
BLOCK_RECORD
  5
9A1
330
1
100
AcDbSymbolTableRecord
100
AcDbBlockTableRecord
  2
*D26
340
0
  0
BLOCK_RECORD
  5
9AF
330
1
100
AcDbSymbolTableRecord
100
AcDbBlockTableRecord
  2
*D27
340
0
  0
BLOCK_RECORD
  5
9E4
330
1
100
AcDbSymbolTableRecord
100
AcDbBlockTableRecord
  2
*D28
340
0
  0
BLOCK_RECORD
  5
9F3
330
1
100
AcDbSymbolTableRecord
100
AcDbBlockTableRecord
  2
*D29
340
0
  0
BLOCK_RECORD
  5
A01
330
1
100
AcDbSymbolTableRecord
100
AcDbBlockTableRecord
  2
*D30
340
0
  0
BLOCK_RECORD
  5
A0F
330
1
100
AcDbSymbolTableRecord
100
AcDbBlockTableRecord
  2
*D31
340
0
  0
BLOCK_RECORD
  5
A1D
330
1
100
AcDbSymbolTableRecord
100
AcDbBlockTableRecord
  2
*D32
340
0
  0
BLOCK_RECORD
  5
A2B
330
1
100
AcDbSymbolTableRecord
100
AcDbBlockTableRecord
  2
*D33
340
0
  0
BLOCK_RECORD
  5
A39
330
1
100
AcDbSymbolTableRecord
100
AcDbBlockTableRecord
  2
*D34
340
0
  0
BLOCK_RECORD
  5
A47
330
1
100
AcDbSymbolTableRecord
100
AcDbBlockTableRecord
  2
*D35
340
0
  0
BLOCK_RECORD
  5
A55
330
1
100
AcDbSymbolTableRecord
100
AcDbBlockTableRecord
  2
*D36
340
0
  0
BLOCK_RECORD
  5
C3B
330
1
100
AcDbSymbolTableRecord
100
AcDbBlockTableRecord
  2
*D37
340
0
  0
BLOCK_RECORD
  5
C91
330
1
100
AcDbSymbolTableRecord
100
AcDbBlockTableRecord
  2
C-BORE-#6
340
0
102
{BLKREFS
331
C98
331
C99
102
}
1001
ACAD
1000
DesignCenter Data
1002
{
1070
     1
1070
     1
1002
}
  0
BLOCK_RECORD
  5
CA5
330
1
100
AcDbSymbolTableRecord
100
AcDbBlockTableRecord
  2
*D39
340
0
  0
BLOCK_RECORD
  5
CCD
330
1
100
AcDbSymbolTableRecord
100
AcDbBlockTableRecord
  2
*D40
340
0
  0
BLOCK_RECORD
  5
D32
330
1
100
AcDbSymbolTableRecord
100
AcDbBlockTableRecord
  2
*D43
340
0
  0
ENDTAB
  0
ENDSEC
  0
SECTION
  2
BLOCKS
  0
BLOCK
  5
20
330
1F
100
AcDbEntity
  8
0
100
AcDbBlockBegin
  2
*Model_Space
 70
     0
 10
0.0
 20
0.0
 30
0.0
  3
*Model_Space
  1

  0
ENDBLK
  5
21
330
1F
100
AcDbEntity
  8
0
100
AcDbBlockEnd
  0
BLOCK
  5
1C
330
1B
100
AcDbEntity
 67
     1
  8
0
100
AcDbBlockBegin
  2
*Paper_Space
 70
     0
 10
0.0
 20
0.0
 30
0.0
  3
*Paper_Space
  1

  0
ENDBLK
  5
1D
330
1B
100
AcDbEntity
 67
     1
  8
0
100
AcDbBlockEnd
  0
BLOCK
  5
24
330
23
100
AcDbEntity
  8
0
100
AcDbBlockBegin
  2
*Paper_Space0
 70
     0
 10
0.0
 20
0.0
 30
0.0
  3
*Paper_Space0
  1

  0
ENDBLK
  5
25
330
23
100
AcDbEntity
  8
0
100
AcDbBlockEnd
  0
BLOCK
  5
150
330
108
100
AcDbEntity
  8
0
100
AcDbBlockBegin
  2
d-border
 70
     2
 10
0.0
 20
0.0
 30
0.0
  3
d-border
  1

  0
ATTDEF
  5
109
330
108
100
AcDbEntity
  8
TEXT
100
AcDbText
 10
26.4087
 20
0.8153
 30
0.0
 40
0.06
  1

100
AcDbAttributeDefinition
  3
Enter the Date
  2
DATE
 70
     0
  0
ATTDEF
  5
10A
330
108
100
AcDbEntity
  8
TEXT
100
AcDbText
 10
25.4066
 20
0.8516999999999999
 30
0.0
 40
0.12
  1
S. KYRE
100
AcDbAttributeDefinition
  3
Enter Your Name
  2
NAME
 70
     0
  0
ATTDEF
  5
10B
330
108
100
AcDbEntity
  8
TEXT
100
AcDbText
 10
27.3318
 20
0.1839
 30
0.0
 40
0.12
  1

100
AcDbAttributeDefinition
  3
Enter Drawing Scale
  2
SCALE
 70
     0
  0
ATTDEF
  5
10C
330
108
100
AcDbEntity
  8
TEXT
100
AcDbText
 10
28.97149999999999
 20
0.4692000000000001
 30
0.0
 40
0.12
  1

100
AcDbAttributeDefinition
  3
Enter File Name
  2
FILE
 70
     0
  0
ATTDEF
  5
10D
330
108
100
AcDbEntity
  8
TEXT
100
AcDbText
 10
27.3257
 20
0.4571
 30
0.0
 40
0.12
  1

100
AcDbAttributeDefinition
  3
Enter Drawing Directory
  2
DIRECTORY
 70
     0
  0
TEXT
  5
10E
330
108
100
AcDbEntity
  8
TEXT
100
AcDbText
 10
26.05617561769021
 20
1.361504946102674
 30
0.0
 40
0.065
  1
  %%P 0.5%%D
  7
ADESK2
100
AcDbText
  0
TEXT
  5
10F
330
108
100
AcDbEntity
  8
TEXT
100
AcDbText
 10
26.05617561769021
 20
1.466742946102673
 30
0.0
 40
0.065
  1
ANGULAR
  7
ADESK2
100
AcDbText
  0
TEXT
  5
110
330
108
100
AcDbEntity
  8
TEXT
100
AcDbText
 10
25.26291585578544
 20
1.153743946102673
 30
0.0
 40
0.065
  1
DO NOT SCALE DRAWING
  7
ADESK2
 72
     1
 11
25.8773206176902
 21
1.153743946102673
 31
0.0
100
AcDbText
  0
TEXT
  5
111
330
108
100
AcDbEntity
  8
TEXT
100
AcDbText
 10
25.19227861769021
 20
1.256266946102674
 30
0.0
 40
0.065
  1
.XXX %%P .005
  7
ADESK2
100
AcDbText
  0
TEXT
  5
112
330
108
100
AcDbEntity
  8
TEXT
100
AcDbText
 10
25.19227861769021
 20
1.361504946102674
 30
0.0
 40
0.065
  1
.XX  %%P .05
  7
ADESK2
100
AcDbText
  0
TEXT
  5
113
330
108
100
AcDbEntity
  8
TEXT
100
AcDbText
 10
25.19227861769021
 20
1.466742946102673
 30
0.0
 40
0.065
  1
DECIMALS
  7
ADESK2
100
AcDbText
  0
TEXT
  5
114
330
108
100
AcDbEntity
  8
TEXT
100
AcDbText
 10
25.57863014149973
 20
1.574612946102674
 30
0.0
 40
0.065
  1
TOLERANCES
  7
ADESK2
 72
     1
 11
25.8773206176902
 21
1.574612946102674
 31
0.0
100
AcDbText
  0
TEXT
  5
115
330
108
100
AcDbEntity
  8
TEXT
100
AcDbText
 10
25.18089204626163
 20
1.679850946102674
 30
0.0
 40
0.065
  1
DIMENSIONS ARE IN INCHES
  7
ADESK2
 72
     1
 11
25.8773206176902
 21
1.679850946102674
 31
0.0
100
AcDbText
  0
TEXT
  5
116
330
108
100
AcDbEntity
  8
TEXT
100
AcDbText
 10
25.10660633197592
 20
1.785088946102673
 30
0.0
 40
0.065
  1
UNLESS OTHERWISE SPECIFIED:
  7
ADESK2
 72
     1
 11
25.8773206176902
 21
1.785088946102673
 31
0.0
100
AcDbText
  0
TEXT
  5
117
330
108
100
AcDbEntity
  8
BORDER
100
AcDbText
 10
27.00116736861396
 20
0.4347781652093627
 30
0.0
 40
0.2
  1
D
100
AcDbText
  0
TEXT
  5
118
330
108
100
AcDbEntity
  8
BORDER
100
AcDbText
 10
27.56486373285813
 20
1.575566135628289
 30
0.0
 40
0.15
  1
HIGH ENERGY PHYSICS
100
AcDbText
  0
LINE
  5
119
330
108
100
AcDbEntity
  8
BORDER
100
AcDbLine
 10
0.6713999999999999
 20
20.1249954914957
 30
0.0
 11
31.17142006958448
 21
20.1249954914957
 31
0.0
  0
TEXT
  5
11A
330
108
100
AcDbEntity
  8
TEXT
100
AcDbText
 10
27.3283925341323
 20
0.6653543307085395
 30
0.0
 40
0.075
  1
DIRECTORY
100
AcDbText
  0
LINE
  5
11B
330
108
100
AcDbEntity
  8
BORDER
100
AcDbLine
 10
0.6713999999999999
 20
0.125
 30
0.0
 11
31.17142006958448
 21
0.125
 31
0.0
  0
LINE
  5
11C
330
108
100
AcDbEntity
  8
BORDER
100
AcDbLine
 10
0.6714000000000001
 20
20.12499549149571
 30
0.0
 11
0.6714000000000001
 21
0.125
 31
0.0
  0
LINE
  5
11D
330
108
100
AcDbEntity
  8
BORDER
100
AcDbLine
 10
31.17142006958448
 20
0.125
 30
0.0
 11
31.17142006958448
 21
20.1249954914957
 31
0.0
  0
LINE
  5
11E
330
108
100
AcDbEntity
  8
BORDER
100
AcDbLine
 10
24.87628038545887
 20
2.324146981627205
 30
0.0
 11
31.14911824215376
 21
2.324146981627205
 31
0.0
  0
TEXT
  5
11F
330
108
100
AcDbEntity
  8
BORDER
100
AcDbText
 10
25.05528511968987
 20
2.049227858145542
 30
0.0
 40
0.15
  1
UNIVERSITY OF CALIFORNIA @ SANTA BARBARA
100
AcDbText
  0
TEXT
  5
120
330
108
100
AcDbEntity
  8
TEXT
100
AcDbText
 10
24.94563061769021
 20
0.9799639461026732
 30
0.0
 40
0.065
  1
DRAWN
  7
ADESK2
100
AcDbText
  0
LINE
  5
121
330
108
100
AcDbEntity
  8
BORDER
100
AcDbLine
 10
24.87732061769021
 20
0.125
 30
0.0
 11
24.87732061769021
 21
2.324146981627205
 31
0.0
  0
LINE
  5
122
330
108
100
AcDbEntity
  8
BORDER
100
AcDbLine
 10
24.87732061769021
 20
1.901500946102673
 30
0.0
 11
31.14911824215376
 21
1.901500946102673
 31
0.0
  0
LINE
  5
123
330
108
100
AcDbEntity
  8
TEXT
100
AcDbLine
 10
24.87732061769021
 20
0.4665009461026735
 30
0.0
 11
26.87732061769021
 21
0.4665009461026735
 31
0.0
  0
LINE
  5
124
330
108
100
AcDbEntity
  8
TEXT
100
AcDbLine
 10
24.87732061769021
 20
0.781500946102673
 30
0.0
 11
31.14911824215376
 21
0.781500946102673
 31
0.0
  0
LINE
  5
125
330
108
100
AcDbEntity
  8
TEXT
100
AcDbLine
 10
26.87732061769021
 20
0.401500946102674
 30
0.0
 11
31.14911824215376
 21
0.401500946102674
 31
0.0
  0
LINE
  5
126
330
108
100
AcDbEntity
  8
BORDER
100
AcDbLine
 10
26.87732061769021
 20
1.401500946102673
 30
0.0
 11
31.14911824215376
 21
1.401500946102673
 31
0.0
  0
LINE
  5
127
330
108
100
AcDbEntity
  8
BORDER
100
AcDbLine
 10
26.87732061769021
 20
0.125
 30
0.0
 11
26.87732061769021
 21
1.901500946102673
 31
0.0
  0
LINE
  5
128
330
108
100
AcDbEntity
  8
TEXT
100
AcDbLine
 10
27.87732061769021
 20
0.125
 30
0.0
 11
27.87732061769021
 21
0.401500946102674
 31
0.0
  0
LINE
  5
129
330
108
100
AcDbEntity
  8
TEXT
100
AcDbLine
 10
29.37732061769021
 20
0.125
 30
0.0
 11
29.37732061769021
 21
0.401500946102674
 31
0.0
  0
LINE
  5
12A
330
108
100
AcDbEntity
  8
TEXT
100
AcDbLine
 10
27.2573206176902
 20
0.401500946102674
 30
0.0
 11
27.2573206176902
 21
0.781500946102673
 31
0.0
  0
LINE
  5
12B
330
108
100
AcDbEntity
  8
TEXT
100
AcDbLine
 10
28.37732061769021
 20
0.401500946102674
 30
0.0
 11
28.37732061769021
 21
0.781500946102673
 31
0.0
  0
LINE
  5
12C
330
108
100
AcDbEntity
  8
TEXT
100
AcDbLine
 10
30.74732061769021
 20
0.401500946102674
 30
0.0
 11
30.74732061769021
 21
0.781500946102673
 31
0.0
  0
TEXT
  5
12D
330
108
100
AcDbEntity
  8
TEXT
100
AcDbText
 10
26.92962061769021
 20
0.2440009461026733
 30
0.0
 40
0.065
  1
SCALE
  7
ADESK2
100
AcDbText
  0
TEXT
  5
12E
330
108
100
AcDbEntity
  8
TEXT
100
AcDbText
 10
29.43012061769021
 20
0.2440009461026733
 30
0.0
 40
0.065
  1
SHEET
  7
ADESK2
100
AcDbText
  0
TEXT
  5
12F
330
108
100
AcDbEntity
  8
TEXT
100
AcDbText
 10
26.96522061769021
 20
0.6674009461026725
 30
0.0
 40
0.065
  1
SIZE
  7
ADESK2
100
AcDbText
  0
TEXT
  5
130
330
108
100
AcDbEntity
  8
TEXT
100
AcDbText
 10
28.44832061769021
 20
0.6674009461026725
 30
0.0
 40
0.065
  1
DWG NO.
  7
ADESK2
100
AcDbText
  0
TEXT
  5
131
330
108
100
AcDbEntity
  8
TEXT
100
AcDbText
 10
30.8278206176902
 20
0.6674009461026725
 30
0.0
 40
0.065
  1
REV
  7
ADESK2
100
AcDbText
  0
LINE
  5
132
330
108
100
AcDbEntity
  8
TEXT
100
AcDbLine
 10
26.1080494845343
 20
19.80229554512702
 30
0.0
 11
31.16235579564198
 21
19.80229554512702
 31
0.0
  0
LINE
  5
133
330
108
100
AcDbEntity
  8
TEXT
100
AcDbLine
 10
26.1080494845343
 20
19.55229554512702
 30
0.0
 11
31.16235579564198
 21
19.55229554512702
 31
0.0
  0
LINE
  5
134
330
108
100
AcDbEntity
  8
TEXT
100
AcDbLine
 10
26.1080494845343
 20
20.11235949123699
 30
0.0
 11
26.1080494845343
 21
19.55229554512702
 31
0.0
  0
LINE
  5
135
330
108
100
AcDbEntity
  8
TEXT
100
AcDbLine
 10
26.49830190676567
 20
19.55229554512702
 30
0.0
 11
26.49830190676567
 21
19.80229554512702
 31
0.0
  0
LINE
  5
136
330
108
100
AcDbEntity
  8
TEXT
100
AcDbLine
 10
29.23830190676567
 20
19.55229554512702
 30
0.0
 11
29.23830190676567
 21
19.80229554512702
 31
0.0
  0
LINE
  5
137
330
108
100
AcDbEntity
  8
TEXT
100
AcDbLine
 10
30.11830190676567
 20
19.55229554512702
 30
0.0
 11
30.11830190676567
 21
19.80229554512702
 31
0.0
  0
TEXT
  5
138
330
108
100
AcDbEntity
  8
TEXT
100
AcDbText
 10
28.32850190676566
 20
19.88479554512703
 30
0.0
 40
0.065
  1
REVISIONS
  7
ADESK2
100
AcDbText
  0
TEXT
  5
139
330
108
100
AcDbEntity
  8
TEXT
100
AcDbText
 10
26.19840190676566
 20
19.64259554512702
 30
0.0
 40
0.065
  1
REV
  7
ADESK2
100
AcDbText
  0
TEXT
  5
13A
330
108
100
AcDbEntity
  8
TEXT
100
AcDbText
 10
27.50030190676567
 20
19.64259554512702
 30
0.0
 40
0.065
  1
DESCRIPTION
  7
ADESK2
100
AcDbText
  0
TEXT
  5
13B
330
108
100
AcDbEntity
  8
TEXT
100
AcDbText
 10
29.56600190676567
 20
19.64259554512702
 30
0.0
 40
0.065
  1
DATE
  7
ADESK2
100
AcDbText
  0
TEXT
  5
13C
330
108
100
AcDbEntity
  8
TEXT
100
AcDbText
 10
30.35970190676567
 20
19.64259554512702
 30
0.0
 40
0.065
  1
APPROVED
  7
ADESK2
100
AcDbText
  0
LINE
  5
13D
330
108
100
AcDbEntity
  8
TEXT
100
AcDbLine
 10
24.87732061769021
 20
1.091500946102673
 30
0.0
 11
26.87732061769021
 21
1.091500946102673
 31
0.0
  0
TEXT
  5
13E
330
108
100
AcDbEntity
  8
TEXT
100
AcDbText
 10
24.95732061769021
 20
0.6715009461026736
 30
0.0
 40
0.065
  1
CHECKED
  7
ADESK2
100
AcDbText
  0
TEXT
  5
13F
330
108
100
AcDbEntity
  8
TEXT
100
AcDbText
 10
24.95732061769021
 20
0.3565009461026722
 30
0.0
 40
0.065
  1
DESIGN
  7
ADESK2
100
AcDbText
  0
LINE
  5
140
330
108
100
AcDbEntity
  8
TEXT
100
AcDbLine
 10
26.37730461769021
 20
1.091500946102673
 30
0.0
 11
26.37730461769021
 21
0.125
 31
0.0
  0
TEXT
  5
141
330
108
100
AcDbEntity
  8
TEXT
100
AcDbText
 10
26.50072361769021
 20
0.9749509461026732
 30
0.0
 40
0.065
  1
DATE
  7
ADESK2
100
AcDbText
  0
TEXT
  5
142
330
108
100
AcDbEntity
  8
TEXT
100
AcDbText
 10
30.26029161769021
 20
0.2443769461026726
 30
0.0
 40
0.065
  1
OF
  7
ADESK2
100
AcDbText
  0
LINE
  5
143
330
108
100
AcDbEntity
  8
TEXT
100
AcDbLine
 10
3.2339
 20
19.3749954914957
 30
0.0
 11
0.6713999999999999
 21
19.3749954914957
 31
0.0
  0
LINE
  5
144
330
108
100
AcDbEntity
  8
TEXT
100
AcDbLine
 10
3.2339
 20
19.6249954914957
 30
0.0
 11
3.2339
 21
19.3749954914957
 31
0.0
  0
TEXT
  5
145
330
108
100
AcDbEntity
  8
TEXT
100
AcDbText
 10
0.8589
 20
19.43982308174734
 30
0.0
 40
0.1
  1
THIRD ANGLE PROJECTION
100
AcDbText
  0
LINE
  5
146
330
108
100
AcDbEntity
  8
TEXT
100
AcDbLine
 10
2.302663037562576
 20
20.04895638895508
 30
0.0
 11
2.302663037562576
 21
19.67395638895508
 31
0.0
  0
LINE
  5
147
330
108
100
AcDbEntity
  8
TEXT
100
AcDbLine
 10
1.818021382375997
 20
19.76770638895508
 30
0.0
 11
1.818021382375997
 21
19.95520638895508
 31
0.0
  0
LINE
  5
148
330
108
100
AcDbEntity
  8
TEXT
100
AcDbLine
 10
1.818021382375997
 20
19.76770638895508
 30
0.0
 11
2.302663037562576
 21
19.67395638895508
 31
0.0
  0
LINE
  5
149
330
108
100
AcDbEntity
  8
TEXT
100
AcDbLine
 10
1.818021382375997
 20
19.95520638895508
 30
0.0
 11
2.302663037562576
 21
20.04895638895508
 31
0.0
  0
LINE
  5
14A
330
108
100
AcDbEntity
  8
TEXT
  6
CENTER
100
AcDbLine
 10
1.349271382375997
 20
19.63277452344833
 30
0.0
 11
1.349271382375997
 21
20.1006513366765
 31
0.0
  0
LINE
  5
14B
330
108
100
AcDbEntity
  8
TEXT
  6
CENTER
100
AcDbLine
 10
1.115351193048235
 20
19.86145638895508
 30
0.0
 11
2.568021382375997
 21
19.86145638895508
 31
0.0
  0
CIRCLE
  5
14C
330
108
100
AcDbEntity
  8
TEXT
100
AcDbCircle
 10
1.349271382375997
 20
19.86145638895508
 30
0.0
 40
0.09375
  0
CIRCLE
  5
14D
330
108
100
AcDbEntity
  8
TEXT
100
AcDbCircle
 10
1.349271382375997
 20
19.86145638895508
 30
0.0
 40
0.1875
  0
LINE
  5
14E
330
108
100
AcDbEntity
  8
TEXT
100
AcDbLine
 10
3.2339
 20
19.6249954914957
 30
0.0
 11
3.2339
 21
20.1249954914957
 31
0.0
  0
LINE
  5
14F
330
108
100
AcDbEntity
  8
TEXT
100
AcDbLine
 10
0.6713999999999999
 20
19.6249954914957
 30
0.0
 11
3.2339
 21
19.6249954914957
 31
0.0
  0
ENDBLK
  5
151
330
108
100
AcDbEntity
  8
0
100
AcDbBlockEnd
  0
BLOCK
  5
164
330
15E
100
AcDbEntity
  8
0
100
AcDbBlockBegin
  2
vac-cup-top
 70
     0
 10
0.0
 20
0.0
 30
0.0
  3
vac-cup-top
  1

  0
LINE
  5
15F
330
15E
100
AcDbEntity
  8
CENTER
100
AcDbLine
 10
-0.3187493907822443
 20
0.0
 30
0.0
 11
0.328347549114099
 21
0.0
 31
0.0
  0
LINE
  5
160
330
15E
100
AcDbEntity
  8
CENTER
100
AcDbLine
 10
0.0
 20
0.3141158026301838
 30
0.0
 11
0.0
 21
-0.3079345452594282
 31
0.0
  0
CIRCLE
  5
161
330
15E
100
AcDbEntity
  8
VAC-CUP
100
AcDbCircle
 10
0.0
 20
0.0
 30
0.0
 40
0.225
  0
CIRCLE
  5
162
330
15E
100
AcDbEntity
  8
VAC-CUP
100
AcDbCircle
 10
0.0
 20
0.0
 30
0.0
 40
0.1487704126543718
  0
CIRCLE
  5
163
330
15E
100
AcDbEntity
  8
VAC-CUP
100
AcDbCircle
 10
0.0
 20
0.0
 30
0.0
 40
0.1
  0
ENDBLK
  5
165
330
15E
100
AcDbEntity
  8
0
100
AcDbBlockEnd
  0
BLOCK
  5
1C4
330
1C3
100
AcDbEntity
  8
0
100
AcDbBlockBegin
  2
10-32-THREAD
 70
     0
 10
0.0
 20
0.0
 30
0.0
  3
10-32-THREAD
  1

  0
LINE
  5
1C6
330
1C3
100
AcDbEntity
  8
CENTER
100
AcDbLine
 10
0.0
 20
-0.1975376167524771
 30
0.0
 11
0.0
 21
0.1944296551450009
 31
0.0
  0
CIRCLE
  5
1C7
330
1C3
100
AcDbEntity
  8
handle
  6
HIDDEN
100
AcDbCircle
 10
0.0
 20
0.0
 30
0.0
 40
0.095
  0
CIRCLE
  5
1C8
330
1C3
100
AcDbEntity
  8
handle
100
AcDbCircle
 10
0.0
 20
0.0
 30
0.0
 40
0.078
  0
LINE
  5
1C9
330
1C3
100
AcDbEntity
  8
CENTER
100
AcDbLine
 10
-0.1836830594637462
 20
0.0
 30
0.0
 11
0.1899617356404803
 21
0.0
 31
0.0
  0
ENDBLK
  5
1C5
330
1C3
100
AcDbEntity
  8
0
100
AcDbBlockEnd
  0
BLOCK
  5
1D9
330
1D8
100
AcDbEntity
  8
0
100
AcDbBlockBegin
  2
6-32-THREAD
 70
     0
 10
0.0
 20
0.0
 30
0.0
  3
6-32-THREAD
  1

  0
CIRCLE
  5
1DB
330
1D8
100
AcDbEntity
  8
0
  6
HIDDEN
100
AcDbCircle
 10
0.0
 20
0.0
 30
0.0
 40
0.069
  0
LINE
  5
1DC
330
1D8
100
AcDbEntity
  8
CENTER
100
AcDbLine
 10
0.0
 20
-0.1279832183029228
 30
0.0
 11
0.0
 21
0.1336872602465959
 31
0.0
  0
LINE
  5
1DD
330
1D8
100
AcDbEntity
  8
CENTER
100
AcDbLine
 10
-0.1318975397983451
 20
0.0
 30
0.0
 11
0.1232160353974194
 21
0.0
 31
0.0
  0
CIRCLE
  5
1DE
330
1D8
100
AcDbEntity
  8
0
100
AcDbCircle
 10
0.0
 20
0.0
 30
0.0
 40
0.052
  0
ENDBLK
  5
1DA
330
1D8
100
AcDbEntity
  8
0
100
AcDbBlockEnd
  0
BLOCK
  5
287
330
27C
100
AcDbEntity
  8
0
100
AcDbBlockBegin
  2
*D5
 70
     1
 10
0.0
 20
0.0
 30
0.0
  3
*D5
  1

  0
LINE
  5
C10
330
27C
100
AcDbEntity
  8
DIM
 62
     0
370
    -2
100
AcDbLine
 10
18.24999998600661
 20
13.03716724150269
 30
0.0
 11
18.24999998600661
 21
14.10515047419546
 31
0.0
  0
LINE
  5
C11
330
27C
100
AcDbEntity
  8
DIM
 62
     0
370
    -2
100
AcDbLine
 10
9.499999986006613
 20
13.15347998125609
 30
0.0
 11
9.499999986006613
 21
14.10515047419546
 31
0.0
  0
LINE
  5
C12
330
27C
100
AcDbEntity
  8
DIM
 62
     0
370
    -2
100
AcDbLine
 10
18.06999998600661
 20
13.92515047419546
 30
0.0
 11
14.30999998600661
 21
13.92515047419546
 31
0.0
  0
LINE
  5
C13
330
27C
100
AcDbEntity
  8
DIM
 62
     0
370
    -2
100
AcDbLine
 10
9.679999986006613
 20
13.92515047419546
 30
0.0
 11
13.43999998600661
 21
13.92515047419546
 31
0.0
  0
SOLID
  5
C14
330
27C
100
AcDbEntity
  8
DIM
 62
     0
100
AcDbTrace
 10
18.06999998600661
 20
13.95515047419546
 30
0.0
 11
18.06999998600661
 21
13.89515047419546
 31
0.0
 12
18.24999998600661
 22
13.92515047419546
 32
0.0
 13
18.24999998600661
 23
13.92515047419546
 33
0.0
  0
SOLID
  5
C15
330
27C
100
AcDbEntity
  8
DIM
 62
     0
100
AcDbTrace
 10
9.679999986006613
 20
13.95515047419546
 30
0.0
 11
9.679999986006613
 21
13.89515047419546
 31
0.0
 12
9.499999986006613
 22
13.92515047419546
 32
0.0
 13
9.499999986006613
 23
13.92515047419546
 33
0.0
  0
MTEXT
  5
C16
330
27C
100
AcDbEntity
  8
DIM
 62
     0
100
AcDbMText
 10
13.87499998600661
 20
13.92515047419546
 30
0.0
 40
0.18
 41
0.0
 71
     5
 72
     1
  1
\A1;8.750
 73
     1
 44
1.0
  0
POINT
  5
C17
330
27C
100
AcDbEntity
  8
Defpoints
 62
     0
100
AcDbPoint
 10
18.24999998600661
 20
12.97466724150269
 30
0.0
  0
POINT
  5
C18
330
27C
100
AcDbEntity
  8
Defpoints
 62
     0
100
AcDbPoint
 10
9.499999986006613
 20
13.09097998125609
 30
0.0
  0
POINT
  5
C19
330
27C
100
AcDbEntity
  8
Defpoints
 62
     0
100
AcDbPoint
 10
9.499999986006613
 20
13.92515047419546
 30
0.0
  0
ENDBLK
  5
288
330
27C
100
AcDbEntity
  8
0
100
AcDbBlockEnd
  0
BLOCK
  5
295
330
28A
100
AcDbEntity
  8
0
100
AcDbBlockBegin
  2
*D6
 70
     1
 10
0.0
 20
0.0
 30
0.0
  3
*D6
  1

  0
LINE
  5
C06
330
28A
100
AcDbEntity
  8
DIM
 62
     0
370
    -2
100
AcDbLine
 10
18.99999998600661
 20
13.15347998125609
 30
0.0
 11
18.99999998600661
 21
14.4609924519266
 31
0.0
  0
LINE
  5
C07
330
28A
100
AcDbEntity
  8
DIM
 62
     0
370
    -2
100
AcDbLine
 10
9.499999986006613
 20
13.15347998125609
 30
0.0
 11
9.499999986006613
 21
14.4609924519266
 31
0.0
  0
LINE
  5
C08
330
28A
100
AcDbEntity
  8
DIM
 62
     0
370
    -2
100
AcDbLine
 10
18.81999998600661
 20
14.2809924519266
 30
0.0
 11
14.66999998600661
 21
14.2809924519266
 31
0.0
  0
LINE
  5
C09
330
28A
100
AcDbEntity
  8
DIM
 62
     0
370
    -2
100
AcDbLine
 10
9.679999986006613
 20
14.2809924519266
 30
0.0
 11
13.82999998600661
 21
14.2809924519266
 31
0.0
  0
SOLID
  5
C0A
330
28A
100
AcDbEntity
  8
DIM
 62
     0
100
AcDbTrace
 10
18.81999998600661
 20
14.3109924519266
 30
0.0
 11
18.81999998600661
 21
14.25099245192661
 31
0.0
 12
18.99999998600661
 22
14.2809924519266
 32
0.0
 13
18.99999998600661
 23
14.2809924519266
 33
0.0
  0
SOLID
  5
C0B
330
28A
100
AcDbEntity
  8
DIM
 62
     0
100
AcDbTrace
 10
9.679999986006613
 20
14.3109924519266
 30
0.0
 11
9.679999986006613
 21
14.25099245192661
 31
0.0
 12
9.499999986006613
 22
14.2809924519266
 32
0.0
 13
9.499999986006613
 23
14.2809924519266
 33
0.0
  0
MTEXT
  5
C0C
330
28A
100
AcDbEntity
  8
DIM
 62
     0
100
AcDbMText
 10
14.24999998600661
 20
14.2809924519266
 30
0.0
 40
0.18
 41
0.0
 71
     5
 72
     1
  1
\A1;9.500
 73
     1
 44
1.0
  0
POINT
  5
C0D
330
28A
100
AcDbEntity
  8
Defpoints
 62
     0
100
AcDbPoint
 10
18.99999998600661
 20
13.09097998125609
 30
0.0
  0
POINT
  5
C0E
330
28A
100
AcDbEntity
  8
Defpoints
 62
     0
100
AcDbPoint
 10
9.499999986006613
 20
13.09097998125609
 30
0.0
  0
POINT
  5
C0F
330
28A
100
AcDbEntity
  8
Defpoints
 62
     0
100
AcDbPoint
 10
9.499999986006613
 20
14.2809924519266
 30
0.0
  0
ENDBLK
  5
296
330
28A
100
AcDbEntity
  8
0
100
AcDbBlockEnd
  0
BLOCK
  5
2A4
330
298
100
AcDbEntity
  8
0
100
AcDbBlockBegin
  2
*D7
 70
     1
 10
0.0
 20
0.0
 30
0.0
  3
*D7
  1

  0
LINE
  5
C2F
330
298
100
AcDbEntity
  8
DIM
 62
     0
370
    -2
100
AcDbLine
 10
18.43571602140403
 20
12.84097998125609
 30
0.0
 11
19.52031525103384
 21
12.84097998125609
 31
0.0
  0
LINE
  5
C30
330
298
100
AcDbEntity
  8
DIM
 62
     0
370
    -2
100
AcDbLine
 10
19.06249998600661
 20
13.09097998125609
 30
0.0
 11
19.52031525103384
 21
13.09097998125609
 31
0.0
  0
LINE
  5
C31
330
298
100
AcDbEntity
  8
DIM
 62
     0
370
    -2
100
AcDbLine
 10
19.34031525103384
 20
12.66097998125609
 30
0.0
 11
19.34031525103384
 21
12.48097998125609
 31
0.0
  0
LINE
  5
C32
330
298
100
AcDbEntity
  8
DIM
 62
     0
370
    -2
100
AcDbLine
 10
19.34031525103384
 20
13.27097998125609
 30
0.0
 11
19.34031525103384
 21
13.45097998125609
 31
0.0
  0
LINE
  5
C33
330
298
100
AcDbEntity
  8
DIM
 62
     0
370
    -2
100
AcDbLine
 10
19.34031525103384
 20
13.45097998125609
 30
0.0
 11
19.52031525103384
 21
13.45097998125609
 31
0.0
  0
SOLID
  5
C34
330
298
100
AcDbEntity
  8
DIM
 62
     0
100
AcDbTrace
 10
19.31031525103384
 20
12.66097998125609
 30
0.0
 11
19.37031525103384
 21
12.66097998125609
 31
0.0
 12
19.34031525103384
 22
12.84097998125609
 32
0.0
 13
19.34031525103384
 23
12.84097998125609
 33
0.0
  0
SOLID
  5
C35
330
298
100
AcDbEntity
  8
DIM
 62
     0
100
AcDbTrace
 10
19.31031525103384
 20
13.27097998125609
 30
0.0
 11
19.37031525103384
 21
13.27097998125609
 31
0.0
 12
19.34031525103384
 22
13.09097998125609
 32
0.0
 13
19.34031525103384
 23
13.09097998125609
 33
0.0
  0
MTEXT
  5
C36
330
298
100
AcDbEntity
  8
DIM
 62
     0
100
AcDbMText
 10
19.94031525103384
 20
13.45097998125609
 30
0.0
 40
0.18
 41
0.0
 71
     5
 72
     1
  1
\A1;0.250
 73
     1
 44
1.0
  0
POINT
  5
C37
330
298
100
AcDbEntity
  8
Defpoints
 62
     0
100
AcDbPoint
 10
18.37321602140403
 20
12.84097998125609
 30
0.0
  0
POINT
  5
C38
330
298
100
AcDbEntity
  8
Defpoints
 62
     0
100
AcDbPoint
 10
18.99999998600661
 20
13.09097998125609
 30
0.0
  0
POINT
  5
C39
330
298
100
AcDbEntity
  8
Defpoints
 62
     0
100
AcDbPoint
 10
19.34031525103384
 20
13.09097998125609
 30
0.0
  0
ENDBLK
  5
2A5
330
298
100
AcDbEntity
  8
0
100
AcDbBlockEnd
  0
BLOCK
  5
2B3
330
2A7
100
AcDbEntity
  8
0
100
AcDbBlockBegin
  2
*D8
 70
     1
 10
0.0
 20
0.0
 30
0.0
  3
*D8
  1

  0
LINE
  5
C24
330
2A7
100
AcDbEntity
  8
DIM
 62
     0
370
    -2
100
AcDbLine
 10
19.06249998600661
 20
12.59097998125609
 30
0.0
 11
20.66455788335712
 21
12.59097998125609
 31
0.0
  0
LINE
  5
C25
330
2A7
100
AcDbEntity
  8
DIM
 62
     0
370
    -2
100
AcDbLine
 10
19.06249998600661
 20
13.09097998125609
 30
0.0
 11
20.66455788335712
 21
13.09097998125609
 31
0.0
  0
LINE
  5
C26
330
2A7
100
AcDbEntity
  8
DIM
 62
     0
370
    -2
100
AcDbLine
 10
20.48455788335712
 20
12.41097998125609
 30
0.0
 11
20.48455788335712
 21
12.23097998125609
 31
0.0
  0
LINE
  5
C27
330
2A7
100
AcDbEntity
  8
DIM
 62
     0
370
    -2
100
AcDbLine
 10
20.48455788335712
 20
13.27097998125609
 30
0.0
 11
20.48455788335712
 21
13.45097998125609
 31
0.0
  0
LINE
  5
C28
330
2A7
100
AcDbEntity
  8
DIM
 62
     0
370
    -2
100
AcDbLine
 10
20.48455788335712
 20
13.45097998125609
 30
0.0
 11
20.66455788335712
 21
13.45097998125609
 31
0.0
  0
SOLID
  5
C29
330
2A7
100
AcDbEntity
  8
DIM
 62
     0
100
AcDbTrace
 10
20.45455788335712
 20
12.41097998125609
 30
0.0
 11
20.51455788335712
 21
12.41097998125609
 31
0.0
 12
20.48455788335712
 22
12.59097998125609
 32
0.0
 13
20.48455788335712
 23
12.59097998125609
 33
0.0
  0
SOLID
  5
C2A
330
2A7
100
AcDbEntity
  8
DIM
 62
     0
100
AcDbTrace
 10
20.45455788335712
 20
13.27097998125609
 30
0.0
 11
20.51455788335712
 21
13.27097998125609
 31
0.0
 12
20.48455788335712
 22
13.09097998125609
 32
0.0
 13
20.48455788335712
 23
13.09097998125609
 33
0.0
  0
MTEXT
  5
C2B
330
2A7
100
AcDbEntity
  8
DIM
 62
     0
100
AcDbMText
 10
21.06955788335712
 20
13.45097998125609
 30
0.0
 40
0.18
 41
0.0
 71
     5
 72
     1
  1
\A1;0.500
 73
     1
 44
1.0
  0
POINT
  5
C2C
330
2A7
100
AcDbEntity
  8
Defpoints
 62
     0
100
AcDbPoint
 10
18.99999998600661
 20
12.59097998125609
 30
0.0
  0
POINT
  5
C2D
330
2A7
100
AcDbEntity
  8
Defpoints
 62
     0
100
AcDbPoint
 10
18.99999998600661
 20
13.09097998125609
 30
0.0
  0
POINT
  5
C2E
330
2A7
100
AcDbEntity
  8
Defpoints
 62
     0
100
AcDbPoint
 10
20.48455788335712
 20
13.09097998125609
 30
0.0
  0
ENDBLK
  5
2B4
330
2A7
100
AcDbEntity
  8
0
100
AcDbBlockEnd
  0
BLOCK
  5
5F1
330
5E8
100
AcDbEntity
  8
0
100
AcDbBlockBegin
  2
*D9
 70
     1
 10
0.0
 20
0.0
 30
0.0
  3
*D9
  1

  0
LINE
  5
D73
330
5E8
100
AcDbEntity
  8
DIM
 62
     0
370
    -2
100
AcDbLine
 10
10.74803844283682
 20
1.898605973950727
 30
0.0
 11
11.11387151938297
 21
1.404651213872848
 31
0.0
  0
LINE
  5
D74
330
5E8
100
AcDbEntity
  8
DIM
 62
     0
370
    -2
100
AcDbLine
 10
11.11387151938297
 20
1.404651213872848
 30
0.0
 11
11.29387151938297
 21
1.404651213872848
 31
0.0
  0
SOLID
  5
D75
330
5E8
100
AcDbEntity
  8
DIM
 62
     0
100
AcDbTrace
 10
10.7721465437597
 20
1.916460930402432
 30
0.0
 11
10.72393034191394
 21
1.880751017499026
 31
0.0
 12
10.6409087041266
 22
2.043254579488009
 32
0.0
 13
10.6409087041266
 23
2.043254579488009
 33
0.0
  0
MTEXT
  5
D76
330
5E8
100
AcDbEntity
  8
DIM
 62
     0
100
AcDbMText
 10
14.96887151938297
 20
1.404651213872846
 30
0.0
 40
0.18
 41
0.0
 71
     5
 72
     1
  1
\A1;%%c0.251 REAM THRU\PSLIP FIT FOR PIN, DRAWING #: MOD-PICK-RP-15
 73
     1
 44
1.0
  0
LINE
  5
D77
330
5E8
100
AcDbEntity
  8
DIM
 62
     0
370
    -2
100
AcDbLine
 10
10.4765130522445
 20
2.143705000000008
 30
0.0
 11
10.6565130522445
 21
2.143705000000008
 31
0.0
  0
LINE
  5
D78
330
5E8
100
AcDbEntity
  8
DIM
 62
     0
370
    -2
100
AcDbLine
 10
10.56651305224451
 20
2.05370500000001
 30
0.0
 11
10.56651305224451
 21
2.233705000000009
 31
0.0
  0
POINT
  5
D79
330
5E8
100
AcDbEntity
  8
Defpoints
 62
     0
100
AcDbPoint
 10
10.6409087041266
 20
2.043254579488009
 30
0.0
  0
POINT
  5
D7A
330
5E8
100
AcDbEntity
  8
Defpoints
 62
     0
100
AcDbPoint
 10
10.49211740036241
 20
2.244155420512006
 30
0.0
  0
ENDBLK
  5
5F2
330
5E8
100
AcDbEntity
  8
0
100
AcDbBlockEnd
  0
BLOCK
  5
619
330
610
100
AcDbEntity
  8
0
100
AcDbBlockBegin
  2
*D10
 70
     1
 10
0.0
 20
0.0
 30
0.0
  3
*D10
  1

  0
LINE
  5
CFE
330
610
100
AcDbEntity
  8
DIM
 62
     0
370
    -2
100
AcDbLine
 10
18.09212886275548
 20
5.379859465543234
 30
0.0
 11
20.16731880654214
 21
10.51077984112593
 31
0.0
  0
LINE
  5
CFF
330
610
100
AcDbEntity
  8
DIM
 62
     0
370
    -2
100
AcDbLine
 10
20.16731880654214
 20
10.51077984112593
 30
0.0
 11
20.34731880654214
 21
10.51077984112593
 31
0.0
  0
SOLID
  5
D00
330
610
100
AcDbEntity
  8
DIM
 62
     0
100
AcDbTrace
 10
18.06431742215076
 20
5.391107744144435
 30
0.0
 11
18.1199403033602
 21
5.368611186942034
 31
0.0
 12
18.02463919114827
 22
5.212990821914926
 32
0.0
 13
18.02463919114827
 23
5.212990821914926
 33
0.0
  0
MTEXT
  5
D01
330
610
100
AcDbEntity
  8
DIM
 62
     0
100
AcDbMText
 10
21.62231880654215
 20
10.51077984112593
 30
0.0
 40
0.18
 41
0.0
 71
     5
 72
     1
  1
\A1;10-32 TAP THRU\P12X
 73
     1
 44
1.0
  0
LINE
  5
D02
330
610
100
AcDbEntity
  8
DIM
 62
     0
370
    -2
100
AcDbLine
 10
17.89901964224448
 20
5.124921259999991
 30
0.0
 11
18.07901964224448
 21
5.124921259999995
 31
0.0
  0
LINE
  5
D03
330
610
100
AcDbEntity
  8
DIM
 62
     0
370
    -2
100
AcDbLine
 10
17.98901964224447
 20
5.034921259999992
 30
0.0
 11
17.98901964224447
 21
5.214921259999993
 31
0.0
  0
POINT
  5
D04
330
610
100
AcDbEntity
  8
Defpoints
 62
     0
100
AcDbPoint
 10
18.02463919114827
 20
5.212990821914926
 30
0.0
  0
POINT
  5
D05
330
610
100
AcDbEntity
  8
Defpoints
 62
     0
100
AcDbPoint
 10
17.95340009334068
 20
5.036851698085057
 30
0.0
  0
ENDBLK
  5
61A
330
610
100
AcDbEntity
  8
0
100
AcDbBlockEnd
  0
BLOCK
  5
625
330
61C
100
AcDbEntity
  8
0
100
AcDbBlockBegin
  2
*D11
 70
     1
 10
0.0
 20
0.0
 30
0.0
  3
*D11
  1

  0
LINE
  5
A8F
330
61C
100
AcDbEntity
  8
DIM
 62
     0
370
    -2
100
AcDbLine
 10
18.40088952867148
 20
13.03905407323781
 30
0.0
 11
19.63058139547967
 21
14.65328190926673
 31
0.0
  0
LINE
  5
A90
330
61C
100
AcDbEntity
  8
DIM
 62
     0
370
    -2
100
AcDbLine
 10
19.63058139547967
 20
14.65328190926673
 30
0.0
 11
19.81058139547966
 21
14.65328190926673
 31
0.0
  0
SOLID
  5
A91
330
61C
100
AcDbEntity
  8
DIM
 62
     0
100
AcDbTrace
 10
18.37702518023995
 20
13.05723353620948
 30
0.0
 11
18.42475387710302
 21
13.02087461026613
 31
0.0
 12
18.29181275084145
 22
12.89586798264861
 32
0.0
 13
18.29181275084145
 23
12.89586798264861
 33
0.0
  0
MTEXT
  5
A92
330
61C
100
AcDbEntity
  8
DIM
 62
     0
100
AcDbMText
 10
21.43058139547968
 20
14.65328190926672
 30
0.0
 40
0.18
 41
0.0
 71
     5
 72
     1
  1
\A1;6-32 TAP .375 DEEP\P4X
 73
     1
 44
1.0
  0
LINE
  5
A93
330
61C
100
AcDbEntity
  8
DIM
 62
     0
370
    -2
100
AcDbLine
 10
18.15999998600659
 20
12.84097998125609
 30
0.0
 11
18.3399999860066
 21
12.84097998125609
 31
0.0
  0
LINE
  5
A94
330
61C
100
AcDbEntity
  8
DIM
 62
     0
370
    -2
100
AcDbLine
 10
18.24999998600659
 20
12.75097998125609
 30
0.0
 11
18.24999998600659
 21
12.93097998125609
 31
0.0
  0
POINT
  5
A95
330
61C
100
AcDbEntity
  8
Defpoints
 62
     0
100
AcDbPoint
 10
18.29181275084145
 20
12.89586798264861
 30
0.0
  0
POINT
  5
A96
330
61C
100
AcDbEntity
  8
Defpoints
 62
     0
100
AcDbPoint
 10
18.20818722117174
 20
12.78609197986356
 30
0.0
  0
ENDBLK
  5
626
330
61C
100
AcDbEntity
  8
0
100
AcDbBlockEnd
  0
BLOCK
  5
6F7
330
6F2
100
AcDbEntity
  8
0
100
AcDbBlockBegin
  2
vac-cup-5-top
 70
     0
 10
0.0
 20
0.0
 30
0.0
  3
vac-cup-5-top
  1

  0
LINE
  5
6F3
330
6F2
100
AcDbEntity
  8
CENTER
100
AcDbLine
 10
0.0
 20
0.201433835685016
 30
0.0
 11
0.0
 21
-0.1984048135880769
 31
0.0
  0
CIRCLE
  5
6F4
330
6F2
100
AcDbEntity
  8
VAC-CUP
100
AcDbCircle
 10
0.0
 20
0.0
 30
0.0
 40
0.1400000000000001
  0
LINE
  5
6F5
330
6F2
100
AcDbEntity
  8
CENTER
100
AcDbLine
 10
0.2058332463933392
 20
0.0
 30
0.0
 11
-0.1986213601059181
 21
0.0
 31
0.0
  0
CIRCLE
  5
6F6
330
6F2
100
AcDbEntity
  8
VAC-CUP
100
AcDbCircle
 10
0.0
 20
0.0
 30
0.0
 40
0.1099999999999999
  0
ENDBLK
  5
6F8
330
6F2
100
AcDbEntity
  8
0
100
AcDbBlockEnd
  0
BLOCK
  5
87A
330
86F
100
AcDbEntity
  8
0
100
AcDbBlockBegin
  2
*D13
 70
     1
 10
0.0
 20
0.0
 30
0.0
  3
*D13
  1

  0
LINE
  5
C1A
330
86F
100
AcDbEntity
  8
DIM
 62
     0
370
    -2
100
AcDbLine
 10
10.99999998600661
 20
13.03716724150269
 30
0.0
 11
10.99999998600661
 21
13.59311591837013
 31
0.0
  0
LINE
  5
C1B
330
86F
100
AcDbEntity
  8
DIM
 62
     0
370
    -2
100
AcDbLine
 10
9.499999986006613
 20
13.15347998125609
 30
0.0
 11
9.499999986006613
 21
13.59311591837013
 31
0.0
  0
LINE
  5
C1C
330
86F
100
AcDbEntity
  8
DIM
 62
     0
370
    -2
100
AcDbLine
 10
10.81999998600661
 20
13.41311591837013
 30
0.0
 11
10.63999998600661
 21
13.41311591837013
 31
0.0
  0
LINE
  5
C1D
330
86F
100
AcDbEntity
  8
DIM
 62
     0
370
    -2
100
AcDbLine
 10
9.679999986006613
 20
13.41311591837013
 30
0.0
 11
9.859999986006613
 21
13.41311591837013
 31
0.0
  0
SOLID
  5
C1E
330
86F
100
AcDbEntity
  8
DIM
 62
     0
100
AcDbTrace
 10
10.81999998600661
 20
13.44311591837013
 30
0.0
 11
10.81999998600661
 21
13.38311591837014
 31
0.0
 12
10.99999998600661
 22
13.41311591837013
 32
0.0
 13
10.99999998600661
 23
13.41311591837013
 33
0.0
  0
SOLID
  5
C1F
330
86F
100
AcDbEntity
  8
DIM
 62
     0
100
AcDbTrace
 10
9.679999986006613
 20
13.44311591837013
 30
0.0
 11
9.679999986006613
 21
13.38311591837014
 31
0.0
 12
9.499999986006613
 22
13.41311591837013
 32
0.0
 13
9.499999986006613
 23
13.41311591837013
 33
0.0
  0
MTEXT
  5
C20
330
86F
100
AcDbEntity
  8
DIM
 62
     0
100
AcDbMText
 10
10.24999998600661
 20
13.41311591837013
 30
0.0
 40
0.18
 41
0.0
 71
     5
 72
     1
  1
\A1;1.500
 73
     1
 44
1.0
  0
POINT
  5
C21
330
86F
100
AcDbEntity
  8
Defpoints
 62
     0
100
AcDbPoint
 10
10.99999998600661
 20
12.97466724150269
 30
0.0
  0
POINT
  5
C22
330
86F
100
AcDbEntity
  8
Defpoints
 62
     0
100
AcDbPoint
 10
9.499999986006613
 20
13.09097998125609
 30
0.0
  0
POINT
  5
C23
330
86F
100
AcDbEntity
  8
Defpoints
 62
     0
100
AcDbPoint
 10
9.499999986006613
 20
13.41311591837013
 30
0.0
  0
ENDBLK
  5
87B
330
86F
100
AcDbEntity
  8
0
100
AcDbBlockEnd
  0
BLOCK
  5
888
330
87D
100
AcDbEntity
  8
0
100
AcDbBlockBegin
  2
*D14
 70
     1
 10
0.0
 20
0.0
 30
0.0
  3
*D14
  1

  0
LINE
  5
B2F
330
87D
100
AcDbEntity
  8
DIM
 62
     0
370
    -2
100
AcDbLine
 10
9.975963052244516
 20
6.552482260246584
 30
0.0
 11
9.975963052244516
 21
7.057454450038513
 31
0.0
  0
LINE
  5
B30
330
87D
100
AcDbEntity
  8
DIM
 62
     0
370
    -2
100
AcDbLine
 10
9.5
 20
6.6875
 30
0.0
 11
9.5
 21
7.057454450038513
 31
0.0
  0
LINE
  5
B31
330
87D
100
AcDbEntity
  8
DIM
 62
     0
370
    -2
100
AcDbLine
 10
10.15596305224451
 20
6.877454450038513
 30
0.0
 11
10.33596305224451
 21
6.877454450038513
 31
0.0
  0
LINE
  5
B32
330
87D
100
AcDbEntity
  8
DIM
 62
     0
370
    -2
100
AcDbLine
 10
9.32
 20
6.877454450038513
 30
0.0
 11
9.14
 21
6.877454450038513
 31
0.0
  0
SOLID
  5
B33
330
87D
100
AcDbEntity
  8
DIM
 62
     0
100
AcDbTrace
 10
10.15596305224451
 20
6.907454450038513
 30
0.0
 11
10.15596305224451
 21
6.847454450038513
 31
0.0
 12
9.975963052244516
 22
6.877454450038513
 32
0.0
 13
9.975963052244516
 23
6.877454450038513
 33
0.0
  0
SOLID
  5
B34
330
87D
100
AcDbEntity
  8
DIM
 62
     0
100
AcDbTrace
 10
9.32
 20
6.907454450038513
 30
0.0
 11
9.32
 21
6.847454450038513
 31
0.0
 12
9.5
 22
6.877454450038513
 32
0.0
 13
9.5
 23
6.877454450038513
 33
0.0
  0
MTEXT
  5
B35
330
87D
100
AcDbEntity
  8
DIM
 62
     0
100
AcDbMText
 10
8.705
 20
6.877454450038513
 30
0.0
 40
0.18
 41
0.0
 71
     5
 72
     1
  1
\A1;0.476
 73
     1
 44
1.0
  0
POINT
  5
B36
330
87D
100
AcDbEntity
  8
Defpoints
 62
     0
100
AcDbPoint
 10
9.975963052244516
 20
6.489982260246584
 30
0.0
  0
POINT
  5
B37
330
87D
100
AcDbEntity
  8
Defpoints
 62
     0
100
AcDbPoint
 10
9.5
 20
6.625
 30
0.0
  0
POINT
  5
B38
330
87D
100
AcDbEntity
  8
Defpoints
 62
     0
100
AcDbPoint
 10
9.5
 20
6.877454450038513
 30
0.0
  0
ENDBLK
  5
889
330
87D
100
AcDbEntity
  8
0
100
AcDbBlockEnd
  0
BLOCK
  5
896
330
88B
100
AcDbEntity
  8
0
100
AcDbBlockBegin
  2
*D15
 70
     1
 10
0.0
 20
0.0
 30
0.0
  3
*D15
  1

  0
LINE
  5
B7F
330
88B
100
AcDbEntity
  8
DIM
 62
     0
370
    -2
100
AcDbLine
 10
10.2308838022445
 20
6.613067175144998
 30
0.0
 11
10.2308838022445
 21
7.444533381444038
 31
0.0
  0
LINE
  5
B80
330
88B
100
AcDbEntity
  8
DIM
 62
     0
370
    -2
100
AcDbLine
 10
9.5
 20
6.6875
 30
0.0
 11
9.5
 21
7.444533381444038
 31
0.0
  0
LINE
  5
B81
330
88B
100
AcDbEntity
  8
DIM
 62
     0
370
    -2
100
AcDbLine
 10
10.4108838022445
 20
7.264533381444039
 30
0.0
 11
10.5908838022445
 21
7.264533381444039
 31
0.0
  0
LINE
  5
B82
330
88B
100
AcDbEntity
  8
DIM
 62
     0
370
    -2
100
AcDbLine
 10
9.32
 20
7.264533381444039
 30
0.0
 11
9.139999999999998
 21
7.264533381444039
 31
0.0
  0
SOLID
  5
B83
330
88B
100
AcDbEntity
  8
DIM
 62
     0
100
AcDbTrace
 10
10.4108838022445
 20
7.294533381444039
 30
0.0
 11
10.4108838022445
 21
7.234533381444038
 31
0.0
 12
10.2308838022445
 22
7.264533381444039
 32
0.0
 13
10.2308838022445
 23
7.264533381444039
 33
0.0
  0
SOLID
  5
B84
330
88B
100
AcDbEntity
  8
DIM
 62
     0
100
AcDbTrace
 10
9.32
 20
7.294533381444039
 30
0.0
 11
9.32
 21
7.234533381444038
 31
0.0
 12
9.5
 22
7.264533381444039
 32
0.0
 13
9.5
 23
7.264533381444039
 33
0.0
  0
MTEXT
  5
B85
330
88B
100
AcDbEntity
  8
DIM
 62
     0
100
AcDbMText
 10
8.734999999999999
 20
7.264533381444039
 30
0.0
 40
0.18
 41
0.0
 71
     5
 72
     1
  1
\A1;0.731
 73
     1
 44
1.0
  0
POINT
  5
B86
330
88B
100
AcDbEntity
  8
Defpoints
 62
     0
100
AcDbPoint
 10
10.2308838022445
 20
6.550567175144998
 30
0.0
  0
POINT
  5
B87
330
88B
100
AcDbEntity
  8
Defpoints
 62
     0
100
AcDbPoint
 10
9.5
 20
6.625
 30
0.0
  0
POINT
  5
B88
330
88B
100
AcDbEntity
  8
Defpoints
 62
     0
100
AcDbPoint
 10
9.5
 20
7.264533381444039
 30
0.0
  0
ENDBLK
  5
897
330
88B
100
AcDbEntity
  8
0
100
AcDbBlockEnd
  0
BLOCK
  5
8B2
330
8A7
100
AcDbEntity
  8
0
100
AcDbBlockBegin
  2
*D16
 70
     1
 10
0.0
 20
0.0
 30
0.0
  3
*D16
  1

  0
LINE
  5
B43
330
8A7
100
AcDbEntity
  8
DIM
 62
     0
370
    -2
100
AcDbLine
 10
10.00003977306457
 20
4.302450968690509
 30
0.0
 11
10.00003977306457
 21
1.392713616751762
 31
0.0
  0
LINE
  5
B44
330
8A7
100
AcDbEntity
  8
DIM
 62
     0
370
    -2
100
AcDbLine
 10
9.5
 20
1.8125
 30
0.0
 11
9.5
 21
1.392713616751762
 31
0.0
  0
LINE
  5
B45
330
8A7
100
AcDbEntity
  8
DIM
 62
     0
370
    -2
100
AcDbLine
 10
10.18003977306457
 20
1.572713616751762
 30
0.0
 11
10.36003977306457
 21
1.572713616751762
 31
0.0
  0
LINE
  5
B46
330
8A7
100
AcDbEntity
  8
DIM
 62
     0
370
    -2
100
AcDbLine
 10
9.32
 20
1.572713616751762
 30
0.0
 11
9.139999999999998
 21
1.572713616751762
 31
0.0
  0
SOLID
  5
B47
330
8A7
100
AcDbEntity
  8
DIM
 62
     0
100
AcDbTrace
 10
10.18003977306457
 20
1.602713616751762
 30
0.0
 11
10.18003977306457
 21
1.542713616751762
 31
0.0
 12
10.00003977306457
 22
1.572713616751762
 32
0.0
 13
10.00003977306457
 23
1.572713616751762
 33
0.0
  0
SOLID
  5
B48
330
8A7
100
AcDbEntity
  8
DIM
 62
     0
100
AcDbTrace
 10
9.32
 20
1.602713616751762
 30
0.0
 11
9.32
 21
1.542713616751762
 31
0.0
 12
9.5
 22
1.572713616751762
 32
0.0
 13
9.5
 23
1.572713616751762
 33
0.0
  0
MTEXT
  5
B49
330
8A7
100
AcDbEntity
  8
DIM
 62
     0
100
AcDbMText
 10
8.734999999999999
 20
1.572713616751762
 30
0.0
 40
0.18
 41
0.0
 71
     5
 72
     1
  1
\A1;0.500
 73
     1
 44
1.0
  0
POINT
  5
B4A
330
8A7
100
AcDbEntity
  8
Defpoints
 62
     0
100
AcDbPoint
 10
10.00003977306457
 20
4.364950968690509
 30
0.0
  0
POINT
  5
B4B
330
8A7
100
AcDbEntity
  8
Defpoints
 62
     0
100
AcDbPoint
 10
9.5
 20
1.875
 30
0.0
  0
POINT
  5
B4C
330
8A7
100
AcDbEntity
  8
Defpoints
 62
     0
100
AcDbPoint
 10
9.5
 20
1.572713616751762
 30
0.0
  0
ENDBLK
  5
8B3
330
8A7
100
AcDbEntity
  8
0
100
AcDbBlockEnd
  0
BLOCK
  5
8C0
330
8B5
100
AcDbEntity
  8
0
100
AcDbBlockBegin
  2
*D17
 70
     1
 10
0.0
 20
0.0
 30
0.0
  3
*D17
  1

  0
LINE
  5
B93
330
8B5
100
AcDbEntity
  8
DIM
 62
     0
370
    -2
100
AcDbLine
 10
12.3890664622445
 20
4.562421259999998
 30
0.0
 11
12.3890664622445
 21
8.251555224387018
 31
0.0
  0
LINE
  5
B94
330
8B5
100
AcDbEntity
  8
DIM
 62
     0
370
    -2
100
AcDbLine
 10
9.5
 20
6.6875
 30
0.0
 11
9.5
 21
8.251555224387018
 31
0.0
  0
LINE
  5
B95
330
8B5
100
AcDbEntity
  8
DIM
 62
     0
370
    -2
100
AcDbLine
 10
12.2090664622445
 20
8.071555224387019
 30
0.0
 11
11.39453323112225
 21
8.071555224387019
 31
0.0
  0
LINE
  5
B96
330
8B5
100
AcDbEntity
  8
DIM
 62
     0
370
    -2
100
AcDbLine
 10
9.679999999999999
 20
8.071555224387019
 30
0.0
 11
10.49453323112225
 21
8.071555224387019
 31
0.0
  0
SOLID
  5
B97
330
8B5
100
AcDbEntity
  8
DIM
 62
     0
100
AcDbTrace
 10
12.2090664622445
 20
8.101555224387018
 30
0.0
 11
12.2090664622445
 21
8.041555224387019
 31
0.0
 12
12.3890664622445
 22
8.071555224387019
 32
0.0
 13
12.3890664622445
 23
8.071555224387019
 33
0.0
  0
SOLID
  5
B98
330
8B5
100
AcDbEntity
  8
DIM
 62
     0
100
AcDbTrace
 10
9.679999999999999
 20
8.101555224387018
 30
0.0
 11
9.679999999999999
 21
8.041555224387019
 31
0.0
 12
9.5
 22
8.071555224387019
 32
0.0
 13
9.5
 23
8.071555224387019
 33
0.0
  0
MTEXT
  5
B99
330
8B5
100
AcDbEntity
  8
DIM
 62
     0
100
AcDbMText
 10
10.94453323112225
 20
8.071555224387019
 30
0.0
 40
0.18
 41
0.0
 71
     5
 72
     1
  1
\A1;2.889
 73
     1
 44
1.0
  0
POINT
  5
B9A
330
8B5
100
AcDbEntity
  8
Defpoints
 62
     0
100
AcDbPoint
 10
12.3890664622445
 20
4.499921259999998
 30
0.0
  0
POINT
  5
B9B
330
8B5
100
AcDbEntity
  8
Defpoints
 62
     0
100
AcDbPoint
 10
9.5
 20
6.625
 30
0.0
  0
POINT
  5
B9C
330
8B5
100
AcDbEntity
  8
Defpoints
 62
     0
100
AcDbPoint
 10
9.5
 20
8.071555224387019
 30
0.0
  0
ENDBLK
  5
8C1
330
8B5
100
AcDbEntity
  8
0
100
AcDbBlockEnd
  0
BLOCK
  5
900
330
8F5
100
AcDbEntity
  8
0
100
AcDbBlockBegin
  2
*D18
 70
     1
 10
0.0
 20
0.0
 30
0.0
  3
*D18
  1

  0
LINE
  5
B75
330
8F5
100
AcDbEntity
  8
DIM
 62
     0
370
    -2
100
AcDbLine
 10
12.5140664622445
 20
5.381850915144999
 30
0.0
 11
12.5140664622445
 21
8.571740748682408
 31
0.0
  0
LINE
  5
B76
330
8F5
100
AcDbEntity
  8
DIM
 62
     0
370
    -2
100
AcDbLine
 10
9.5
 20
6.6875
 30
0.0
 11
9.5
 21
8.571740748682408
 31
0.0
  0
LINE
  5
B77
330
8F5
100
AcDbEntity
  8
DIM
 62
     0
370
    -2
100
AcDbLine
 10
12.3340664622445
 20
8.391740748682408
 30
0.0
 11
11.41203323112224
 21
8.391740748682408
 31
0.0
  0
LINE
  5
B78
330
8F5
100
AcDbEntity
  8
DIM
 62
     0
370
    -2
100
AcDbLine
 10
9.679999999999999
 20
8.391740748682408
 30
0.0
 11
10.60203323112225
 21
8.391740748682408
 31
0.0
  0
SOLID
  5
B79
330
8F5
100
AcDbEntity
  8
DIM
 62
     0
100
AcDbTrace
 10
12.3340664622445
 20
8.421740748682408
 30
0.0
 11
12.3340664622445
 21
8.361740748682409
 31
0.0
 12
12.5140664622445
 22
8.391740748682408
 32
0.0
 13
12.5140664622445
 23
8.391740748682408
 33
0.0
  0
SOLID
  5
B7A
330
8F5
100
AcDbEntity
  8
DIM
 62
     0
100
AcDbTrace
 10
9.679999999999999
 20
8.421740748682408
 30
0.0
 11
9.679999999999999
 21
8.361740748682409
 31
0.0
 12
9.5
 22
8.391740748682408
 32
0.0
 13
9.5
 23
8.391740748682408
 33
0.0
  0
MTEXT
  5
B7B
330
8F5
100
AcDbEntity
  8
DIM
 62
     0
100
AcDbMText
 10
11.00703323112224
 20
8.391740748682408
 30
0.0
 40
0.18
 41
0.0
 71
     5
 72
     1
  1
\A1;3.014
 73
     1
 44
1.0
  0
POINT
  5
B7C
330
8F5
100
AcDbEntity
  8
Defpoints
 62
     0
100
AcDbPoint
 10
12.5140664622445
 20
5.319350915144999
 30
0.0
  0
POINT
  5
B7D
330
8F5
100
AcDbEntity
  8
Defpoints
 62
     0
100
AcDbPoint
 10
9.5
 20
6.625
 30
0.0
  0
POINT
  5
B7E
330
8F5
100
AcDbEntity
  8
Defpoints
 62
     0
100
AcDbPoint
 10
9.5
 20
8.391740748682408
 30
0.0
  0
ENDBLK
  5
901
330
8F5
100
AcDbEntity
  8
0
100
AcDbBlockEnd
  0
BLOCK
  5
90E
330
903
100
AcDbEntity
  8
0
100
AcDbBlockBegin
  2
*D19
 70
     1
 10
0.0
 20
0.0
 30
0.0
  3
*D19
  1

  0
LINE
  5
B6B
330
903
100
AcDbEntity
  8
DIM
 62
     0
370
    -2
100
AcDbLine
 10
13.3890664622445
 20
5.562421259999998
 30
0.0
 11
13.3890664622445
 21
8.947374534339331
 31
0.0
  0
LINE
  5
B6C
330
903
100
AcDbEntity
  8
DIM
 62
     0
370
    -2
100
AcDbLine
 10
9.5
 20
6.6875
 30
0.0
 11
9.5
 21
8.947374534339331
 31
0.0
  0
LINE
  5
B6D
330
903
100
AcDbEntity
  8
DIM
 62
     0
370
    -2
100
AcDbLine
 10
13.2090664622445
 20
8.767374534339332
 30
0.0
 11
11.89453323112225
 21
8.767374534339332
 31
0.0
  0
LINE
  5
B6E
330
903
100
AcDbEntity
  8
DIM
 62
     0
370
    -2
100
AcDbLine
 10
9.679999999999999
 20
8.767374534339332
 30
0.0
 11
10.99453323112225
 21
8.767374534339332
 31
0.0
  0
SOLID
  5
B6F
330
903
100
AcDbEntity
  8
DIM
 62
     0
100
AcDbTrace
 10
13.2090664622445
 20
8.797374534339331
 30
0.0
 11
13.2090664622445
 21
8.737374534339332
 31
0.0
 12
13.3890664622445
 22
8.767374534339332
 32
0.0
 13
13.3890664622445
 23
8.767374534339332
 33
0.0
  0
SOLID
  5
B70
330
903
100
AcDbEntity
  8
DIM
 62
     0
100
AcDbTrace
 10
9.679999999999999
 20
8.797374534339331
 30
0.0
 11
9.679999999999999
 21
8.737374534339332
 31
0.0
 12
9.5
 22
8.767374534339332
 32
0.0
 13
9.5
 23
8.767374534339332
 33
0.0
  0
MTEXT
  5
B71
330
903
100
AcDbEntity
  8
DIM
 62
     0
100
AcDbMText
 10
11.44453323112225
 20
8.767374534339332
 30
0.0
 40
0.18
 41
0.0
 71
     5
 72
     1
  1
\A1;3.889
 73
     1
 44
1.0
  0
POINT
  5
B72
330
903
100
AcDbEntity
  8
Defpoints
 62
     0
100
AcDbPoint
 10
13.3890664622445
 20
5.499921259999998
 30
0.0
  0
POINT
  5
B73
330
903
100
AcDbEntity
  8
Defpoints
 62
     0
100
AcDbPoint
 10
9.5
 20
6.625
 30
0.0
  0
POINT
  5
B74
330
903
100
AcDbEntity
  8
Defpoints
 62
     0
100
AcDbPoint
 10
9.5
 20
8.767374534339332
 30
0.0
  0
ENDBLK
  5
90F
330
903
100
AcDbEntity
  8
0
100
AcDbBlockEnd
  0
BLOCK
  5
91C
330
911
100
AcDbEntity
  8
0
100
AcDbBlockBegin
  2
*D20
 70
     1
 10
0.0
 20
0.0
 30
0.0
  3
*D20
  1

  0
LINE
  5
B61
330
911
100
AcDbEntity
  8
DIM
 62
     0
370
    -2
100
AcDbLine
 10
14.2640664622445
 20
5.381850915144999
 30
0.0
 11
14.2640664622445
 21
9.332170095848056
 31
0.0
  0
LINE
  5
B62
330
911
100
AcDbEntity
  8
DIM
 62
     0
370
    -2
100
AcDbLine
 10
9.5
 20
6.6875
 30
0.0
 11
9.5
 21
9.332170095848056
 31
0.0
  0
LINE
  5
B63
330
911
100
AcDbEntity
  8
DIM
 62
     0
370
    -2
100
AcDbLine
 10
14.0840664622445
 20
9.152170095848056
 30
0.0
 11
12.33203323112225
 21
9.152170095848056
 31
0.0
  0
LINE
  5
B64
330
911
100
AcDbEntity
  8
DIM
 62
     0
370
    -2
100
AcDbLine
 10
9.679999999999999
 20
9.152170095848056
 30
0.0
 11
11.43203323112225
 21
9.152170095848056
 31
0.0
  0
SOLID
  5
B65
330
911
100
AcDbEntity
  8
DIM
 62
     0
100
AcDbTrace
 10
14.0840664622445
 20
9.182170095848055
 30
0.0
 11
14.0840664622445
 21
9.122170095848057
 31
0.0
 12
14.2640664622445
 22
9.152170095848056
 32
0.0
 13
14.2640664622445
 23
9.152170095848056
 33
0.0
  0
SOLID
  5
B66
330
911
100
AcDbEntity
  8
DIM
 62
     0
100
AcDbTrace
 10
9.679999999999999
 20
9.182170095848055
 30
0.0
 11
9.679999999999999
 21
9.122170095848057
 31
0.0
 12
9.5
 22
9.152170095848056
 32
0.0
 13
9.5
 23
9.152170095848056
 33
0.0
  0
MTEXT
  5
B67
330
911
100
AcDbEntity
  8
DIM
 62
     0
100
AcDbMText
 10
11.88203323112225
 20
9.152170095848056
 30
0.0
 40
0.18
 41
0.0
 71
     5
 72
     1
  1
\A1;4.764
 73
     1
 44
1.0
  0
POINT
  5
B68
330
911
100
AcDbEntity
  8
Defpoints
 62
     0
100
AcDbPoint
 10
14.2640664622445
 20
5.319350915144999
 30
0.0
  0
POINT
  5
B69
330
911
100
AcDbEntity
  8
Defpoints
 62
     0
100
AcDbPoint
 10
9.5
 20
6.625
 30
0.0
  0
POINT
  5
B6A
330
911
100
AcDbEntity
  8
Defpoints
 62
     0
100
AcDbPoint
 10
9.5
 20
9.152170095848056
 30
0.0
  0
ENDBLK
  5
91D
330
911
100
AcDbEntity
  8
0
100
AcDbBlockEnd
  0
BLOCK
  5
92A
330
91F
100
AcDbEntity
  8
0
100
AcDbBlockBegin
  2
*D21
 70
     1
 10
0.0
 20
0.0
 30
0.0
  3
*D21
  1

  0
LINE
  5
B57
330
91F
100
AcDbEntity
  8
DIM
 62
     0
370
    -2
100
AcDbLine
 10
14.3890664622445
 20
4.562421259999998
 30
0.0
 11
14.3890664622445
 21
9.689480329801391
 31
0.0
  0
LINE
  5
B58
330
91F
100
AcDbEntity
  8
DIM
 62
     0
370
    -2
100
AcDbLine
 10
9.5
 20
6.6875
 30
0.0
 11
9.5
 21
9.689480329801391
 31
0.0
  0
LINE
  5
B59
330
91F
100
AcDbEntity
  8
DIM
 62
     0
370
    -2
100
AcDbLine
 10
14.2090664622445
 20
9.509480329801391
 30
0.0
 11
12.39453323112225
 21
9.509480329801391
 31
0.0
  0
LINE
  5
B5A
330
91F
100
AcDbEntity
  8
DIM
 62
     0
370
    -2
100
AcDbLine
 10
9.679999999999999
 20
9.509480329801391
 30
0.0
 11
11.49453323112225
 21
9.509480329801391
 31
0.0
  0
SOLID
  5
B5B
330
91F
100
AcDbEntity
  8
DIM
 62
     0
100
AcDbTrace
 10
14.2090664622445
 20
9.53948032980139
 30
0.0
 11
14.2090664622445
 21
9.479480329801392
 31
0.0
 12
14.3890664622445
 22
9.509480329801391
 32
0.0
 13
14.3890664622445
 23
9.509480329801391
 33
0.0
  0
SOLID
  5
B5C
330
91F
100
AcDbEntity
  8
DIM
 62
     0
100
AcDbTrace
 10
9.679999999999999
 20
9.53948032980139
 30
0.0
 11
9.679999999999999
 21
9.479480329801392
 31
0.0
 12
9.5
 22
9.509480329801391
 32
0.0
 13
9.5
 23
9.509480329801391
 33
0.0
  0
MTEXT
  5
B5D
330
91F
100
AcDbEntity
  8
DIM
 62
     0
100
AcDbMText
 10
11.94453323112224
 20
9.509480329801391
 30
0.0
 40
0.18
 41
0.0
 71
     5
 72
     1
  1
\A1;4.889
 73
     1
 44
1.0
  0
POINT
  5
B5E
330
91F
100
AcDbEntity
  8
Defpoints
 62
     0
100
AcDbPoint
 10
14.3890664622445
 20
4.499921259999998
 30
0.0
  0
POINT
  5
B5F
330
91F
100
AcDbEntity
  8
Defpoints
 62
     0
100
AcDbPoint
 10
9.5
 20
6.625
 30
0.0
  0
POINT
  5
B60
330
91F
100
AcDbEntity
  8
Defpoints
 62
     0
100
AcDbPoint
 10
9.5
 20
9.509480329801391
 30
0.0
  0
ENDBLK
  5
92B
330
91F
100
AcDbEntity
  8
0
100
AcDbBlockEnd
  0
BLOCK
  5
938
330
92D
100
AcDbEntity
  8
0
100
AcDbBlockBegin
  2
*D22
 70
     1
 10
0.0
 20
0.0
 30
0.0
  3
*D22
  1

  0
LINE
  5
B4D
330
92D
100
AcDbEntity
  8
DIM
 62
     0
370
    -2
100
AcDbLine
 10
16.11401964224449
 20
4.562421259999998
 30
0.0
 11
16.11401964224449
 21
10.01930513349057
 31
0.0
  0
LINE
  5
B4E
330
92D
100
AcDbEntity
  8
DIM
 62
     0
370
    -2
100
AcDbLine
 10
9.5
 20
6.6875
 30
0.0
 11
9.5
 21
10.01930513349057
 31
0.0
  0
LINE
  5
B4F
330
92D
100
AcDbEntity
  8
DIM
 62
     0
370
    -2
100
AcDbLine
 10
15.93401964224449
 20
9.839305133490569
 30
0.0
 11
13.22700982112224
 21
9.839305133490569
 31
0.0
  0
LINE
  5
B50
330
92D
100
AcDbEntity
  8
DIM
 62
     0
370
    -2
100
AcDbLine
 10
9.679999999999999
 20
9.839305133490569
 30
0.0
 11
12.38700982112225
 21
9.839305133490569
 31
0.0
  0
SOLID
  5
B51
330
92D
100
AcDbEntity
  8
DIM
 62
     0
100
AcDbTrace
 10
15.93401964224449
 20
9.869305133490568
 30
0.0
 11
15.93401964224449
 21
9.809305133490569
 31
0.0
 12
16.11401964224449
 22
9.839305133490569
 32
0.0
 13
16.11401964224449
 23
9.839305133490569
 33
0.0
  0
SOLID
  5
B52
330
92D
100
AcDbEntity
  8
DIM
 62
     0
100
AcDbTrace
 10
9.679999999999999
 20
9.869305133490568
 30
0.0
 11
9.679999999999999
 21
9.809305133490569
 31
0.0
 12
9.5
 22
9.839305133490569
 32
0.0
 13
9.5
 23
9.839305133490569
 33
0.0
  0
MTEXT
  5
B53
330
92D
100
AcDbEntity
  8
DIM
 62
     0
100
AcDbMText
 10
12.80700982112224
 20
9.839305133490569
 30
0.0
 40
0.18
 41
0.0
 71
     5
 72
     1
  1
\A1;6.614
 73
     1
 44
1.0
  0
POINT
  5
B54
330
92D
100
AcDbEntity
  8
Defpoints
 62
     0
100
AcDbPoint
 10
16.11401964224449
 20
4.499921259999998
 30
0.0
  0
POINT
  5
B55
330
92D
100
AcDbEntity
  8
Defpoints
 62
     0
100
AcDbPoint
 10
9.5
 20
6.625
 30
0.0
  0
POINT
  5
B56
330
92D
100
AcDbEntity
  8
Defpoints
 62
     0
100
AcDbPoint
 10
9.5
 20
9.839305133490569
 30
0.0
  0
ENDBLK
  5
939
330
92D
100
AcDbEntity
  8
0
100
AcDbBlockEnd
  0
BLOCK
  5
946
330
93B
100
AcDbEntity
  8
0
100
AcDbBlockBegin
  2
*D23
 70
     1
 10
0.0
 20
0.0
 30
0.0
  3
*D23
  1

  0
LINE
  5
ACA
330
93B
100
AcDbEntity
  8
DIM
 62
     0
370
    -2
100
AcDbLine
 10
16.23901964224449
 20
5.381850915144999
 30
0.0
 11
16.23901964224449
 21
10.37724389372793
 31
0.0
  0
LINE
  5
ACB
330
93B
100
AcDbEntity
  8
DIM
 62
     0
370
    -2
100
AcDbLine
 10
9.5
 20
6.6875
 30
0.0
 11
9.5
 21
10.37724389372793
 31
0.0
  0
LINE
  5
ACC
330
93B
100
AcDbEntity
  8
DIM
 62
     0
370
    -2
100
AcDbLine
 10
16.05901964224449
 20
10.19724389372793
 30
0.0
 11
13.31950982112224
 21
10.19724389372793
 31
0.0
  0
LINE
  5
ACD
330
93B
100
AcDbEntity
  8
DIM
 62
     0
370
    -2
100
AcDbLine
 10
9.679999999999999
 20
10.19724389372793
 30
0.0
 11
12.41950982112224
 21
10.19724389372793
 31
0.0
  0
SOLID
  5
ACE
330
93B
100
AcDbEntity
  8
DIM
 62
     0
100
AcDbTrace
 10
16.05901964224449
 20
10.22724389372793
 30
0.0
 11
16.05901964224449
 21
10.16724389372793
 31
0.0
 12
16.23901964224449
 22
10.19724389372793
 32
0.0
 13
16.23901964224449
 23
10.19724389372793
 33
0.0
  0
SOLID
  5
ACF
330
93B
100
AcDbEntity
  8
DIM
 62
     0
100
AcDbTrace
 10
9.679999999999999
 20
10.22724389372793
 30
0.0
 11
9.679999999999999
 21
10.16724389372793
 31
0.0
 12
9.5
 22
10.19724389372793
 32
0.0
 13
9.5
 23
10.19724389372793
 33
0.0
  0
MTEXT
  5
AD0
330
93B
100
AcDbEntity
  8
DIM
 62
     0
100
AcDbMText
 10
12.86950982112224
 20
10.19724389372793
 30
0.0
 40
0.18
 41
0.0
 71
     5
 72
     1
  1
\A1;6.739
 73
     1
 44
1.0
  0
POINT
  5
AD1
330
93B
100
AcDbEntity
  8
Defpoints
 62
     0
100
AcDbPoint
 10
16.23901964224449
 20
5.319350915144999
 30
0.0
  0
POINT
  5
AD2
330
93B
100
AcDbEntity
  8
Defpoints
 62
     0
100
AcDbPoint
 10
9.5
 20
6.625
 30
0.0
  0
POINT
  5
AD3
330
93B
100
AcDbEntity
  8
Defpoints
 62
     0
100
AcDbPoint
 10
9.5
 20
10.19724389372793
 30
0.0
  0
ENDBLK
  5
947
330
93B
100
AcDbEntity
  8
0
100
AcDbBlockEnd
  0
BLOCK
  5
990
330
985
100
AcDbEntity
  8
0
100
AcDbBlockBegin
  2
*D24
 70
     1
 10
0.0
 20
0.0
 30
0.0
  3
*D24
  1

  0
LINE
  5
AC0
330
985
100
AcDbEntity
  8
DIM
 62
     0
370
    -2
100
AcDbLine
 10
17.11401964224449
 20
5.562421259999998
 30
0.0
 11
17.11401964224449
 21
10.70526585047478
 31
0.0
  0
LINE
  5
AC1
330
985
100
AcDbEntity
  8
DIM
 62
     0
370
    -2
100
AcDbLine
 10
9.5
 20
6.6875
 30
0.0
 11
9.5
 21
10.70526585047478
 31
0.0
  0
LINE
  5
AC2
330
985
100
AcDbEntity
  8
DIM
 62
     0
370
    -2
100
AcDbLine
 10
16.93401964224449
 20
10.52526585047478
 30
0.0
 11
13.72700982112224
 21
10.52526585047478
 31
0.0
  0
LINE
  5
AC3
330
985
100
AcDbEntity
  8
DIM
 62
     0
370
    -2
100
AcDbLine
 10
9.679999999999999
 20
10.52526585047478
 30
0.0
 11
12.88700982112224
 21
10.52526585047478
 31
0.0
  0
SOLID
  5
AC4
330
985
100
AcDbEntity
  8
DIM
 62
     0
100
AcDbTrace
 10
16.93401964224449
 20
10.55526585047478
 30
0.0
 11
16.93401964224449
 21
10.49526585047478
 31
0.0
 12
17.11401964224449
 22
10.52526585047478
 32
0.0
 13
17.11401964224449
 23
10.52526585047478
 33
0.0
  0
SOLID
  5
AC5
330
985
100
AcDbEntity
  8
DIM
 62
     0
100
AcDbTrace
 10
9.679999999999999
 20
10.55526585047478
 30
0.0
 11
9.679999999999999
 21
10.49526585047478
 31
0.0
 12
9.5
 22
10.52526585047478
 32
0.0
 13
9.5
 23
10.52526585047478
 33
0.0
  0
MTEXT
  5
AC6
330
985
100
AcDbEntity
  8
DIM
 62
     0
100
AcDbMText
 10
13.30700982112224
 20
10.52526585047478
 30
0.0
 40
0.18
 41
0.0
 71
     5
 72
     1
  1
\A1;7.614
 73
     1
 44
1.0
  0
POINT
  5
AC7
330
985
100
AcDbEntity
  8
Defpoints
 62
     0
100
AcDbPoint
 10
17.11401964224449
 20
5.499921259999998
 30
0.0
  0
POINT
  5
AC8
330
985
100
AcDbEntity
  8
Defpoints
 62
     0
100
AcDbPoint
 10
9.5
 20
6.625
 30
0.0
  0
POINT
  5
AC9
330
985
100
AcDbEntity
  8
Defpoints
 62
     0
100
AcDbPoint
 10
9.5
 20
10.52526585047478
 30
0.0
  0
ENDBLK
  5
991
330
985
100
AcDbEntity
  8
0
100
AcDbBlockEnd
  0
BLOCK
  5
99E
330
993
100
AcDbEntity
  8
0
100
AcDbBlockBegin
  2
*D25
 70
     1
 10
0.0
 20
0.0
 30
0.0
  3
*D25
  1

  0
LINE
  5
AB6
330
993
100
AcDbEntity
  8
DIM
 62
     0
370
    -2
100
AcDbLine
 10
17.9890196422445
 20
5.381850915144999
 30
0.0
 11
17.9890196422445
 21
11.05622616642057
 31
0.0
  0
LINE
  5
AB7
330
993
100
AcDbEntity
  8
DIM
 62
     0
370
    -2
100
AcDbLine
 10
9.5
 20
6.6875
 30
0.0
 11
9.5
 21
11.05622616642057
 31
0.0
  0
LINE
  5
AB8
330
993
100
AcDbEntity
  8
DIM
 62
     0
370
    -2
100
AcDbLine
 10
17.8090196422445
 20
10.87622616642057
 30
0.0
 11
14.19450982112224
 21
10.87622616642057
 31
0.0
  0
LINE
  5
AB9
330
993
100
AcDbEntity
  8
DIM
 62
     0
370
    -2
100
AcDbLine
 10
9.679999999999999
 20
10.87622616642057
 30
0.0
 11
13.29450982112225
 21
10.87622616642057
 31
0.0
  0
SOLID
  5
ABA
330
993
100
AcDbEntity
  8
DIM
 62
     0
100
AcDbTrace
 10
17.8090196422445
 20
10.90622616642057
 30
0.0
 11
17.8090196422445
 21
10.84622616642057
 31
0.0
 12
17.9890196422445
 22
10.87622616642057
 32
0.0
 13
17.9890196422445
 23
10.87622616642057
 33
0.0
  0
SOLID
  5
ABB
330
993
100
AcDbEntity
  8
DIM
 62
     0
100
AcDbTrace
 10
9.679999999999999
 20
10.90622616642057
 30
0.0
 11
9.679999999999999
 21
10.84622616642057
 31
0.0
 12
9.5
 22
10.87622616642057
 32
0.0
 13
9.5
 23
10.87622616642057
 33
0.0
  0
MTEXT
  5
ABC
330
993
100
AcDbEntity
  8
DIM
 62
     0
100
AcDbMText
 10
13.74450982112225
 20
10.87622616642057
 30
0.0
 40
0.18
 41
0.0
 71
     5
 72
     1
  1
\A1;8.489
 73
     1
 44
1.0
  0
POINT
  5
ABD
330
993
100
AcDbEntity
  8
Defpoints
 62
     0
100
AcDbPoint
 10
17.9890196422445
 20
5.319350915144999
 30
0.0
  0
POINT
  5
ABE
330
993
100
AcDbEntity
  8
Defpoints
 62
     0
100
AcDbPoint
 10
9.5
 20
6.625
 30
0.0
  0
POINT
  5
ABF
330
993
100
AcDbEntity
  8
Defpoints
 62
     0
100
AcDbPoint
 10
9.5
 20
10.87622616642057
 30
0.0
  0
ENDBLK
  5
99F
330
993
100
AcDbEntity
  8
0
100
AcDbBlockEnd
  0
BLOCK
  5
9AC
330
9A1
100
AcDbEntity
  8
0
100
AcDbBlockBegin
  2
*D26
 70
     1
 10
0.0
 20
0.0
 30
0.0
  3
*D26
  1

  0
LINE
  5
AAC
330
9A1
100
AcDbEntity
  8
DIM
 62
     0
370
    -2
100
AcDbLine
 10
18.1140196422445
 20
4.562421259999998
 30
0.0
 11
18.1140196422445
 21
11.39743752050823
 31
0.0
  0
LINE
  5
AAD
330
9A1
100
AcDbEntity
  8
DIM
 62
     0
370
    -2
100
AcDbLine
 10
9.5
 20
6.6875
 30
0.0
 11
9.5
 21
11.39743752050823
 31
0.0
  0
LINE
  5
AAE
330
9A1
100
AcDbEntity
  8
DIM
 62
     0
370
    -2
100
AcDbLine
 10
17.9340196422445
 20
11.21743752050823
 30
0.0
 11
14.22700982112225
 21
11.21743752050823
 31
0.0
  0
LINE
  5
AAF
330
9A1
100
AcDbEntity
  8
DIM
 62
     0
370
    -2
100
AcDbLine
 10
9.679999999999999
 20
11.21743752050823
 30
0.0
 11
13.38700982112225
 21
11.21743752050823
 31
0.0
  0
SOLID
  5
AB0
330
9A1
100
AcDbEntity
  8
DIM
 62
     0
100
AcDbTrace
 10
17.9340196422445
 20
11.24743752050823
 30
0.0
 11
17.9340196422445
 21
11.18743752050823
 31
0.0
 12
18.1140196422445
 22
11.21743752050823
 32
0.0
 13
18.1140196422445
 23
11.21743752050823
 33
0.0
  0
SOLID
  5
AB1
330
9A1
100
AcDbEntity
  8
DIM
 62
     0
100
AcDbTrace
 10
9.679999999999999
 20
11.24743752050823
 30
0.0
 11
9.679999999999999
 21
11.18743752050823
 31
0.0
 12
9.5
 22
11.21743752050823
 32
0.0
 13
9.5
 23
11.21743752050823
 33
0.0
  0
MTEXT
  5
AB2
330
9A1
100
AcDbEntity
  8
DIM
 62
     0
100
AcDbMText
 10
13.80700982112225
 20
11.21743752050823
 30
0.0
 40
0.18
 41
0.0
 71
     5
 72
     1
  1
\A1;8.614
 73
     1
 44
1.0
  0
POINT
  5
AB3
330
9A1
100
AcDbEntity
  8
Defpoints
 62
     0
100
AcDbPoint
 10
18.1140196422445
 20
4.499921259999998
 30
0.0
  0
POINT
  5
AB4
330
9A1
100
AcDbEntity
  8
Defpoints
 62
     0
100
AcDbPoint
 10
9.5
 20
6.625
 30
0.0
  0
POINT
  5
AB5
330
9A1
100
AcDbEntity
  8
Defpoints
 62
     0
100
AcDbPoint
 10
9.5
 20
11.21743752050823
 30
0.0
  0
ENDBLK
  5
9AD
330
9A1
100
AcDbEntity
  8
0
100
AcDbBlockEnd
  0
BLOCK
  5
9BA
330
9AF
100
AcDbEntity
  8
0
100
AcDbBlockBegin
  2
*D27
 70
     1
 10
0.0
 20
0.0
 30
0.0
  3
*D27
  1

  0
LINE
  5
AA2
330
9AF
100
AcDbEntity
  8
DIM
 62
     0
370
    -2
100
AcDbLine
 10
18.5
 20
4.819418240587987
 30
0.0
 11
18.5
 21
11.70940224579338
 31
0.0
  0
LINE
  5
AA3
330
9AF
100
AcDbEntity
  8
DIM
 62
     0
370
    -2
100
AcDbLine
 10
9.5
 20
6.6875
 30
0.0
 11
9.5
 21
11.70940224579338
 31
0.0
  0
LINE
  5
AA4
330
9AF
100
AcDbEntity
  8
DIM
 62
     0
370
    -2
100
AcDbLine
 10
18.32
 20
11.52940224579338
 30
0.0
 11
14.405
 21
11.52940224579338
 31
0.0
  0
LINE
  5
AA5
330
9AF
100
AcDbEntity
  8
DIM
 62
     0
370
    -2
100
AcDbLine
 10
9.679999999999999
 20
11.52940224579338
 30
0.0
 11
13.595
 21
11.52940224579338
 31
0.0
  0
SOLID
  5
AA6
330
9AF
100
AcDbEntity
  8
DIM
 62
     0
100
AcDbTrace
 10
18.32
 20
11.55940224579338
 30
0.0
 11
18.32
 21
11.49940224579338
 31
0.0
 12
18.5
 22
11.52940224579338
 32
0.0
 13
18.5
 23
11.52940224579338
 33
0.0
  0
SOLID
  5
AA7
330
9AF
100
AcDbEntity
  8
DIM
 62
     0
100
AcDbTrace
 10
9.679999999999999
 20
11.55940224579338
 30
0.0
 11
9.679999999999999
 21
11.49940224579338
 31
0.0
 12
9.5
 22
11.52940224579338
 32
0.0
 13
9.5
 23
11.52940224579338
 33
0.0
  0
MTEXT
  5
AA8
330
9AF
100
AcDbEntity
  8
DIM
 62
     0
100
AcDbMText
 10
14.0
 20
11.52940224579338
 30
0.0
 40
0.18
 41
0.0
 71
     5
 72
     1
  1
\A1;9.000
 73
     1
 44
1.0
  0
POINT
  5
AA9
330
9AF
100
AcDbEntity
  8
Defpoints
 62
     0
100
AcDbPoint
 10
18.5
 20
4.756918240587987
 30
0.0
  0
POINT
  5
AAA
330
9AF
100
AcDbEntity
  8
Defpoints
 62
     0
100
AcDbPoint
 10
9.5
 20
6.625
 30
0.0
  0
POINT
  5
AAB
330
9AF
100
AcDbEntity
  8
Defpoints
 62
     0
100
AcDbPoint
 10
9.5
 20
11.52940224579338
 30
0.0
  0
ENDBLK
  5
9BB
330
9AF
100
AcDbEntity
  8
0
100
AcDbBlockEnd
  0
BLOCK
  5
9F0
330
9E4
100
AcDbEntity
  8
0
100
AcDbBlockBegin
  2
*D28
 70
     1
 10
0.0
 20
0.0
 30
0.0
  3
*D28
  1

  0
LINE
  5
B24
330
9E4
100
AcDbEntity
  8
DIM
 62
     0
370
    -2
100
AcDbLine
 10
9.781565512446171
 20
6.356294999999988
 30
0.0
 11
7.017077042898328
 21
6.356294999999988
 31
0.0
  0
LINE
  5
B25
330
9E4
100
AcDbEntity
  8
DIM
 62
     0
370
    -2
100
AcDbLine
 10
9.4375
 20
6.625
 30
0.0
 11
7.017077042898328
 21
6.625
 31
0.0
  0
LINE
  5
B26
330
9E4
100
AcDbEntity
  8
DIM
 62
     0
370
    -2
100
AcDbLine
 10
7.197077042898328
 20
6.176294999999988
 30
0.0
 11
7.197077042898327
 21
5.996294999999988
 31
0.0
  0
LINE
  5
B27
330
9E4
100
AcDbEntity
  8
DIM
 62
     0
370
    -2
100
AcDbLine
 10
7.197077042898328
 20
6.804999999999999
 30
0.0
 11
7.197077042898328
 21
6.985
 31
0.0
  0
LINE
  5
B28
330
9E4
100
AcDbEntity
  8
DIM
 62
     0
370
    -2
100
AcDbLine
 10
7.197077042898328
 20
6.985
 30
0.0
 11
7.377077042898328
 21
6.985
 31
0.0
  0
SOLID
  5
B29
330
9E4
100
AcDbEntity
  8
DIM
 62
     0
100
AcDbTrace
 10
7.167077042898328
 20
6.176294999999988
 30
0.0
 11
7.227077042898328
 21
6.176294999999988
 31
0.0
 12
7.197077042898328
 22
6.356294999999988
 32
0.0
 13
7.197077042898328
 23
6.356294999999988
 33
0.0
  0
SOLID
  5
B2A
330
9E4
100
AcDbEntity
  8
DIM
 62
     0
100
AcDbTrace
 10
7.167077042898328
 20
6.804999999999999
 30
0.0
 11
7.227077042898328
 21
6.804999999999999
 31
0.0
 12
7.197077042898328
 22
6.625
 32
0.0
 13
7.197077042898328
 23
6.625
 33
0.0
  0
MTEXT
  5
B2B
330
9E4
100
AcDbEntity
  8
DIM
 62
     0
100
AcDbMText
 10
7.812077042898327
 20
6.985000000000001
 30
0.0
 40
0.18
 41
0.0
 71
     5
 72
     1
  1
\A1;0.269
 73
     1
 44
1.0
  0
POINT
  5
B2C
330
9E4
100
AcDbEntity
  8
Defpoints
 62
     0
100
AcDbPoint
 10
9.844065512446171
 20
6.356294999999988
 30
0.0
  0
POINT
  5
B2D
330
9E4
100
AcDbEntity
  8
Defpoints
 62
     0
100
AcDbPoint
 10
9.5
 20
6.625
 30
0.0
  0
POINT
  5
B2E
330
9E4
100
AcDbEntity
  8
Defpoints
 62
     0
100
AcDbPoint
 10
7.197077042898328
 20
6.625
 30
0.0
  0
ENDBLK
  5
9F1
330
9E4
100
AcDbEntity
  8
0
100
AcDbBlockEnd
  0
BLOCK
  5
9FE
330
9F3
100
AcDbEntity
  8
0
100
AcDbBlockBegin
  2
*D29
 70
     1
 10
0.0
 20
0.0
 30
0.0
  3
*D29
  1

  0
LINE
  5
B1A
330
9F3
100
AcDbEntity
  8
DIM
 62
     0
370
    -2
100
AcDbLine
 10
13.0765664622445
 20
5.249921259999998
 30
0.0
 11
6.441194753201138
 21
5.249921259999999
 31
0.0
  0
LINE
  5
B1B
330
9F3
100
AcDbEntity
  8
DIM
 62
     0
370
    -2
100
AcDbLine
 10
9.4375
 20
6.625
 30
0.0
 11
6.441194753201138
 21
6.625
 31
0.0
  0
LINE
  5
B1C
330
9F3
100
AcDbEntity
  8
DIM
 62
     0
370
    -2
100
AcDbLine
 10
6.621194753201137
 20
5.429921259999999
 30
0.0
 11
6.621194753201137
 21
5.75746063
 31
0.0
  0
LINE
  5
B1D
330
9F3
100
AcDbEntity
  8
DIM
 62
     0
370
    -2
100
AcDbLine
 10
6.621194753201138
 20
6.445
 30
0.0
 11
6.621194753201138
 21
6.11746063
 31
0.0
  0
SOLID
  5
B1E
330
9F3
100
AcDbEntity
  8
DIM
 62
     0
100
AcDbTrace
 10
6.591194753201137
 20
5.429921259999999
 30
0.0
 11
6.651194753201138
 21
5.429921259999999
 31
0.0
 12
6.621194753201137
 22
5.249921259999999
 32
0.0
 13
6.621194753201137
 23
5.249921259999999
 33
0.0
  0
SOLID
  5
B1F
330
9F3
100
AcDbEntity
  8
DIM
 62
     0
100
AcDbTrace
 10
6.591194753201138
 20
6.445
 30
0.0
 11
6.651194753201139
 21
6.445
 31
0.0
 12
6.621194753201138
 22
6.625
 32
0.0
 13
6.621194753201138
 23
6.625
 33
0.0
  0
MTEXT
  5
B20
330
9F3
100
AcDbEntity
  8
DIM
 62
     0
100
AcDbMText
 10
6.621194753201137
 20
5.937460630000002
 30
0.0
 40
0.18
 41
0.0
 71
     5
 72
     1
  1
\A1;1.375
 73
     1
 44
1.0
  0
POINT
  5
B21
330
9F3
100
AcDbEntity
  8
Defpoints
 62
     0
100
AcDbPoint
 10
13.1390664622445
 20
5.249921259999998
 30
0.0
  0
POINT
  5
B22
330
9F3
100
AcDbEntity
  8
Defpoints
 62
     0
100
AcDbPoint
 10
9.5
 20
6.625
 30
0.0
  0
POINT
  5
B23
330
9F3
100
AcDbEntity
  8
Defpoints
 62
     0
100
AcDbPoint
 10
6.621194753201138
 20
6.625
 30
0.0
  0
ENDBLK
  5
9FF
330
9F3
100
AcDbEntity
  8
0
100
AcDbBlockEnd
  0
BLOCK
  5
A0C
330
A01
100
AcDbEntity
  8
0
100
AcDbBlockBegin
  2
*D30
 70
     1
 10
0.0
 20
0.0
 30
0.0
  3
*D30
  1

  0
LINE
  5
B10
330
A01
100
AcDbEntity
  8
DIM
 62
     0
370
    -2
100
AcDbLine
 10
12.26788340278075
 20
5.124921259999998
 30
0.0
 11
5.604535468660635
 21
5.12492126
 31
0.0
  0
LINE
  5
B11
330
A01
100
AcDbEntity
  8
DIM
 62
     0
370
    -2
100
AcDbLine
 10
9.4375
 20
6.625
 30
0.0
 11
5.604535468660635
 21
6.625
 31
0.0
  0
LINE
  5
B12
330
A01
100
AcDbEntity
  8
DIM
 62
     0
370
    -2
100
AcDbLine
 10
5.784535468660635
 20
5.30492126
 30
0.0
 11
5.784535468660635
 21
5.694960630000001
 31
0.0
  0
LINE
  5
B13
330
A01
100
AcDbEntity
  8
DIM
 62
     0
370
    -2
100
AcDbLine
 10
5.784535468660636
 20
6.445000000000001
 30
0.0
 11
5.784535468660636
 21
6.05496063
 31
0.0
  0
SOLID
  5
B14
330
A01
100
AcDbEntity
  8
DIM
 62
     0
100
AcDbTrace
 10
5.754535468660635
 20
5.30492126
 30
0.0
 11
5.814535468660635
 21
5.30492126
 31
0.0
 12
5.784535468660635
 22
5.12492126
 32
0.0
 13
5.784535468660635
 23
5.12492126
 33
0.0
  0
SOLID
  5
B15
330
A01
100
AcDbEntity
  8
DIM
 62
     0
100
AcDbTrace
 10
5.754535468660636
 20
6.445000000000001
 30
0.0
 11
5.814535468660636
 21
6.445000000000001
 31
0.0
 12
5.784535468660636
 22
6.625
 32
0.0
 13
5.784535468660636
 23
6.625
 33
0.0
  0
MTEXT
  5
B16
330
A01
100
AcDbEntity
  8
DIM
 62
     0
100
AcDbMText
 10
5.784535468660634
 20
5.874960630000002
 30
0.0
 40
0.18
 41
0.0
 71
     5
 72
     1
  1
\A1;1.500
 73
     1
 44
1.0
  0
POINT
  5
B17
330
A01
100
AcDbEntity
  8
Defpoints
 62
     0
100
AcDbPoint
 10
12.33038340278075
 20
5.124921259999998
 30
0.0
  0
POINT
  5
B18
330
A01
100
AcDbEntity
  8
Defpoints
 62
     0
100
AcDbPoint
 10
9.5
 20
6.625
 30
0.0
  0
POINT
  5
B19
330
A01
100
AcDbEntity
  8
Defpoints
 62
     0
100
AcDbPoint
 10
5.784535468660636
 20
6.625
 30
0.0
  0
ENDBLK
  5
A0D
330
A01
100
AcDbEntity
  8
0
100
AcDbBlockEnd
  0
BLOCK
  5
A1A
330
A0F
100
AcDbEntity
  8
0
100
AcDbBlockBegin
  2
*D31
 70
     1
 10
0.0
 20
0.0
 30
0.0
  3
*D31
  1

  0
LINE
  5
B06
330
A0F
100
AcDbEntity
  8
DIM
 62
     0
370
    -2
100
AcDbLine
 10
9.753856713600832
 20
4.562488585442986
 30
0.0
 11
4.876533286224989
 21
4.562488585442987
 31
0.0
  0
LINE
  5
B07
330
A0F
100
AcDbEntity
  8
DIM
 62
     0
370
    -2
100
AcDbLine
 10
9.4375
 20
6.625
 30
0.0
 11
4.87653328622499
 21
6.625
 31
0.0
  0
LINE
  5
B08
330
A0F
100
AcDbEntity
  8
DIM
 62
     0
370
    -2
100
AcDbLine
 10
5.056533286224989
 20
4.742488585442987
 30
0.0
 11
5.056533286224989
 21
5.413744292721494
 31
0.0
  0
LINE
  5
B09
330
A0F
100
AcDbEntity
  8
DIM
 62
     0
370
    -2
100
AcDbLine
 10
5.05653328622499
 20
6.445000000000001
 30
0.0
 11
5.056533286224989
 21
5.773744292721493
 31
0.0
  0
SOLID
  5
B0A
330
A0F
100
AcDbEntity
  8
DIM
 62
     0
100
AcDbTrace
 10
5.026533286224989
 20
4.742488585442987
 30
0.0
 11
5.086533286224989
 21
4.742488585442987
 31
0.0
 12
5.056533286224989
 22
4.562488585442987
 32
0.0
 13
5.056533286224989
 23
4.562488585442987
 33
0.0
  0
SOLID
  5
B0B
330
A0F
100
AcDbEntity
  8
DIM
 62
     0
100
AcDbTrace
 10
5.02653328622499
 20
6.445000000000001
 30
0.0
 11
5.08653328622499
 21
6.445000000000001
 31
0.0
 12
5.05653328622499
 22
6.625
 32
0.0
 13
5.05653328622499
 23
6.625
 33
0.0
  0
MTEXT
  5
B0C
330
A0F
100
AcDbEntity
  8
DIM
 62
     0
100
AcDbMText
 10
5.056533286224988
 20
5.593744292721495
 30
0.0
 40
0.18
 41
0.0
 71
     5
 72
     1
  1
\A1;2.063
 73
     1
 44
1.0
  0
POINT
  5
B0D
330
A0F
100
AcDbEntity
  8
Defpoints
 62
     0
100
AcDbPoint
 10
9.816356713600832
 20
4.562488585442986
 30
0.0
  0
POINT
  5
B0E
330
A0F
100
AcDbEntity
  8
Defpoints
 62
     0
100
AcDbPoint
 10
9.5
 20
6.625
 30
0.0
  0
POINT
  5
B0F
330
A0F
100
AcDbEntity
  8
Defpoints
 62
     0
100
AcDbPoint
 10
5.05653328622499
 20
6.625
 30
0.0
  0
ENDBLK
  5
A1B
330
A0F
100
AcDbEntity
  8
0
100
AcDbBlockEnd
  0
BLOCK
  5
A28
330
A1D
100
AcDbEntity
  8
0
100
AcDbBlockBegin
  2
*D32
 70
     1
 10
0.0
 20
0.0
 30
0.0
  3
*D32
  1

  0
LINE
  5
AFC
330
A1D
100
AcDbEntity
  8
DIM
 62
     0
370
    -2
100
AcDbLine
 10
12.0765664622445
 20
4.249921259999998
 30
0.0
 11
4.050739762103353
 21
4.249921260000001
 31
0.0
  0
LINE
  5
AFD
330
A1D
100
AcDbEntity
  8
DIM
 62
     0
370
    -2
100
AcDbLine
 10
9.4375
 20
6.625
 30
0.0
 11
4.050739762103354
 21
6.625
 31
0.0
  0
LINE
  5
AFE
330
A1D
100
AcDbEntity
  8
DIM
 62
     0
370
    -2
100
AcDbLine
 10
4.230739762103353
 20
4.429921260000001
 30
0.0
 11
4.230739762103353
 21
5.257460630000001
 31
0.0
  0
LINE
  5
AFF
330
A1D
100
AcDbEntity
  8
DIM
 62
     0
370
    -2
100
AcDbLine
 10
4.230739762103354
 20
6.445000000000001
 30
0.0
 11
4.230739762103353
 21
5.61746063
 31
0.0
  0
SOLID
  5
B00
330
A1D
100
AcDbEntity
  8
DIM
 62
     0
100
AcDbTrace
 10
4.200739762103353
 20
4.429921260000001
 30
0.0
 11
4.260739762103353
 21
4.429921260000001
 31
0.0
 12
4.230739762103353
 22
4.249921260000001
 32
0.0
 13
4.230739762103353
 23
4.249921260000001
 33
0.0
  0
SOLID
  5
B01
330
A1D
100
AcDbEntity
  8
DIM
 62
     0
100
AcDbTrace
 10
4.200739762103354
 20
6.445000000000001
 30
0.0
 11
4.260739762103354
 21
6.445000000000001
 31
0.0
 12
4.230739762103354
 22
6.625
 32
0.0
 13
4.230739762103354
 23
6.625
 33
0.0
  0
MTEXT
  5
B02
330
A1D
100
AcDbEntity
  8
DIM
 62
     0
100
AcDbMText
 10
4.230739762103352
 20
5.437460630000002
 30
0.0
 40
0.18
 41
0.0
 71
     5
 72
     1
  1
\A1;2.375
 73
     1
 44
1.0
  0
POINT
  5
B03
330
A1D
100
AcDbEntity
  8
Defpoints
 62
     0
100
AcDbPoint
 10
12.1390664622445
 20
4.249921259999998
 30
0.0
  0
POINT
  5
B04
330
A1D
100
AcDbEntity
  8
Defpoints
 62
     0
100
AcDbPoint
 10
9.5
 20
6.625
 30
0.0
  0
POINT
  5
B05
330
A1D
100
AcDbEntity
  8
Defpoints
 62
     0
100
AcDbPoint
 10
4.230739762103354
 20
6.625
 30
0.0
  0
ENDBLK
  5
A29
330
A1D
100
AcDbEntity
  8
0
100
AcDbBlockEnd
  0
BLOCK
  5
A36
330
A2B
100
AcDbEntity
  8
0
100
AcDbBlockBegin
  2
*D33
 70
     1
 10
0.0
 20
0.0
 30
0.0
  3
*D33
  1

  0
LINE
  5
AF2
330
A2B
100
AcDbEntity
  8
DIM
 62
     0
370
    -2
100
AcDbLine
 10
12.26788340278075
 20
3.374921259999998
 30
0.0
 11
3.411619278977119
 21
3.374921260000001
 31
0.0
  0
LINE
  5
AF3
330
A2B
100
AcDbEntity
  8
DIM
 62
     0
370
    -2
100
AcDbLine
 10
9.4375
 20
6.625
 30
0.0
 11
3.41161927897712
 21
6.625
 31
0.0
  0
LINE
  5
AF4
330
A2B
100
AcDbEntity
  8
DIM
 62
     0
370
    -2
100
AcDbLine
 10
3.591619278977119
 20
3.554921260000001
 30
0.0
 11
3.591619278977119
 21
4.819960630000001
 31
0.0
  0
LINE
  5
AF5
330
A2B
100
AcDbEntity
  8
DIM
 62
     0
370
    -2
100
AcDbLine
 10
3.59161927897712
 20
6.445000000000001
 30
0.0
 11
3.59161927897712
 21
5.17996063
 31
0.0
  0
SOLID
  5
AF6
330
A2B
100
AcDbEntity
  8
DIM
 62
     0
100
AcDbTrace
 10
3.561619278977119
 20
3.554921260000001
 30
0.0
 11
3.621619278977119
 21
3.554921260000001
 31
0.0
 12
3.591619278977119
 22
3.374921260000001
 32
0.0
 13
3.591619278977119
 23
3.374921260000001
 33
0.0
  0
SOLID
  5
AF7
330
A2B
100
AcDbEntity
  8
DIM
 62
     0
100
AcDbTrace
 10
3.56161927897712
 20
6.445000000000001
 30
0.0
 11
3.621619278977119
 21
6.445000000000001
 31
0.0
 12
3.59161927897712
 22
6.625
 32
0.0
 13
3.59161927897712
 23
6.625
 33
0.0
  0
MTEXT
  5
AF8
330
A2B
100
AcDbEntity
  8
DIM
 62
     0
100
AcDbMText
 10
3.591619278977119
 20
4.999960630000002
 30
0.0
 40
0.18
 41
0.0
 71
     5
 72
     1
  1
\A1;3.250
 73
     1
 44
1.0
  0
POINT
  5
AF9
330
A2B
100
AcDbEntity
  8
Defpoints
 62
     0
100
AcDbPoint
 10
12.33038340278075
 20
3.374921259999998
 30
0.0
  0
POINT
  5
AFA
330
A2B
100
AcDbEntity
  8
Defpoints
 62
     0
100
AcDbPoint
 10
9.5
 20
6.625
 30
0.0
  0
POINT
  5
AFB
330
A2B
100
AcDbEntity
  8
Defpoints
 62
     0
100
AcDbPoint
 10
3.59161927897712
 20
6.625
 30
0.0
  0
ENDBLK
  5
A37
330
A2B
100
AcDbEntity
  8
0
100
AcDbBlockEnd
  0
BLOCK
  5
A44
330
A39
100
AcDbEntity
  8
0
100
AcDbBlockBegin
  2
*D34
 70
     1
 10
0.0
 20
0.0
 30
0.0
  3
*D34
  1

  0
LINE
  5
AE8
330
A39
100
AcDbEntity
  8
DIM
 62
     0
370
    -2
100
AcDbLine
 10
13.0765664622445
 20
3.249921259999998
 30
0.0
 11
2.596691431593719
 21
3.249921260000002
 31
0.0
  0
LINE
  5
AE9
330
A39
100
AcDbEntity
  8
DIM
 62
     0
370
    -2
100
AcDbLine
 10
9.4375
 20
6.625
 30
0.0
 11
2.596691431593719
 21
6.625
 31
0.0
  0
LINE
  5
AEA
330
A39
100
AcDbEntity
  8
DIM
 62
     0
370
    -2
100
AcDbLine
 10
2.776691431593718
 20
3.429921260000002
 30
0.0
 11
2.776691431593718
 21
4.757460630000001
 31
0.0
  0
LINE
  5
AEB
330
A39
100
AcDbEntity
  8
DIM
 62
     0
370
    -2
100
AcDbLine
 10
2.776691431593719
 20
6.445000000000001
 30
0.0
 11
2.776691431593719
 21
5.11746063
 31
0.0
  0
SOLID
  5
AEC
330
A39
100
AcDbEntity
  8
DIM
 62
     0
100
AcDbTrace
 10
2.746691431593718
 20
3.429921260000002
 30
0.0
 11
2.806691431593718
 21
3.429921260000002
 31
0.0
 12
2.776691431593718
 22
3.249921260000002
 32
0.0
 13
2.776691431593718
 23
3.249921260000002
 33
0.0
  0
SOLID
  5
AED
330
A39
100
AcDbEntity
  8
DIM
 62
     0
100
AcDbTrace
 10
2.746691431593719
 20
6.445000000000001
 30
0.0
 11
2.806691431593718
 21
6.445000000000001
 31
0.0
 12
2.776691431593719
 22
6.625
 32
0.0
 13
2.776691431593719
 23
6.625
 33
0.0
  0
MTEXT
  5
AEE
330
A39
100
AcDbEntity
  8
DIM
 62
     0
100
AcDbMText
 10
2.776691431593718
 20
4.937460630000002
 30
0.0
 40
0.18
 41
0.0
 71
     5
 72
     1
  1
\A1;3.375
 73
     1
 44
1.0
  0
POINT
  5
AEF
330
A39
100
AcDbEntity
  8
Defpoints
 62
     0
100
AcDbPoint
 10
13.1390664622445
 20
3.249921259999998
 30
0.0
  0
POINT
  5
AF0
330
A39
100
AcDbEntity
  8
Defpoints
 62
     0
100
AcDbPoint
 10
9.5
 20
6.625
 30
0.0
  0
POINT
  5
AF1
330
A39
100
AcDbEntity
  8
Defpoints
 62
     0
100
AcDbPoint
 10
2.776691431593719
 20
6.625
 30
0.0
  0
ENDBLK
  5
A45
330
A39
100
AcDbEntity
  8
0
100
AcDbBlockEnd
  0
BLOCK
  5
A52
330
A47
100
AcDbEntity
  8
0
100
AcDbBlockBegin
  2
*D35
 70
     1
 10
0.0
 20
0.0
 30
0.0
  3
*D35
  1

  0
LINE
  5
ADE
330
A47
100
AcDbEntity
  8
DIM
 62
     0
370
    -2
100
AcDbLine
 10
9.781565512446171
 20
2.143705
 30
0.0
 11
1.9914
 21
2.143705000000002
 31
0.0
  0
LINE
  5
ADF
330
A47
100
AcDbEntity
  8
DIM
 62
     0
370
    -2
100
AcDbLine
 10
9.4375
 20
6.625
 30
0.0
 11
1.991400000000002
 21
6.625000000000002
 31
0.0
  0
LINE
  5
AE0
330
A47
100
AcDbEntity
  8
DIM
 62
     0
370
    -2
100
AcDbLine
 10
2.1714
 20
2.323705000000003
 30
0.0
 11
2.171400000000001
 21
4.204352500000002
 31
0.0
  0
LINE
  5
AE1
330
A47
100
AcDbEntity
  8
DIM
 62
     0
370
    -2
100
AcDbLine
 10
2.171400000000001
 20
6.445000000000002
 30
0.0
 11
2.171400000000001
 21
4.564352500000001
 31
0.0
  0
SOLID
  5
AE2
330
A47
100
AcDbEntity
  8
DIM
 62
     0
100
AcDbTrace
 10
2.1414
 20
2.323705000000003
 30
0.0
 11
2.2014
 21
2.323705000000003
 31
0.0
 12
2.1714
 22
2.143705000000002
 32
0.0
 13
2.1714
 23
2.143705000000002
 33
0.0
  0
SOLID
  5
AE3
330
A47
100
AcDbEntity
  8
DIM
 62
     0
100
AcDbTrace
 10
2.141400000000001
 20
6.445000000000002
 30
0.0
 11
2.201400000000001
 21
6.445000000000002
 31
0.0
 12
2.171400000000001
 22
6.625000000000001
 32
0.0
 13
2.171400000000001
 23
6.625000000000001
 33
0.0
  0
MTEXT
  5
AE4
330
A47
100
AcDbEntity
  8
DIM
 62
     0
100
AcDbMText
 10
2.1714
 20
4.384352500000002
 30
0.0
 40
0.18
 41
0.0
 71
     5
 72
     1
  1
\A1;4.481
 73
     1
 44
1.0
  0
POINT
  5
AE5
330
A47
100
AcDbEntity
  8
Defpoints
 62
     0
100
AcDbPoint
 10
9.844065512446171
 20
2.143705
 30
0.0
  0
POINT
  5
AE6
330
A47
100
AcDbEntity
  8
Defpoints
 62
     0
100
AcDbPoint
 10
9.5
 20
6.625
 30
0.0
  0
POINT
  5
AE7
330
A47
100
AcDbEntity
  8
Defpoints
 62
     0
100
AcDbPoint
 10
2.171400000000001
 20
6.625000000000001
 30
0.0
  0
ENDBLK
  5
A53
330
A47
100
AcDbEntity
  8
0
100
AcDbBlockEnd
  0
BLOCK
  5
A60
330
A55
100
AcDbEntity
  8
0
100
AcDbBlockBegin
  2
*D36
 70
     1
 10
0.0
 20
0.0
 30
0.0
  3
*D36
  1

  0
LINE
  5
AD4
330
A55
100
AcDbEntity
  8
DIM
 62
     0
370
    -2
100
AcDbLine
 10
9.4375
 20
1.875
 30
0.0
 11
1.173284180617776
 21
1.875000000000002
 31
0.0
  0
LINE
  5
AD5
330
A55
100
AcDbEntity
  8
DIM
 62
     0
370
    -2
100
AcDbLine
 10
9.4375
 20
6.625
 30
0.0
 11
1.173284180617777
 21
6.625000000000002
 31
0.0
  0
LINE
  5
AD6
330
A55
100
AcDbEntity
  8
DIM
 62
     0
370
    -2
100
AcDbLine
 10
1.353284180617776
 20
2.055000000000002
 30
0.0
 11
1.353284180617776
 21
4.070000000000002
 31
0.0
  0
LINE
  5
AD7
330
A55
100
AcDbEntity
  8
DIM
 62
     0
370
    -2
100
AcDbLine
 10
1.353284180617777
 20
6.445000000000002
 30
0.0
 11
1.353284180617776
 21
4.430000000000002
 31
0.0
  0
SOLID
  5
AD8
330
A55
100
AcDbEntity
  8
DIM
 62
     0
100
AcDbTrace
 10
1.323284180617776
 20
2.055000000000002
 30
0.0
 11
1.383284180617776
 21
2.055000000000002
 31
0.0
 12
1.353284180617776
 22
1.875000000000002
 32
0.0
 13
1.353284180617776
 23
1.875000000000002
 33
0.0
  0
SOLID
  5
AD9
330
A55
100
AcDbEntity
  8
DIM
 62
     0
100
AcDbTrace
 10
1.323284180617777
 20
6.445000000000002
 30
0.0
 11
1.383284180617777
 21
6.445000000000002
 31
0.0
 12
1.353284180617777
 22
6.625000000000002
 32
0.0
 13
1.353284180617777
 23
6.625000000000002
 33
0.0
  0
MTEXT
  5
ADA
330
A55
100
AcDbEntity
  8
DIM
 62
     0
100
AcDbMText
 10
1.353284180617776
 20
4.250000000000002
 30
0.0
 40
0.18
 41
0.0
 71
     5
 72
     1
  1
\A1;4.750
 73
     1
 44
1.0
  0
POINT
  5
ADB
330
A55
100
AcDbEntity
  8
Defpoints
 62
     0
100
AcDbPoint
 10
9.5
 20
1.875
 30
0.0
  0
POINT
  5
ADC
330
A55
100
AcDbEntity
  8
Defpoints
 62
     0
100
AcDbPoint
 10
9.5
 20
6.625
 30
0.0
  0
POINT
  5
ADD
330
A55
100
AcDbEntity
  8
Defpoints
 62
     0
100
AcDbPoint
 10
1.353284180617777
 20
6.625000000000002
 30
0.0
  0
ENDBLK
  5
A61
330
A55
100
AcDbEntity
  8
0
100
AcDbBlockEnd
  0
BLOCK
  5
C44
330
C3B
100
AcDbEntity
  8
0
100
AcDbBlockBegin
  2
*D37
 70
     1
 10
0.0
 20
0.0
 30
0.0
  3
*D37
  1

  0
LINE
  5
C4E
330
C3B
100
AcDbEntity
  8
DIM
 62
     0
370
    -2
100
AcDbLine
 10
18.27468430291433
 20
4.580440725102803
 30
0.0
 11
19.70793333285208
 21
7.528921746125844
 31
0.0
  0
LINE
  5
C4F
330
C3B
100
AcDbEntity
  8
DIM
 62
     0
370
    -2
100
AcDbLine
 10
19.70793333285208
 20
7.528921746125844
 30
0.0
 11
19.88793333285208
 21
7.528921746125846
 31
0.0
  0
SOLID
  5
C50
330
C3B
100
AcDbEntity
  8
DIM
 62
     0
100
AcDbTrace
 10
18.24770312208961
 20
4.593556207606463
 30
0.0
 11
18.30166548373905
 21
4.567325242599142
 31
0.0
 12
18.19599140789237
 22
4.418553640154492
 32
0.0
 13
18.19599140789237
 23
4.418553640154492
 33
0.0
  0
MTEXT
  5
C51
330
C3B
100
AcDbEntity
  8
DIM
 62
     0
100
AcDbMText
 10
21.5679333328521
 20
7.528921746125837
 30
0.0
 40
0.18
 41
0.0
 71
     5
 72
     1
  1
\A1;C'BORE FOR #10 SHCS\P8X
 73
     1
 44
1.0
  0
LINE
  5
C52
330
C3B
100
AcDbEntity
  8
DIM
 62
     0
370
    -2
100
AcDbLine
 10
18.02401964224449
 20
4.249921260000001
 30
0.0
 11
18.20401964224449
 21
4.249921260000002
 31
0.0
  0
LINE
  5
C53
330
C3B
100
AcDbEntity
  8
DIM
 62
     0
370
    -2
100
AcDbLine
 10
18.11401964224449
 20
4.159921260000001
 30
0.0
 11
18.11401964224449
 21
4.339921260000001
 31
0.0
  0
POINT
  5
C54
330
C3B
100
AcDbEntity
  8
Defpoints
 62
     0
100
AcDbPoint
 10
18.19599140789237
 20
4.418553640154492
 30
0.0
  0
POINT
  5
C55
330
C3B
100
AcDbEntity
  8
Defpoints
 62
     0
100
AcDbPoint
 10
18.03204787659661
 20
4.08128887984551
 30
0.0
  0
ENDBLK
  5
C45
330
C3B
100
AcDbEntity
  8
0
100
AcDbBlockEnd
  0
BLOCK
  5
C96
330
C91
100
AcDbEntity
  8
0
100
AcDbBlockBegin
  2
C-BORE-#6
 70
     0
 10
0.0
 20
0.0
 30
0.0
  3
C-BORE-#6
  1

  0
LINE
  5
C92
330
C91
100
AcDbEntity
  8
CENTER
100
AcDbLine
 10
0.0
 20
-0.1988463639077764
 30
0.0
 11
0.0
 21
0.1910488070998077
 31
0.0
  0
CIRCLE
  5
C93
330
C91
100
AcDbEntity
  8
0
100
AcDbCircle
 10
0.0
 20
0.0
 30
0.0
 40
0.085
  0
CIRCLE
  5
C94
330
C91
100
AcDbEntity
  8
0
100
AcDbCircle
 10
0.0
 20
0.0
 30
0.0
 40
0.14065
  0
LINE
  5
C95
330
C91
100
AcDbEntity
  8
CENTER
100
AcDbLine
 10
-0.2055373679844124
 20
0.0
 30
0.0
 11
0.1955703475548418
 21
0.0
 31
0.0
  0
ENDBLK
  5
C97
330
C91
100
AcDbEntity
  8
0
100
AcDbBlockEnd
  0
BLOCK
  5
CAE
330
CA5
100
AcDbEntity
  8
0
100
AcDbBlockBegin
  2
*D39
 70
     1
 10
0.0
 20
0.0
 30
0.0
  3
*D39
  1

  0
LINE
  5
D7B
330
CA5
100
AcDbEntity
  8
DIM
 62
     0
370
    -2
100
AcDbLine
 10
10.163909748413
 20
1.883911886351174
 30
0.0
 11
11.14997341135057
 21
0.5209054889368963
 31
0.0
  0
LINE
  5
D7C
330
CA5
100
AcDbEntity
  8
DIM
 62
     0
370
    -2
100
AcDbLine
 10
11.14997341135057
 20
0.5209054889368963
 30
0.0
 11
11.32997341135057
 21
0.5209054889368963
 31
0.0
  0
SOLID
  5
D7D
330
CA5
100
AcDbEntity
  8
DIM
 62
     0
100
AcDbTrace
 10
10.18821598078307
 20
1.901496171038696
 30
0.0
 11
10.13960351604292
 21
1.866327601663649
 31
0.0
 12
10.05840404028785
 22
2.029749280571627
 32
0.0
 13
10.05840404028785
 23
2.029749280571627
 33
0.0
  0
MTEXT
  5
D7E
330
CA5
100
AcDbEntity
  8
DIM
 62
     0
100
AcDbMText
 10
13.00997341135057
 20
0.5209054889368954
 30
0.0
 40
0.18
 41
0.0
 71
     5
 72
     1
  1
\A1;C-BORE FOR #6 SHCS\P2X
 73
     1
 44
1.0
  0
LINE
  5
D7F
330
CA5
100
AcDbEntity
  8
DIM
 62
     0
370
    -2
100
AcDbLine
 10
9.885963052244516
 20
2.143704999999998
 30
0.0
 11
10.06596305224451
 21
2.143704999999998
 31
0.0
  0
LINE
  5
D80
330
CA5
100
AcDbEntity
  8
DIM
 62
     0
370
    -2
100
AcDbLine
 10
9.975963052244516
 20
2.053704999999999
 30
0.0
 11
9.975963052244516
 21
2.233704999999999
 31
0.0
  0
POINT
  5
D81
330
CA5
100
AcDbEntity
  8
Defpoints
 62
     0
100
AcDbPoint
 10
10.05840404028785
 20
2.029749280571627
 30
0.0
  0
POINT
  5
D82
330
CA5
100
AcDbEntity
  8
Defpoints
 62
     0
100
AcDbPoint
 10
9.893522064201178
 20
2.257660719428369
 30
0.0
  0
ENDBLK
  5
CAF
330
CA5
100
AcDbEntity
  8
0
100
AcDbBlockEnd
  0
BLOCK
  5
CD8
330
CCD
100
AcDbEntity
  8
0
100
AcDbBlockBegin
  2
*D40
 70
     1
 10
0.0
 20
0.0
 30
0.0
  3
*D40
  1

  0
LINE
  5
CCE
330
CCD
100
AcDbEntity
  8
DIM
 62
     0
370
    -2
100
AcDbLine
 10
10.56651305224451
 20
2.403742616752488
 30
0.0
 11
10.56651305224451
 21
7.826924341692432
 31
0.0
  0
LINE
  5
CCF
330
CCD
100
AcDbEntity
  8
DIM
 62
     0
370
    -2
100
AcDbLine
 10
9.5
 20
6.6875
 30
0.0
 11
9.5
 21
7.826924341692432
 31
0.0
  0
LINE
  5
CD0
330
CCD
100
AcDbEntity
  8
DIM
 62
     0
370
    -2
100
AcDbLine
 10
10.74651305224451
 20
7.646924341692432
 30
0.0
 11
10.92651305224451
 21
7.646924341692432
 31
0.0
  0
LINE
  5
CD1
330
CCD
100
AcDbEntity
  8
DIM
 62
     0
370
    -2
100
AcDbLine
 10
9.32
 20
7.646924341692432
 30
0.0
 11
9.139999999999998
 21
7.646924341692432
 31
0.0
  0
SOLID
  5
CD2
330
CCD
100
AcDbEntity
  8
DIM
 62
     0
100
AcDbTrace
 10
10.74651305224451
 20
7.676924341692433
 30
0.0
 11
10.74651305224451
 21
7.616924341692432
 31
0.0
 12
10.56651305224451
 22
7.646924341692432
 32
0.0
 13
10.56651305224451
 23
7.646924341692432
 33
0.0
  0
SOLID
  5
CD3
330
CCD
100
AcDbEntity
  8
DIM
 62
     0
100
AcDbTrace
 10
9.32
 20
7.676924341692433
 30
0.0
 11
9.32
 21
7.616924341692432
 31
0.0
 12
9.5
 22
7.646924341692432
 32
0.0
 13
9.5
 23
7.646924341692432
 33
0.0
  0
MTEXT
  5
CD4
330
CCD
100
AcDbEntity
  8
DIM
 62
     0
100
AcDbMText
 10
8.734999999999999
 20
7.646924341692432
 30
0.0
 40
0.18
 41
0.0
 71
     5
 72
     1
  1
\A1;1.067
 73
     1
 44
1.0
  0
POINT
  5
CD5
330
CCD
100
AcDbEntity
  8
Defpoints
 62
     0
100
AcDbPoint
 10
10.56651305224451
 20
2.341242616752488
 30
0.0
  0
POINT
  5
CD6
330
CCD
100
AcDbEntity
  8
Defpoints
 62
     0
100
AcDbPoint
 10
9.5
 20
6.625
 30
0.0
  0
POINT
  5
CD7
330
CCD
100
AcDbEntity
  8
Defpoints
 62
     0
100
AcDbPoint
 10
9.5
 20
7.646924341692432
 30
0.0
  0
ENDBLK
  5
CD9
330
CCD
100
AcDbEntity
  8
0
100
AcDbBlockEnd
  0
BLOCK
  5
D3B
330
D32
100
AcDbEntity
  8
0
100
AcDbBlockBegin
  2
*D43
 70
     1
 10
0.0
 20
0.0
 30
0.0
  3
*D43
  1

  0
LINE
  5
D45
330
D32
100
AcDbEntity
  8
DIM
 62
     0
370
    -2
100
AcDbLine
 10
18.1959001756545
 20
16.96596289539007
 30
0.0
 11
19.2939922926882
 21
18.77532696500846
 31
0.0
  0
LINE
  5
D46
330
D32
100
AcDbEntity
  8
DIM
 62
     0
370
    -2
100
AcDbLine
 10
19.2939922926882
 20
18.77532696500846
 30
0.0
 11
19.47399229268819
 21
18.77532696500846
 31
0.0
  0
SOLID
  5
D47
330
D32
100
AcDbEntity
  8
DIM
 62
     0
100
AcDbTrace
 10
18.17025371882264
 20
16.98152757501966
 30
0.0
 11
18.22154663248635
 21
16.95039821576048
 31
0.0
 12
18.10251209787694
 22
16.81208415439894
 32
0.0
 13
18.10251209787694
 23
16.81208415439894
 33
0.0
  0
MTEXT
  5
D48
330
D32
100
AcDbEntity
  8
DIM
 62
     0
100
AcDbMText
 10
21.52899229268821
 20
18.77532696500845
 30
0.0
 40
0.18
 41
0.0
 71
     5
 72
     1
  1
\A1;\U+22050.438 C'BORE, 0.068 DEEP\P8X
 73
     1
 44
1.0
  0
LINE
  5
D49
330
D32
100
AcDbEntity
  8
DIM
 62
     0
370
    -2
100
AcDbLine
 10
17.89901964224451
 20
16.62507874
 30
0.0
 11
18.07901964224451
 21
16.62507874
 31
0.0
  0
LINE
  5
D4A
330
D32
100
AcDbEntity
  8
DIM
 62
     0
370
    -2
100
AcDbLine
 10
17.98901964224451
 20
16.53507874
 30
0.0
 11
17.98901964224451
 21
16.71507874
 31
0.0
  0
POINT
  5
D4B
330
D32
100
AcDbEntity
  8
Defpoints
 62
     0
100
AcDbPoint
 10
18.10251209787694
 20
16.81208415439894
 30
0.0
  0
POINT
  5
D4C
330
D32
100
AcDbEntity
  8
Defpoints
 62
     0
100
AcDbPoint
 10
17.87552718661206
 20
16.43807332560106
 30
0.0
  0
ENDBLK
  5
D3C
330
D32
100
AcDbEntity
  8
0
100
AcDbBlockEnd
  0
ENDSEC
  0
SECTION
  2
ENTITIES
  0
INSERT
  5
156
330
1F
100
AcDbEntity
  8
0
100
AcDbBlockReference
 66
     1
  2
d-border
 10
0.0
 20
0.0
 30
0.0
  0
ATTRIB
  5
157
330
156
100
AcDbEntity
  8
TEXT
100
AcDbText
 10
26.4087
 20
0.8153
 30
0.0
 40
0.06
  1
07-24-03
100
AcDbAttribute
  2
DATE
 70
     0
  0
ATTRIB
  5
158
330
156
100
AcDbEntity
  8
TEXT
100
AcDbText
 10
25.4066
 20
0.8516999999999999
 30
0.0
 40
0.12
  1
S. KYRE
100
AcDbAttribute
  2
NAME
 70
     0
  0
ATTRIB
  5
159
330
156
100
AcDbEntity
  8
TEXT
100
AcDbText
 10
27.3318
 20
0.1839
 30
0.0
 40
0.12
  1
1=1
100
AcDbAttribute
  2
SCALE
 70
     0
  0
ATTRIB
  5
15A
330
156
100
AcDbEntity
  8
TEXT
100
AcDbText
 10
28.97149999999999
 20
0.4692000000000001
 30
0.0
 40
0.12
  1
mod-pick-rp-12
100
AcDbAttribute
  2
FILE
 70
     0
  0
ATTRIB
  5
15B
330
156
100
AcDbEntity
  8
TEXT
100
AcDbText
 10
27.3257
 20
0.4571
 30
0.0
 40
0.12
  1
ROD
100
AcDbAttribute
  2
DIRECTORY
 70
     0
  0
SEQEND
  5
15C
330
156
100
AcDbEntity
  8
0
  0
LWPOLYLINE
  5
1BE
330
1F
100
AcDbEntity
  8
handle
100
AcDbPolyline
 90
        4
 70
     1
 43
0.0
 10
9.499999986006613
 20
12.59097998125609
 10
18.99999998600661
 20
12.59097998125609
 10
18.99999998600661
 20
13.09097998125609
 10
9.499999986006613
 20
13.09097998125609
  0
INSERT
  5
1DF
330
1F
100
AcDbEntity
  8
0
100
AcDbBlockReference
  2
6-32-THREAD
 10
10.99999998600661
 20
12.84097998125609
 30
0.0
  0
INSERT
  5
1E1
330
1F
100
AcDbEntity
  8
0
100
AcDbBlockReference
  2
6-32-THREAD
 10
18.24999998600661
 20
12.84097998125609
 30
0.0
  0
MTEXT
  5
26B
330
1F
100
AcDbEntity
  8
TEXT
100
AcDbMText
 10
29.01322061769021
 20
1.091500946102673
 30
0.0
 40
0.12
 41
4.271799999999999
 71
     5
 72
     5
  1
PICK UP TOOL FOR R-PHI MODULE, FRONTSIDE
 73
     1
 44
1.0
  0
MTEXT
  5
26C
330
1F
100
AcDbEntity
  8
TEXT
100
AcDbMText
 10
1.198931223501219
 20
17.17420895270346
 30
0.0
 40
0.2
 41
7.736487591074975
 71
     1
 72
     5
  1
MATERIAL: 1/2" THICK STATIC DISSIPATIVE CAST ACRYLIC\P1 EA. REQUIRED
 73
     1
 44
1.0
  0
DIMENSION
  5
27B
330
1F
100
AcDbEntity
  8
DIM
100
AcDbDimension
  2
*D5
 10
9.499999986006613
 20
13.92515047419546
 30
0.0
 11
13.87499998600661
 21
13.92515047419546
 31
0.0
 70
    32
 71
     5
 42
8.75
  3
SU1
100
AcDbAlignedDimension
 13
18.24999998600661
 23
12.97466724150269
 33
0.0
 14
9.499999986006613
 24
13.09097998125609
 34
0.0
100
AcDbRotatedDimension
  0
DIMENSION
  5
289
330
1F
100
AcDbEntity
  8
DIM
100
AcDbDimension
  2
*D6
 10
9.499999986006613
 20
14.2809924519266
 30
0.0
 11
14.24999998600661
 21
14.2809924519266
 31
0.0
 70
    32
 71
     5
 42
9.5
  3
SU1
100
AcDbAlignedDimension
 13
18.99999998600661
 23
13.09097998125609
 33
0.0
 14
9.499999986006613
 24
13.09097998125609
 34
0.0
100
AcDbRotatedDimension
  0
DIMENSION
  5
297
330
1F
100
AcDbEntity
  8
DIM
100
AcDbDimension
  2
*D7
 10
19.34031525103384
 20
13.09097998125609
 30
0.0
 11
19.94031525103384
 21
13.45097998125609
 31
0.0
 70
    32
 71
     5
 42
0.25
  3
SU1
100
AcDbAlignedDimension
 13
18.37321602140403
 23
12.84097998125609
 33
0.0
 14
18.99999998600661
 24
13.09097998125609
 34
0.0
 50
90.0
100
AcDbRotatedDimension
  0
DIMENSION
  5
2A6
330
1F
100
AcDbEntity
  8
DIM
100
AcDbDimension
  2
*D8
 10
20.48455788335712
 20
13.09097998125609
 30
0.0
 11
21.06955788335712
 21
13.45097998125609
 31
0.0
 70
    32
 71
     5
 42
0.5
  3
SU1
100
AcDbAlignedDimension
 13
18.99999998600661
 23
12.59097998125609
 33
0.0
 14
18.99999998600661
 24
13.09097998125609
 34
0.0
 50
90.0
100
AcDbRotatedDimension
  0
DIMENSION
  5
5E7
330
1F
100
AcDbEntity
  8
DIM
100
AcDbDimension
  2
*D9
 10
10.49211740036241
 20
2.244155420512006
 30
0.0
 11
14.96887151938297
 21
1.404651213872846
 31
0.0
 70
   163
  1
%%c0.251 REAM THRU\PSLIP FIT FOR PIN, DRAWING #: MOD-PICK-RP-15
 71
     5
 42
0.2499999999999982
  3
SU1$3
100
AcDbDiametricDimension
 15
10.6409087041266
 25
2.043254579488009
 35
0.0
 40
0.0
  0
DIMENSION
  5
60F
330
1F
100
AcDbEntity
  8
DIM
100
AcDbDimension
  2
*D10
 10
17.95340009334068
 20
5.036851698085057
 30
0.0
 11
21.62231880654215
 21
10.51077984112593
 31
0.0
 70
   163
  1
10-32 TAP THRU\P12X
 71
     5
 42
0.1899999999999835
  3
SU1$3
100
AcDbDiametricDimension
 15
18.02463919114827
 25
5.212990821914926
 35
0.0
 40
0.0
  0
DIMENSION
  5
61B
330
1F
100
AcDbEntity
  8
DIM
100
AcDbDimension
  2
*D11
 10
18.20818722117174
 20
12.78609197986356
 30
0.0
 11
21.43058139547968
 21
14.65328190926672
 31
0.0
 70
   163
  1
6-32 TAP .375 DEEP\P4X
 71
     5
 42
0.1380000000000123
  3
SU1$3
100
AcDbDiametricDimension
 15
18.29181275084145
 25
12.89586798264861
 35
0.0
 40
0.0
  0
INSERT
  5
75B
330
1F
100
AcDbEntity
  8
vacuum-cup
100
AcDbBlockReference
  2
vac-cup-5-top
 10
14.73901964224449
 20
8.249921259999998
 30
0.0
  0
INSERT
  5
75C
330
1F
100
AcDbEntity
  8
vacuum-cup
100
AcDbBlockReference
  2
vac-cup-5-top
 10
16.4890196422445
 20
8.249921259999998
 30
0.0
 41
-1.0
  0
LINE
  5
75D
330
1F
100
AcDbEntity
  8
CENTER
100
AcDbLine
 10
17.11401964224449
 20
4.999921259999998
 30
0.0
 11
17.11401964224449
 21
5.499921259999998
 31
0.0
  0
CIRCLE
  5
75E
330
1F
100
AcDbEntity
  8
POST
100
AcDbCircle
 10
17.11401964224449
 20
5.249921259999998
 30
0.0
 40
0.1875
  0
CIRCLE
  5
75F
330
1F
100
AcDbEntity
  8
POST
100
AcDbCircle
 10
17.11401964224449
 20
5.249921259999998
 30
0.0
 40
0.1105
  0
INSERT
  5
761
330
1F
100
AcDbEntity
  8
handle
100
AcDbBlockReference
  2
10-32-THREAD
 10
16.23901964224449
 20
5.124921259999998
 30
0.0
  0
INSERT
  5
762
330
1F
100
AcDbEntity
  8
handle
100
AcDbBlockReference
  2
10-32-THREAD
 10
17.9890196422445
 20
5.124921259999998
 30
0.0
  0
INSERT
  5
767
330
1F
100
AcDbEntity
  8
handle
100
AcDbBlockReference
  2
10-32-THREAD
 10
14.2640664622445
 20
5.124921259999998
 30
0.0
  0
INSERT
  5
768
330
1F
100
AcDbEntity
  8
handle
100
AcDbBlockReference
  2
10-32-THREAD
 10
12.5140664622445
 20
5.124921259999998
 30
0.0
  0
CIRCLE
  5
76A
330
1F
100
AcDbEntity
  8
POST
100
AcDbCircle
 10
13.3890664622445
 20
5.249921259999998
 30
0.0
 40
0.1105
  0
LINE
  5
76B
330
1F
100
AcDbEntity
  8
CENTER
100
AcDbLine
 10
13.3890664622445
 20
4.999921259999998
 30
0.0
 11
13.3890664622445
 21
5.499921259999998
 31
0.0
  0
CIRCLE
  5
76C
330
1F
100
AcDbEntity
  8
POST
100
AcDbCircle
 10
13.3890664622445
 20
5.249921259999998
 30
0.0
 40
0.1875
  0
INSERT
  5
76D
330
1F
100
AcDbEntity
  8
vacuum-cup
100
AcDbBlockReference
  2
vac-cup-5-top
 10
12.7640664622445
 20
8.249921259999998
 30
0.0
 41
-1.0
  0
INSERT
  5
76E
330
1F
100
AcDbEntity
  8
vacuum-cup
100
AcDbBlockReference
  2
vac-cup-5-top
 10
11.0140664622445
 20
8.249921259999998
 30
0.0
  0
LWPOLYLINE
  5
76F
330
1F
100
AcDbEntity
  8
handle
100
AcDbPolyline
 90
        4
 70
     1
 43
0.0
 10
9.5
 20
6.625
 10
19.0
 20
6.625
 10
19.0
 20
1.875
 10
9.5
 20
1.875
  0
LINE
  5
770
330
1F
100
AcDbEntity
  8
CENTER
100
AcDbLine
 10
10.19080758734453
 20
4.562488585442986
 30
0.0
 11
9.852999484483603
 21
4.562488585442986
 31
0.0
  0
ARC
  5
773
330
1F
100
AcDbEntity
  8
downstop
100
AcDbCircle
 10
8.475963052244516
 20
5.268705
 30
0.0
 40
0.1875
100
AcDbArc
 50
90.0
 51
270.0
  0
ARC
  5
774
330
1F
100
AcDbEntity
  8
downstop
100
AcDbCircle
 10
8.475963052244516
 20
5.268705
 30
0.0
 40
0.09375
100
AcDbArc
 50
90.0
 51
270.0
  0
INSERT
  5
775
330
1F
100
AcDbEntity
  8
vacuum-cup
100
AcDbBlockReference
  2
vac-cup-5-top
 10
8.730883802244505
 20
5.268547520000009
 30
0.0
  0
LINE
  5
777
330
1F
100
AcDbEntity
  8
downstop
100
AcDbLine
 10
8.475963052244516
 20
5.174955
 30
0.0
 11
8.475963052244516
 21
5.081205
 31
0.0
  0
INSERT
  5
779
330
1F
100
AcDbEntity
  8
handle
100
AcDbBlockReference
  2
10-32-THREAD
 10
12.5140664622445
 20
3.374921259999998
 30
0.0
  0
LINE
  5
77B
330
1F
100
AcDbEntity
  8
CENTER
100
AcDbLine
 10
12.1390664622445
 20
4.249921259999998
 30
0.0
 11
12.6390664622445
 21
4.249921259999998
 31
0.0
  0
CIRCLE
  5
77C
330
1F
100
AcDbEntity
  8
POST
100
AcDbCircle
 10
12.3890664622445
 20
4.249921259999998
 30
0.0
 40
0.1875
  0
INSERT
  5
77D
330
1F
100
AcDbEntity
  8
vacuum-cup
100
AcDbBlockReference
  2
vac-cup-5-top
 10
11.0140664622445
 20
6.499921259999998
 30
0.0
 41
-1.0
 50
180.0
  0
LINE
  5
77E
330
1F
100
AcDbEntity
  8
downstop
100
AcDbLine
 10
8.475963052244516
 20
5.362455
 30
0.0
 11
8.475963052244516
 21
5.456205
 31
0.0
  0
LINE
  5
77F
330
1F
100
AcDbEntity
  8
CENTER
100
AcDbLine
 10
10.0
 20
4.401319179140035
 30
0.0
 11
10.0
 21
4.721508489153801
 31
0.0
  0
LINE
  5
780
330
1F
100
AcDbEntity
  8
CENTER
100
AcDbLine
 10
12.3890664622445
 20
4.499921259999998
 30
0.0
 11
12.3890664622445
 21
3.999921259999998
 31
0.0
  0
CIRCLE
  5
781
330
1F
100
AcDbEntity
  8
POST
100
AcDbCircle
 10
12.3890664622445
 20
4.249921259999998
 30
0.0
 40
0.1105
  0
LINE
  5
782
330
1F
100
AcDbEntity
  8
CENTER
100
AcDbLine
 10
13.1390664622445
 20
3.249921259999998
 30
0.0
 11
13.6390664622445
 21
3.249921259999998
 31
0.0
  0
CIRCLE
  5
784
330
1F
100
AcDbEntity
  8
POST
100
AcDbCircle
 10
13.3890664622445
 20
3.249921259999998
 30
0.0
 40
0.1105
  0
LINE
  5
785
330
1F
100
AcDbEntity
  8
CENTER
100
AcDbLine
 10
13.3890664622445
 20
3.499921259999998
 30
0.0
 11
13.3890664622445
 21
2.999921259999998
 31
0.0
  0
CIRCLE
  5
786
330
1F
100
AcDbEntity
  8
POST
100
AcDbCircle
 10
13.3890664622445
 20
3.249921259999998
 30
0.0
 40
0.1875
  0
INSERT
  5
788
330
1F
100
AcDbEntity
  8
handle
100
AcDbBlockReference
  2
10-32-THREAD
 10
14.2640664622445
 20
3.374921259999998
 30
0.0
  0
INSERT
  5
789
330
1F
100
AcDbEntity
  8
vacuum-cup
100
AcDbBlockReference
  2
vac-cup-5-top
 10
12.7640664622445
 20
6.499921259999998
 30
0.0
 50
180.0
  0
LINE
  5
78B
330
1F
100
AcDbEntity
  8
CENTER
100
AcDbLine
 10
14.3890664622445
 20
4.499921259999998
 30
0.0
 11
14.3890664622445
 21
3.999921259999998
 31
0.0
  0
CIRCLE
  5
78C
330
1F
100
AcDbEntity
  8
POST
100
AcDbCircle
 10
14.3890664622445
 20
4.249921259999998
 30
0.0
 40
0.1875
  0
CIRCLE
  5
78D
330
1F
100
AcDbEntity
  8
POST
100
AcDbCircle
 10
14.3890664622445
 20
4.249921259999998
 30
0.0
 40
0.1105
  0
LINE
  5
78E
330
1F
100
AcDbEntity
  8
CENTER
100
AcDbLine
 10
14.6390664622445
 20
4.249921259999998
 30
0.0
 11
14.1390664622445
 21
4.249921259999998
 31
0.0
  0
INSERT
  5
790
330
1F
100
AcDbEntity
  8
vacuum-cup
100
AcDbBlockReference
  2
vac-cup-5-top
 10
14.73901964224449
 20
6.499921259999998
 30
0.0
 41
-1.0
 50
180.0
  0
INSERT
  5
791
330
1F
100
AcDbEntity
  8
handle
100
AcDbBlockReference
  2
10-32-THREAD
 10
16.23901964224449
 20
3.374921259999998
 30
0.0
  0
CIRCLE
  5
794
330
1F
100
AcDbEntity
  8
POST
100
AcDbCircle
 10
17.11401964224449
 20
3.249921259999998
 30
0.0
 40
0.1875
  0
CIRCLE
  5
795
330
1F
100
AcDbEntity
  8
POST
100
AcDbCircle
 10
17.11401964224449
 20
3.249921259999998
 30
0.0
 40
0.1105
  0
LINE
  5
796
330
1F
100
AcDbEntity
  8
CENTER
100
AcDbLine
 10
16.86401964224449
 20
3.249921259999998
 30
0.0
 11
17.36401964224449
 21
3.249921259999998
 31
0.0
  0
LINE
  5
797
330
1F
100
AcDbEntity
  8
CENTER
100
AcDbLine
 10
17.11401964224449
 20
3.499921259999998
 30
0.0
 11
17.11401964224449
 21
2.999921259999998
 31
0.0
  0
LINE
  5
798
330
1F
100
AcDbEntity
  8
CENTER
100
AcDbLine
 10
16.11401964224449
 20
4.499921259999998
 30
0.0
 11
16.11401964224449
 21
3.999921259999998
 31
0.0
  0
CIRCLE
  5
799
330
1F
100
AcDbEntity
  8
POST
100
AcDbCircle
 10
16.11401964224449
 20
4.249921259999998
 30
0.0
 40
0.1875
  0
CIRCLE
  5
79B
330
1F
100
AcDbEntity
  8
POST
100
AcDbCircle
 10
16.11401964224449
 20
4.249921259999998
 30
0.0
 40
0.1105
  0
CIRCLE
  5
79D
330
1F
100
AcDbEntity
  8
downstop
100
AcDbCircle
 10
17.29484305224449
 20
5.268547520000007
 30
0.0
 40
0.043
  0
CIRCLE
  5
79E
330
1F
100
AcDbEntity
  8
downstop
100
AcDbCircle
 10
17.29484305224449
 20
5.268547520000007
 30
0.0
 40
0.125
  0
INSERT
  5
79F
330
1F
100
AcDbEntity
  8
vacuum-cup
100
AcDbBlockReference
  2
vac-cup-5-top
 10
16.4890196422445
 20
6.499921259999998
 30
0.0
 50
180.0
  0
INSERT
  5
7A0
330
1F
100
AcDbEntity
  8
handle
100
AcDbBlockReference
  2
10-32-THREAD
 10
17.9890196422445
 20
3.374921259999998
 30
0.0
  0
LINE
  5
7A2
330
1F
100
AcDbEntity
  8
CENTER
100
AcDbLine
 10
18.1140196422445
 20
4.499921259999998
 30
0.0
 11
18.1140196422445
 21
3.999921259999998
 31
0.0
  0
CIRCLE
  5
7A3
330
1F
100
AcDbEntity
  8
POST
100
AcDbCircle
 10
18.1140196422445
 20
4.249921259999998
 30
0.0
 40
0.1875
  0
LINE
  5
7A5
330
1F
100
AcDbEntity
  8
CENTER
100
AcDbLine
 10
18.5
 20
4.401319179140035
 30
0.0
 11
18.5
 21
4.721508489153801
 31
0.0
  0
LINE
  5
7A6
330
1F
100
AcDbEntity
  8
CENTER
100
AcDbLine
 10
18.3640196422445
 20
4.249921259999998
 30
0.0
 11
17.8640196422445
 21
4.249921259999998
 31
0.0
  0
CIRCLE
  5
7A7
330
1F
100
AcDbEntity
  8
POST
100
AcDbCircle
 10
18.1140196422445
 20
4.249921259999998
 30
0.0
 40
0.1105
  0
LINE
  5
7A8
330
1F
100
AcDbEntity
  8
CENTER
100
AcDbLine
 10
18.6748870056118
 20
4.562488585442986
 30
0.0
 11
18.33707890275087
 21
4.562488585442986
 31
0.0
  0
ARC
  5
7AB
330
1F
100
AcDbEntity
  8
downstop
100
AcDbCircle
 10
8.475963052244516
 20
9.481294999999988
 30
0.0
 40
0.09375
100
AcDbArc
 50
90.0
 51
270.0
  0
ARC
  5
7AC
330
1F
100
AcDbEntity
  8
downstop
100
AcDbCircle
 10
8.475963052244516
 20
9.481294999999988
 30
0.0
 40
0.1875
100
AcDbArc
 50
90.0
 51
270.0
  0
CIRCLE
  5
7AD
330
1F
100
AcDbEntity
  8
downstop
100
AcDbCircle
 10
9.066513052244513
 20
9.481294999999988
 30
0.0
 40
0.125
  0
LINE
  5
7AE
330
1F
100
AcDbEntity
  8
CENTER
100
AcDbLine
 10
10.38282999278076
 20
2.143705000000011
 30
0.0
 11
10.75647478788499
 21
2.143705000000011
 31
0.0
  0
INSERT
  5
7AF
330
1F
100
AcDbEntity
  8
vacuum-cup
100
AcDbBlockReference
  2
vac-cup-5-top
 10
8.730883802244505
 20
9.481137519999997
 30
0.0
  0
LINE
  5
7B1
330
1F
100
AcDbEntity
  8
CENTER
100
AcDbLine
 10
10.56651305224451
 20
2.341242616752488
 30
0.0
 11
10.56651305224451
 21
1.94927534485501
 31
0.0
  0
LINE
  5
7B2
330
1F
100
AcDbEntity
  8
downstop
100
AcDbLine
 10
8.475963052244516
 20
9.575044999999988
 30
0.0
 11
8.475963052244516
 21
9.668794999999988
 31
0.0
  0
LINE
  5
7B3
330
1F
100
AcDbEntity
  8
downstop
100
AcDbLine
 10
8.475963052244516
 20
9.387544999999988
 30
0.0
 11
8.475963052244516
 21
9.293794999999988
 31
0.0
  0
CIRCLE
  5
7B4
330
1F
100
AcDbEntity
  8
downstop
100
AcDbCircle
 10
9.066513052244513
 20
9.481294999999988
 30
0.0
 40
0.02345
  0
LINE
  5
7B5
330
1F
100
AcDbEntity
  8
CENTER
100
AcDbLine
 10
13.1390664622445
 20
5.249921259999998
 30
0.0
 11
13.6390664622445
 21
5.249921259999998
 31
0.0
  0
LINE
  5
7B6
330
1F
100
AcDbEntity
  8
CENTER
100
AcDbLine
 10
16.86401964224449
 20
5.249921259999998
 30
0.0
 11
17.36401964224449
 21
5.249921259999998
 31
0.0
  0
INSERT
  5
7B9
330
1F
100
AcDbEntity
  8
handle
100
AcDbBlockReference
  2
10-32-THREAD
 10
10.2308838022445
 20
2.143547520000009
 30
0.0
  0
INSERT
  5
7BA
330
1F
100
AcDbEntity
  8
handle
100
AcDbBlockReference
  2
10-32-THREAD
 10
10.2308838022445
 20
6.356137519999997
 30
0.0
  0
CIRCLE
  5
7BB
330
1F
100
AcDbEntity
  8
handle
100
AcDbCircle
 10
10.56651305224451
 20
2.143705000000011
 30
0.0
 40
0.125
  0
INSERT
  5
7BC
330
1F
100
AcDbEntity
  8
handle
100
AcDbBlockReference
  2
10-32-THREAD
 10
10.00003977306457
 20
4.562488585442986
 30
0.0
  0
INSERT
  5
7BD
330
1F
100
AcDbEntity
  8
handle
100
AcDbBlockReference
  2
10-32-THREAD
 10
18.5
 20
4.562488585442986
 30
0.0
 41
-1.0
  0
INSERT
  5
80A
330
1F
100
AcDbEntity
  8
handle
100
AcDbBlockReference
  2
10-32-THREAD
 10
17.9890196422445
 20
16.62507874
 30
0.0
 41
-1.0
 50
180.0
  0
INSERT
  5
80B
330
1F
100
AcDbEntity
  8
vacuum-cup
100
AcDbBlockReference
  2
vac-cup-5-top
 10
16.4890196422445
 20
14.75007874
 30
0.0
 50
180.0
  0
LINE
  5
80C
330
1F
100
AcDbEntity
  8
CENTER
100
AcDbLine
 10
18.3640196422445
 20
17.50007874
 30
0.0
 11
17.8640196422445
 21
17.50007874
 31
0.0
  0
INSERT
  5
810
330
1F
100
AcDbEntity
  8
handle
100
AcDbBlockReference
  2
10-32-THREAD
 10
17.9890196422445
 20
18.37507873999999
 30
0.0
 41
-1.0
 50
180.0
  0
INSERT
  5
811
330
1F
100
AcDbEntity
  8
vacuum-cup
100
AcDbBlockReference
  2
vac-cup-5-top
 10
16.4890196422445
 20
16.50007873999999
 30
0.0
 41
-1.0
  0
LWPOLYLINE
  5
812
330
1F
100
AcDbEntity
  8
handle
100
AcDbPolyline
 90
        4
 70
     1
 43
0.0
 10
9.5
 20
15.125
 10
19.0
 20
15.125
 10
19.0
 20
19.875
 10
9.5
 20
19.875
  0
LINE
  5
813
330
1F
100
AcDbEntity
  8
CENTER
100
AcDbLine
 10
12.3890664622445
 20
17.25007874
 30
0.0
 11
12.3890664622445
 21
17.75007873999999
 31
0.0
  0
INSERT
  5
816
330
1F
100
AcDbEntity
  8
vacuum-cup
100
AcDbBlockReference
  2
vac-cup-5-top
 10
8.730883802244505
 20
17.73145247999999
 30
0.0
 41
-1.0
 50
180.0
  0
INSERT
  5
817
330
1F
100
AcDbEntity
  8
handle
100
AcDbBlockReference
  2
10-32-THREAD
 10
10.2308838022445
 20
19.60645247999999
 30
0.0
 41
-1.0
 50
180.0
  0
LINE
  5
818
330
1F
100
AcDbEntity
  8
downstop
100
AcDbLine
 10
8.475963052244516
 20
17.82504499999999
 30
0.0
 11
8.475963052244516
 21
17.918795
 31
0.0
  0
ARC
  5
819
330
1F
100
AcDbEntity
  8
downstop
100
AcDbCircle
 10
8.475963052244516
 20
17.731295
 30
0.0
 40
0.1875
100
AcDbArc
 50
90.00000000000003
 51
270.0
  0
LINE
  5
81A
330
1F
100
AcDbEntity
  8
CENTER
100
AcDbLine
 10
9.975963052244516
 20
19.36514219306656
 30
0.0
 11
9.975963052244516
 21
19.86837346410143
 31
0.0
  0
LINE
  5
81C
330
1F
100
AcDbEntity
  8
CENTER
100
AcDbLine
 10
9.719112655807421
 20
19.60629499999999
 30
0.0
 11
10.06934273094803
 21
19.60629499999999
 31
0.0
  0
ARC
  5
81D
330
1F
100
AcDbEntity
  8
downstop
100
AcDbCircle
 10
8.475963052244516
 20
17.731295
 30
0.0
 40
0.09375
100
AcDbArc
 50
90.00000000000003
 51
270.0
  0
LINE
  5
81E
330
1F
100
AcDbEntity
  8
downstop
100
AcDbLine
 10
8.475963052244516
 20
17.637545
 30
0.0
 11
8.475963052244516
 21
17.54379499999999
 31
0.0
  0
INSERT
  5
81F
330
1F
100
AcDbEntity
  8
vacuum-cup
100
AcDbBlockReference
  2
vac-cup-5-top
 10
11.0140664622445
 20
16.50007873999999
 30
0.0
  0
INSERT
  5
820
330
1F
100
AcDbEntity
  8
handle
100
AcDbBlockReference
  2
10-32-THREAD
 10
12.5140664622445
 20
18.37507873999999
 30
0.0
 41
-1.0
 50
180.0
  0
INSERT
  5
822
330
1F
100
AcDbEntity
  8
vacuum-cup
100
AcDbBlockReference
  2
vac-cup-5-top
 10
8.730883802244505
 20
13.51886248
 30
0.0
 41
-1.0
 50
180.0
  0
INSERT
  5
823
330
1F
100
AcDbEntity
  8
handle
100
AcDbBlockReference
  2
10-32-THREAD
 10
10.2308838022445
 20
15.39386248
 30
0.0
 41
-1.0
 50
180.0
  0
LINE
  5
825
330
1F
100
AcDbEntity
  8
CENTER
100
AcDbLine
 10
10.0
 20
17.34868082085996
 30
0.0
 11
10.0
 21
17.02849151084619
 31
0.0
  0
INSERT
  5
826
330
1F
100
AcDbEntity
  8
handle
100
AcDbBlockReference
  2
10-32-THREAD
 10
10.00003977306457
 20
17.18751141455701
 30
0.0
 41
-1.0
 50
180.0
  0
LINE
  5
827
330
1F
100
AcDbEntity
  8
CENTER
100
AcDbLine
 10
10.19080758734453
 20
17.18751141455701
 30
0.0
 11
9.852999484483603
 21
17.18751141455701
 31
0.0
  0
LINE
  5
828
330
1F
100
AcDbEntity
  8
CENTER
100
AcDbLine
 10
9.975963052244516
 20
15.15255219306657
 30
0.0
 11
9.975963052244516
 21
15.65578346410144
 31
0.0
  0
ARC
  5
829
330
1F
100
AcDbEntity
  8
downstop
100
AcDbCircle
 10
8.475963052244516
 20
13.51870500000001
 30
0.0
 40
0.09375
100
AcDbArc
 50
90.00000000000003
 51
270.0
  0
LINE
  5
82B
330
1F
100
AcDbEntity
  8
CENTER
100
AcDbLine
 10
9.719112655807421
 20
15.39370500000001
 30
0.0
 11
10.06934273094803
 21
15.39370500000001
 31
0.0
  0
ARC
  5
82C
330
1F
100
AcDbEntity
  8
downstop
100
AcDbCircle
 10
8.475963052244516
 20
13.51870500000001
 30
0.0
 40
0.1875
100
AcDbArc
 50
90.00000000000003
 51
270.0
  0
LINE
  5
82D
330
1F
100
AcDbEntity
  8
downstop
100
AcDbLine
 10
8.475963052244516
 20
13.42495500000001
 30
0.0
 11
8.475963052244516
 21
13.33120500000001
 31
0.0
  0
LINE
  5
82E
330
1F
100
AcDbEntity
  8
downstop
100
AcDbLine
 10
8.475963052244516
 20
13.61245500000001
 30
0.0
 11
8.475963052244516
 21
13.70620500000001
 31
0.0
  0
LINE
  5
82F
330
1F
100
AcDbEntity
  8
CENTER
100
AcDbLine
 10
12.1390664622445
 20
17.50007874
 30
0.0
 11
12.6390664622445
 21
17.50007874
 31
0.0
  0
CIRCLE
  5
830
330
1F
100
AcDbEntity
  8
POST
100
AcDbCircle
 10
12.3890664622445
 20
17.50007874
 30
0.0
 40
0.1105
  0
INSERT
  5
831
330
1F
100
AcDbEntity
  8
vacuum-cup
100
AcDbBlockReference
  2
vac-cup-5-top
 10
11.0140664622445
 20
14.75007874
 30
0.0
 41
-1.0
 50
180.0
  0
INSERT
  5
832
330
1F
100
AcDbEntity
  8
handle
100
AcDbBlockReference
  2
10-32-THREAD
 10
12.5140664622445
 20
16.62507874
 30
0.0
 41
-1.0
 50
180.0
  0
CIRCLE
  5
834
330
1F
100
AcDbEntity
  8
downstop
100
AcDbCircle
 10
9.066513052244513
 20
13.51870500000001
 30
0.0
 40
0.02345
  0
CIRCLE
  5
836
330
1F
100
AcDbEntity
  8
downstop
100
AcDbCircle
 10
9.066513052244513
 20
13.51870500000001
 30
0.0
 40
0.125
  0
LINE
  5
839
330
1F
100
AcDbEntity
  8
CENTER
100
AcDbLine
 10
16.11401964224449
 20
17.25007874
 30
0.0
 11
16.11401964224449
 21
17.75007873999999
 31
0.0
  0
LINE
  5
83C
330
1F
100
AcDbEntity
  8
CENTER
100
AcDbLine
 10
14.3890664622445
 20
17.25007874
 30
0.0
 11
14.3890664622445
 21
17.75007873999999
 31
0.0
  0
INSERT
  5
83F
330
1F
100
AcDbEntity
  8
vacuum-cup
100
AcDbBlockReference
  2
vac-cup-5-top
 10
12.7640664622445
 20
16.50007873999999
 30
0.0
 41
-1.0
  0
INSERT
  5
840
330
1F
100
AcDbEntity
  8
handle
100
AcDbBlockReference
  2
10-32-THREAD
 10
14.2640664622445
 20
18.37507873999999
 30
0.0
 41
-1.0
 50
180.0
  0
CIRCLE
  5
842
330
1F
100
AcDbEntity
  8
POST
100
AcDbCircle
 10
13.3890664622445
 20
18.50007874
 30
0.0
 40
0.1105
  0
LINE
  5
845
330
1F
100
AcDbEntity
  8
CENTER
100
AcDbLine
 10
13.3890664622445
 20
18.25007873999999
 30
0.0
 11
13.3890664622445
 21
18.75007873999999
 31
0.0
  0
LINE
  5
846
330
1F
100
AcDbEntity
  8
CENTER
100
AcDbLine
 10
13.1390664622445
 20
18.50007874
 30
0.0
 11
13.6390664622445
 21
18.50007874
 31
0.0
  0
INSERT
  5
848
330
1F
100
AcDbEntity
  8
handle
100
AcDbBlockReference
  2
10-32-THREAD
 10
16.23901964224449
 20
18.37507873999999
 30
0.0
 41
-1.0
 50
180.0
  0
INSERT
  5
849
330
1F
100
AcDbEntity
  8
vacuum-cup
100
AcDbBlockReference
  2
vac-cup-5-top
 10
14.73901964224449
 20
16.50007873999999
 30
0.0
  0
CIRCLE
  5
84A
330
1F
100
AcDbEntity
  8
POST
100
AcDbCircle
 10
17.11401964224449
 20
18.50007874
 30
0.0
 40
0.1105
  0
LINE
  5
84B
330
1F
100
AcDbEntity
  8
CENTER
100
AcDbLine
 10
17.11401964224449
 20
18.25007873999999
 30
0.0
 11
17.11401964224449
 21
18.75007873999999
 31
0.0
  0
LINE
  5
84E
330
1F
100
AcDbEntity
  8
CENTER
100
AcDbLine
 10
16.86401964224449
 20
18.50007874
 30
0.0
 11
17.36401964224449
 21
18.50007874
 31
0.0
  0
INSERT
  5
84F
330
1F
100
AcDbEntity
  8
vacuum-cup
100
AcDbBlockReference
  2
vac-cup-5-top
 10
12.7640664622445
 20
14.75007874
 30
0.0
 50
180.0
  0
INSERT
  5
850
330
1F
100
AcDbEntity
  8
handle
100
AcDbBlockReference
  2
10-32-THREAD
 10
14.2640664622445
 20
16.62507874
 30
0.0
 41
-1.0
 50
180.0
  0
CIRCLE
  5
852
330
1F
100
AcDbEntity
  8
POST
100
AcDbCircle
 10
13.3890664622445
 20
16.50007873999999
 30
0.0
 40
0.1105
  0
LINE
  5
853
330
1F
100
AcDbEntity
  8
CENTER
100
AcDbLine
 10
13.1390664622445
 20
16.50007873999999
 30
0.0
 11
13.6390664622445
 21
16.50007873999999
 31
0.0
  0
LINE
  5
856
330
1F
100
AcDbEntity
  8
CENTER
100
AcDbLine
 10
13.3890664622445
 20
16.75007874
 30
0.0
 11
13.3890664622445
 21
16.25007874
 31
0.0
  0
LINE
  5
857
330
1F
100
AcDbEntity
  8
CENTER
100
AcDbLine
 10
14.6390664622445
 20
17.50007874
 30
0.0
 11
14.1390664622445
 21
17.50007874
 31
0.0
  0
CIRCLE
  5
858
330
1F
100
AcDbEntity
  8
POST
100
AcDbCircle
 10
14.3890664622445
 20
17.50007874
 30
0.0
 40
0.1105
  0
CIRCLE
  5
859
330
1F
100
AcDbEntity
  8
POST
100
AcDbCircle
 10
16.11401964224449
 20
17.50007874
 30
0.0
 40
0.1105
  0
INSERT
  5
85B
330
1F
100
AcDbEntity
  8
handle
100
AcDbBlockReference
  2
10-32-THREAD
 10
16.23901964224449
 20
16.62507874
 30
0.0
 41
-1.0
 50
180.0
  0
INSERT
  5
85C
330
1F
100
AcDbEntity
  8
vacuum-cup
100
AcDbBlockReference
  2
vac-cup-5-top
 10
14.73901964224449
 20
14.75007874
 30
0.0
 41
-1.0
 50
180.0
  0
LINE
  5
85D
330
1F
100
AcDbEntity
  8
CENTER
100
AcDbLine
 10
16.86401964224449
 20
16.50007873999999
 30
0.0
 11
17.36401964224449
 21
16.50007873999999
 31
0.0
  0
CIRCLE
  5
85E
330
1F
100
AcDbEntity
  8
POST
100
AcDbCircle
 10
17.11401964224449
 20
16.50007873999999
 30
0.0
 40
0.1105
  0
LINE
  5
861
330
1F
100
AcDbEntity
  8
CENTER
100
AcDbLine
 10
17.11401964224449
 20
16.75007874
 30
0.0
 11
17.11401964224449
 21
16.25007874
 31
0.0
  0
LINE
  5
862
330
1F
100
AcDbEntity
  8
CENTER
100
AcDbLine
 10
18.1140196422445
 20
17.25007874
 30
0.0
 11
18.1140196422445
 21
17.75007873999999
 31
0.0
  0
CIRCLE
  5
864
330
1F
100
AcDbEntity
  8
downstop
100
AcDbCircle
 10
17.29484305224449
 20
17.73145247999999
 30
0.0
 40
0.125
  0
CIRCLE
  5
867
330
1F
100
AcDbEntity
  8
downstop
100
AcDbCircle
 10
17.29484305224449
 20
17.73145247999999
 30
0.0
 40
0.043
  0
LINE
  5
868
330
1F
100
AcDbEntity
  8
CENTER
100
AcDbLine
 10
18.6748870056118
 20
17.18751141455701
 30
0.0
 11
18.33707890275087
 21
17.18751141455701
 31
0.0
  0
INSERT
  5
869
330
1F
100
AcDbEntity
  8
handle
100
AcDbBlockReference
  2
10-32-THREAD
 10
18.5
 20
17.18751141455701
 30
0.0
 50
180.0
  0
LINE
  5
86B
330
1F
100
AcDbEntity
  8
CENTER
100
AcDbLine
 10
18.5
 20
17.34868082085996
 30
0.0
 11
18.5
 21
17.02849151084619
 31
0.0
  0
CIRCLE
  5
86C
330
1F
100
AcDbEntity
  8
POST
100
AcDbCircle
 10
18.1140196422445
 20
17.50007874
 30
0.0
 40
0.1105
  0
DIMENSION
  5
86E
330
1F
100
AcDbEntity
  8
DIM
100
AcDbDimension
  2
*D13
 10
9.499999986006613
 20
13.41311591837013
 30
0.0
 11
10.24999998600661
 21
13.41311591837013
 31
0.0
 70
    32
 71
     5
 42
1.5
  3
SU1
100
AcDbAlignedDimension
 13
10.99999998600661
 23
12.97466724150269
 33
0.0
 14
9.499999986006613
 24
13.09097998125609
 34
0.0
100
AcDbRotatedDimension
  0
DIMENSION
  5
87C
330
1F
100
AcDbEntity
  8
DIM
100
AcDbDimension
  2
*D14
 10
9.5
 20
6.877454450038513
 30
0.0
 11
8.705
 21
6.877454450038513
 31
0.0
 70
    32
 71
     5
 42
0.4759630522445164
  3
SU1
100
AcDbAlignedDimension
 13
9.975963052244516
 23
6.489982260246584
 33
0.0
 14
9.5
 24
6.625
 34
0.0
100
AcDbRotatedDimension
  0
DIMENSION
  5
88A
330
1F
100
AcDbEntity
  8
DIM
100
AcDbDimension
  2
*D15
 10
9.5
 20
7.264533381444039
 30
0.0
 11
8.734999999999999
 21
7.264533381444039
 31
0.0
 70
    32
 71
     5
 42
0.7308838022445059
  3
SU1
100
AcDbAlignedDimension
 13
10.2308838022445
 23
6.550567175144998
 33
0.0
 14
9.5
 24
6.625
 34
0.0
100
AcDbRotatedDimension
  0
DIMENSION
  5
8A6
330
1F
100
AcDbEntity
  8
DIM
100
AcDbDimension
  2
*D16
 10
9.5
 20
1.572713616751762
 30
0.0
 11
8.734999999999999
 21
1.572713616751762
 31
0.0
 70
    32
 71
     5
 42
0.5000397730645787
  3
SU1
100
AcDbAlignedDimension
 13
10.00003977306457
 23
4.364950968690509
 33
0.0
 14
9.5
 24
1.875
 34
0.0
100
AcDbRotatedDimension
  0
DIMENSION
  5
8B4
330
1F
100
AcDbEntity
  8
DIM
100
AcDbDimension
  2
*D17
 10
9.5
 20
8.071555224387019
 30
0.0
 11
10.94453323112225
 21
8.071555224387019
 31
0.0
 70
    32
 71
     5
 42
2.8890664622445
  3
SU1
100
AcDbAlignedDimension
 13
12.3890664622445
 23
4.499921259999998
 33
0.0
 14
9.5
 24
6.625
 34
0.0
100
AcDbRotatedDimension
  0
DIMENSION
  5
8F4
330
1F
100
AcDbEntity
  8
DIM
100
AcDbDimension
  2
*D18
 10
9.5
 20
8.391740748682408
 30
0.0
 11
11.00703323112224
 21
8.391740748682408
 31
0.0
 70
    32
 71
     5
 42
3.0140664622445
  3
SU1
100
AcDbAlignedDimension
 13
12.5140664622445
 23
5.319350915144999
 33
0.0
 14
9.5
 24
6.625
 34
0.0
100
AcDbRotatedDimension
  0
DIMENSION
  5
902
330
1F
100
AcDbEntity
  8
DIM
100
AcDbDimension
  2
*D19
 10
9.5
 20
8.767374534339332
 30
0.0
 11
11.44453323112225
 21
8.767374534339332
 31
0.0
 70
    32
 71
     5
 42
3.8890664622445
  3
SU1
100
AcDbAlignedDimension
 13
13.3890664622445
 23
5.499921259999998
 33
0.0
 14
9.5
 24
6.625
 34
0.0
100
AcDbRotatedDimension
  0
DIMENSION
  5
910
330
1F
100
AcDbEntity
  8
DIM
100
AcDbDimension
  2
*D20
 10
9.5
 20
9.152170095848056
 30
0.0
 11
11.88203323112225
 21
9.152170095848056
 31
0.0
 70
    32
 71
     5
 42
4.7640664622445
  3
SU1
100
AcDbAlignedDimension
 13
14.2640664622445
 23
5.319350915144999
 33
0.0
 14
9.5
 24
6.625
 34
0.0
100
AcDbRotatedDimension
  0
DIMENSION
  5
91E
330
1F
100
AcDbEntity
  8
DIM
100
AcDbDimension
  2
*D21
 10
9.5
 20
9.509480329801391
 30
0.0
 11
11.94453323112224
 21
9.509480329801391
 31
0.0
 70
    32
 71
     5
 42
4.8890664622445
  3
SU1
100
AcDbAlignedDimension
 13
14.3890664622445
 23
4.499921259999998
 33
0.0
 14
9.5
 24
6.625
 34
0.0
100
AcDbRotatedDimension
  0
DIMENSION
  5
92C
330
1F
100
AcDbEntity
  8
DIM
100
AcDbDimension
  2
*D22
 10
9.5
 20
9.839305133490569
 30
0.0
 11
12.80700982112224
 21
9.839305133490569
 31
0.0
 70
    32
 71
     5
 42
6.614019642244496
  3
SU1
100
AcDbAlignedDimension
 13
16.11401964224449
 23
4.499921259999998
 33
0.0
 14
9.5
 24
6.625
 34
0.0
100
AcDbRotatedDimension
  0
DIMENSION
  5
93A
330
1F
100
AcDbEntity
  8
DIM
100
AcDbDimension
  2
*D23
 10
9.5
 20
10.19724389372793
 30
0.0
 11
12.86950982112224
 21
10.19724389372793
 31
0.0
 70
    32
 71
     5
 42
6.739019642244496
  3
SU1
100
AcDbAlignedDimension
 13
16.23901964224449
 23
5.319350915144999
 33
0.0
 14
9.5
 24
6.625
 34
0.0
100
AcDbRotatedDimension
  0
DIMENSION
  5
984
330
1F
100
AcDbEntity
  8
DIM
100
AcDbDimension
  2
*D24
 10
9.5
 20
10.52526585047478
 30
0.0
 11
13.30700982112224
 21
10.52526585047478
 31
0.0
 70
    32
 71
     5
 42
7.614019642244496
  3
SU1
100
AcDbAlignedDimension
 13
17.11401964224449
 23
5.499921259999998
 33
0.0
 14
9.5
 24
6.625
 34
0.0
100
AcDbRotatedDimension
  0
DIMENSION
  5
992
330
1F
100
AcDbEntity
  8
DIM
100
AcDbDimension
  2
*D25
 10
9.5
 20
10.87622616642057
 30
0.0
 11
13.74450982112225
 21
10.87622616642057
 31
0.0
 70
    32
 71
     5
 42
8.4890196422445
  3
SU1
100
AcDbAlignedDimension
 13
17.9890196422445
 23
5.319350915144999
 33
0.0
 14
9.5
 24
6.625
 34
0.0
100
AcDbRotatedDimension
  0
DIMENSION
  5
9A0
330
1F
100
AcDbEntity
  8
DIM
100
AcDbDimension
  2
*D26
 10
9.5
 20
11.21743752050823
 30
0.0
 11
13.80700982112225
 21
11.21743752050823
 31
0.0
 70
    32
 71
     5
 42
8.6140196422445
  3
SU1
100
AcDbAlignedDimension
 13
18.1140196422445
 23
4.499921259999998
 33
0.0
 14
9.5
 24
6.625
 34
0.0
100
AcDbRotatedDimension
  0
DIMENSION
  5
9AE
330
1F
100
AcDbEntity
  8
DIM
100
AcDbDimension
  2
*D27
 10
9.5
 20
11.52940224579338
 30
0.0
 11
14.0
 21
11.52940224579338
 31
0.0
 70
    32
 71
     5
 42
9.0
  3
SU1
100
AcDbAlignedDimension
 13
18.5
 23
4.756918240587987
 33
0.0
 14
9.5
 24
6.625
 34
0.0
100
AcDbRotatedDimension
  0
DIMENSION
  5
9E3
330
1F
100
AcDbEntity
  8
DIM
100
AcDbDimension
  2
*D28
 10
7.197077042898328
 20
6.625
 30
0.0
 11
7.812077042898327
 21
6.985000000000001
 31
0.0
 70
    32
 71
     5
 42
0.2687050000000113
  3
SU1
100
AcDbAlignedDimension
 13
9.844065512446171
 23
6.356294999999988
 33
0.0
 14
9.5
 24
6.625
 34
0.0
 50
90.0
100
AcDbRotatedDimension
  0
DIMENSION
  5
9F2
330
1F
100
AcDbEntity
  8
DIM
100
AcDbDimension
  2
*D29
 10
6.621194753201138
 20
6.625
 30
0.0
 11
6.621194753201137
 21
5.937460630000002
 31
0.0
 70
    32
 71
     5
 42
1.37507874
  3
SU1
100
AcDbAlignedDimension
 13
13.1390664622445
 23
5.249921259999998
 33
0.0
 14
9.5
 24
6.625
 34
0.0
 50
90.0
100
AcDbRotatedDimension
  0
DIMENSION
  5
A00
330
1F
100
AcDbEntity
  8
DIM
100
AcDbDimension
  2
*D30
 10
5.784535468660636
 20
6.625
 30
0.0
 11
5.784535468660634
 21
5.874960630000002
 31
0.0
 70
    32
 71
     5
 42
1.50007874
  3
SU1
100
AcDbAlignedDimension
 13
12.33038340278075
 23
5.124921259999998
 33
0.0
 14
9.5
 24
6.625
 34
0.0
 50
90.0
100
AcDbRotatedDimension
  0
DIMENSION
  5
A0E
330
1F
100
AcDbEntity
  8
DIM
100
AcDbDimension
  2
*D31
 10
5.05653328622499
 20
6.625
 30
0.0
 11
5.056533286224988
 21
5.593744292721495
 31
0.0
 70
    32
 71
     5
 42
2.062511414557013
  3
SU1
100
AcDbAlignedDimension
 13
9.816356713600832
 23
4.562488585442986
 33
0.0
 14
9.5
 24
6.625
 34
0.0
 50
90.0
100
AcDbRotatedDimension
  0
DIMENSION
  5
A1C
330
1F
100
AcDbEntity
  8
DIM
100
AcDbDimension
  2
*D32
 10
4.230739762103354
 20
6.625
 30
0.0
 11
4.230739762103352
 21
5.437460630000002
 31
0.0
 70
    32
 71
     5
 42
2.37507874
  3
SU1
100
AcDbAlignedDimension
 13
12.1390664622445
 23
4.249921259999998
 33
0.0
 14
9.5
 24
6.625
 34
0.0
 50
90.0
100
AcDbRotatedDimension
  0
DIMENSION
  5
A2A
330
1F
100
AcDbEntity
  8
DIM
100
AcDbDimension
  2
*D33
 10
3.59161927897712
 20
6.625
 30
0.0
 11
3.591619278977119
 21
4.999960630000002
 31
0.0
 70
    32
 71
     5
 42
3.25007874
  3
SU1
100
AcDbAlignedDimension
 13
12.33038340278075
 23
3.374921259999998
 33
0.0
 14
9.5
 24
6.625
 34
0.0
 50
90.0
100
AcDbRotatedDimension
  0
DIMENSION
  5
A38
330
1F
100
AcDbEntity
  8
DIM
100
AcDbDimension
  2
*D34
 10
2.776691431593719
 20
6.625
 30
0.0
 11
2.776691431593718
 21
4.937460630000002
 31
0.0
 70
    32
 71
     5
 42
3.375078739999999
  3
SU1
100
AcDbAlignedDimension
 13
13.1390664622445
 23
3.249921259999998
 33
0.0
 14
9.5
 24
6.625
 34
0.0
 50
90.0
100
AcDbRotatedDimension
  0
DIMENSION
  5
A46
330
1F
100
AcDbEntity
  8
DIM
100
AcDbDimension
  2
*D35
 10
2.171400000000001
 20
6.625000000000001
 30
0.0
 11
2.1714
 21
4.384352500000002
 31
0.0
 70
    32
 71
     5
 42
4.481294999999999
  3
SU1
100
AcDbAlignedDimension
 13
9.844065512446171
 23
2.143705
 33
0.0
 14
9.5
 24
6.625
 34
0.0
 50
90.0
100
AcDbRotatedDimension
  0
DIMENSION
  5
A54
330
1F
100
AcDbEntity
  8
DIM
100
AcDbDimension
  2
*D36
 10
1.353284180617777
 20
6.625000000000002
 30
0.0
 11
1.353284180617776
 21
4.250000000000002
 31
0.0
 70
    32
 71
     5
 42
4.75
  3
SU1
100
AcDbAlignedDimension
 13
9.5
 23
1.875
 33
0.0
 14
9.5
 24
6.625
 34
0.0
 50
90.0
100
AcDbRotatedDimension
  0
DIMENSION
  5
C3A
330
1F
100
AcDbEntity
  8
DIM
100
AcDbDimension
  2
*D37
 10
18.03204787659661
 20
4.08128887984551
 30
0.0
 11
21.5679333328521
 21
7.528921746125837
 31
0.0
 70
   163
  1
C'BORE FOR #10 SHCS\P8X
 71
     5
 42
0.3749999999999973
  3
SU1$3
100
AcDbDiametricDimension
 15
18.19599140789237
 25
4.418553640154492
 35
0.0
 40
0.0
  0
INSERT
  5
C98
330
1F
100
AcDbEntity
  8
handle
100
AcDbBlockReference
  2
C-BORE-#6
 10
9.975963052244516
 20
6.356294999999988
 30
0.0
  0
INSERT
  5
C99
330
1F
100
AcDbEntity
  8
handle
100
AcDbBlockReference
  2
C-BORE-#6
 10
9.975963052244516
 20
2.143705
 30
0.0
  0
LINE
  5
C9C
330
1F
100
AcDbEntity
  8
CENTER
100
AcDbLine
 10
9.975963052244516
 20
19.40744863609222
 30
0.0
 11
9.975963052244516
 21
19.7973438070998
 31
0.0
  0
CIRCLE
  5
C9D
330
1F
100
AcDbEntity
  8
0
100
AcDbCircle
 10
9.975963052244516
 20
19.60629499999999
 30
0.0
 40
0.085
  0
LINE
  5
C9F
330
1F
100
AcDbEntity
  8
CENTER
100
AcDbLine
 10
9.770425684260104
 20
19.60629499999999
 30
0.0
 11
10.17153339979935
 21
19.60629499999999
 31
0.0
  0
LINE
  5
CA0
330
1F
100
AcDbEntity
  8
CENTER
100
AcDbLine
 10
9.975963052244516
 20
15.19485863609223
 30
0.0
 11
9.975963052244516
 21
15.58475380709982
 31
0.0
  0
CIRCLE
  5
CA1
330
1F
100
AcDbEntity
  8
0
100
AcDbCircle
 10
9.975963052244516
 20
15.39370500000001
 30
0.0
 40
0.085
  0
LINE
  5
CA3
330
1F
100
AcDbEntity
  8
CENTER
100
AcDbLine
 10
9.770425684260104
 20
15.39370500000001
 30
0.0
 11
10.17153339979935
 21
15.39370500000001
 31
0.0
  0
DIMENSION
  5
CA4
330
1F
100
AcDbEntity
  8
DIM
100
AcDbDimension
  2
*D39
 10
9.893522064201178
 20
2.257660719428369
 30
0.0
 11
13.00997341135057
 21
0.5209054889368954
 31
0.0
 70
   163
  1
C-BORE FOR #6 SHCS\P2X
 71
     5
 42
0.2812999999999981
  3
SU1$3
100
AcDbDiametricDimension
 15
10.05840404028785
 25
2.029749280571627
 35
0.0
 40
0.0
  0
LINE
  5
CC6
330
1F
100
AcDbEntity
  8
CENTER
100
AcDbLine
 10
10.56651305224451
 20
19.40875738324751
 30
0.0
 11
10.56651305224451
 21
19.80072465514498
 31
0.0
  0
CIRCLE
  5
CC7
330
1F
100
AcDbEntity
  8
handle
100
AcDbCircle
 10
10.56651305224451
 20
19.60629499999998
 30
0.0
 40
0.125
  0
LINE
  5
CC8
330
1F
100
AcDbEntity
  8
CENTER
100
AcDbLine
 10
10.38282999278076
 20
19.60629499999998
 30
0.0
 11
10.75647478788499
 21
19.60629499999998
 31
0.0
  0
DIMENSION
  5
CCC
330
1F
100
AcDbEntity
  8
DIM
100
AcDbDimension
  2
*D40
 10
9.5
 20
7.646924341692432
 30
0.0
 11
8.734999999999999
 21
7.646924341692432
 31
0.0
 70
    32
 71
     5
 42
1.066513052244513
  3
SU1
100
AcDbAlignedDimension
 13
10.56651305224451
 23
2.341242616752488
 33
0.0
 14
9.5
 24
6.625
 34
0.0
100
AcDbRotatedDimension
  0
CIRCLE
  5
D29
330
1F
100
AcDbEntity
  8
handle
100
AcDbCircle
 10
17.9890196422445
 20
18.37507873999999
 30
0.0
 40
0.21875
  0
CIRCLE
  5
D2A
330
1F
100
AcDbEntity
  8
handle
100
AcDbCircle
 10
17.9890196422445
 20
16.62507874
 30
0.0
 40
0.21875
  0
CIRCLE
  5
D2B
330
1F
100
AcDbEntity
  8
handle
100
AcDbCircle
 10
16.23901964224449
 20
18.37507873999999
 30
0.0
 40
0.21875
  0
CIRCLE
  5
D2C
330
1F
100
AcDbEntity
  8
handle
100
AcDbCircle
 10
16.23901964224449
 20
16.62507874
 30
0.0
 40
0.21875
  0
CIRCLE
  5
D2D
330
1F
100
AcDbEntity
  8
handle
100
AcDbCircle
 10
14.2640664622445
 20
18.37507873999999
 30
0.0
 40
0.21875
  0
CIRCLE
  5
D2E
330
1F
100
AcDbEntity
  8
handle
100
AcDbCircle
 10
14.2640664622445
 20
16.62507874
 30
0.0
 40
0.21875
  0
CIRCLE
  5
D2F
330
1F
100
AcDbEntity
  8
handle
100
AcDbCircle
 10
12.5140664622445
 20
16.62507874
 30
0.0
 40
0.21875
  0
CIRCLE
  5
D30
330
1F
100
AcDbEntity
  8
handle
100
AcDbCircle
 10
12.5140664622445
 20
18.37507873999999
 30
0.0
 40
0.21875
  0
DIMENSION
  5
D31
330
1F
100
AcDbEntity
  8
DIM
100
AcDbDimension
  2
*D43
 10
17.87552718661206
 20
16.43807332560106
 30
0.0
 11
21.52899229268821
 21
18.77532696500845
 31
0.0
 70
   163
  1
<> C'BORE, 0.068 DEEP\P8X
 71
     5
 42
0.4375
  3
SU1$3
100
AcDbDiametricDimension
 15
18.10251209787694
 25
16.81208415439894
 35
0.0
 40
0.0
  0
TEXT
  5
D90
330
1F
100
AcDbEntity
  8
TEXT
100
AcDbText
 10
26.56823602614669
 20
19.30708676969821
 30
0.0
 40
0.125
  1
REMOVE SECOND DOWEL
100
AcDbText
  0
TEXT
  5
D91
330
1F
100
AcDbEntity
  8
TEXT
100
AcDbText
 10
26.56823602614669
 20
19.09875343636488
 30
0.0
 40
0.125
  1
PIN  HOLE
100
AcDbText
  0
LINE
  5
D92
330
1F
100
AcDbEntity
  8
TEXT
100
AcDbLine
 10
26.1080494845343
 20
19.55229554512702
 30
0.0
 11
26.1080494845343
 21
18.54564610090719
 31
0.0
  0
LINE
  5
D93
330
1F
100
AcDbEntity
  8
TEXT
100
AcDbLine
 10
26.49830190676567
 20
19.55229554512702
 30
0.0
 11
26.49830190676567
 21
18.54564610090719
 31
0.0
  0
TEXT
  5
D94
330
1F
100
AcDbEntity
  8
TEXT
100
AcDbText
 10
26.20507614955917
 20
19.30708676969821
 30
0.0
 40
0.18
  1
A
100
AcDbText
  0
TEXT
  5
D95
330
1F
100
AcDbEntity
  8
TEXT
100
AcDbText
 10
29.24764782570884
 20
19.29380584224119
 30
0.0
 40
0.125
  1
08-22-03
100
AcDbText
  0
LINE
  5
D96
330
1F
100
AcDbEntity
  8
TEXT
100
AcDbLine
 10
29.23830190676567
 20
19.55229554512702
 30
0.0
 11
29.23830190676567
 21
18.54564610090719
 31
0.0
  0
LINE
  5
D97
330
1F
100
AcDbEntity
  8
TEXT
100
AcDbLine
 10
30.11830190676567
 20
19.55229554512702
 30
0.0
 11
30.11830190676567
 21
18.54564610090719
 31
0.0
  0
TEXT
  5
D98
330
1F
100
AcDbEntity
  8
TEXT
100
AcDbText
 10
30.84145463792605
 20
0.4696705654721569
 30
0.0
 40
0.2
  1
A
100
AcDbText
  0
ENDSEC
  0
SECTION
  2
OBJECTS
  0
DICTIONARY
  5
C
330
0
100
AcDbDictionary
281
     1
  3
ACAD_GROUP
350
D
  3
ACAD_LAYOUT
350
1A
  3
ACAD_MLINESTYLE
350
17
  3
ACAD_PLOTSETTINGS
350
19
  3
ACAD_PLOTSTYLENAME
350
E
  3
AcadDim
350
EE
  0
DICTIONARY
  5
D
102
{ACAD_REACTORS
330
C
102
}
330
C
100
AcDbDictionary
281
     1
  0
DICTIONARY
  5
1A
102
{ACAD_REACTORS
330
C
102
}
330
C
100
AcDbDictionary
281
     1
  3
Layout1
350
1E
  3
Layout2
350
26
  3
Model
350
22
  0
DICTIONARY
  5
17
102
{ACAD_REACTORS
330
C
102
}
330
C
100
AcDbDictionary
281
     1
  3
Standard
350
18
  0
DICTIONARY
  5
19
102
{ACAD_REACTORS
330
C
102
}
330
C
100
AcDbDictionary
281
     1
  0
ACDBDICTIONARYWDFLT
  5
E
102
{ACAD_REACTORS
330
C
102
}
330
C
100
AcDbDictionary
281
     1
  3
Normal
350
F
100
AcDbDictionaryWithDefault
340
F
  0
XRECORD
  5
EE
102
{ACAD_REACTORS
330
C
102
}
330
C
100
AcDbXrecord
280
     1
 90
   990106
  3

 60
     0
 61
     0
 62
     2
 63
     2
 64
     0
 65
     0
 66
     0
 67
     3
 68
     1
 69
     0
 70
     0
 71
     0
 72
     0
 40
0.0
170
     2
340
0
  0
LAYOUT
  5
1E
102
{ACAD_REACTORS
330
1A
102
}
330
1A
100
AcDbPlotSettings
  1

  2

  4

  6

 40
0.0
 41
0.0
 42
0.0
 43
0.0
 44
0.0
 45
0.0
 46
0.0
 47
0.0
 48
0.0
 49
0.0
140
0.0
141
0.0
142
1.0
143
1.0
 70
   688
 72
     0
 73
     0
 74
     5
  7
style-1.ctb
 75
    16
147
1.0
148
0.0
149
0.0
100
AcDbLayout
  1
Layout1
 70
     1
 71
     1
 10
0.0
 20
0.0
 11
12.0
 21
9.0
 12
0.0
 22
0.0
 32
0.0
 14
1.000000000000000E+20
 24
1.000000000000000E+20
 34
1.000000000000000E+20
 15
-1.000000000000000E+20
 25
-1.000000000000000E+20
 35
-1.000000000000000E+20
146
0.0
 13
0.0
 23
0.0
 33
0.0
 16
1.0
 26
0.0
 36
0.0
 17
0.0
 27
1.0
 37
0.0
 76
     0
330
1B
  0
LAYOUT
  5
26
102
{ACAD_REACTORS
330
1A
102
}
330
1A
100
AcDbPlotSettings
  1

  2

  4

  6

 40
0.0
 41
0.0
 42
0.0
 43
0.0
 44
0.0
 45
0.0
 46
0.0
 47
0.0
 48
0.0
 49
0.0
140
0.0
141
0.0
142
1.0
143
1.0
 70
   688
 72
     0
 73
     0
 74
     5
  7
style-1.ctb
 75
    16
147
1.0
148
0.0
149
0.0
100
AcDbLayout
  1
Layout2
 70
     1
 71
     2
 10
0.0
 20
0.0
 11
12.0
 21
9.0
 12
0.0
 22
0.0
 32
0.0
 14
0.0
 24
0.0
 34
0.0
 15
0.0
 25
0.0
 35
0.0
146
0.0
 13
0.0
 23
0.0
 33
0.0
 16
1.0
 26
0.0
 36
0.0
 17
0.0
 27
1.0
 37
0.0
 76
     0
330
23
  0
LAYOUT
  5
22
102
{ACAD_REACTORS
330
1A
102
}
330
1A
100
AcDbPlotSettings
  1

  2
HP DesignJet 488CA (E_A0) by HP.pc3
  4
User265
  6

 40
4.995333194732666
 41
16.93336677551269
 42
4.99530029296875
 43
16.933349609375
 44
558.7153320312499
 45
863.4306640625
 46
20.32
 47
27.43199999999999
 48
0.0
 49
0.0
140
0.0
141
0.0
142
1.0
143
1.0
 70
 11956
 72
     0
 73
     1
 74
     1
  7
style-1.ctb
 75
    16
147
1.0
148
-17.0489613220199
149
-3.157948022938736
100
AcDbLayout
  1
Model
 70
     1
 71
     0
 10
0.0
 20
0.0
 11
12.0
 21
9.0
 12
0.0
 22
0.0
 32
0.0
 14
0.0
 24
0.0
 34
0.0
 15
0.0
 25
0.0
 35
0.0
146
0.0
 13
0.0
 23
0.0
 33
0.0
 16
1.0
 26
0.0
 36
0.0
 17
0.0
 27
1.0
 37
0.0
 76
     0
330
1F
  0
MLINESTYLE
  5
18
102
{ACAD_REACTORS
330
17
102
}
330
17
100
AcDbMlineStyle
  2
STANDARD
 70
     0
  3

 62
   256
 51
90.0
 52
90.0
 71
     2
 49
0.5
 62
   256
  6
BYLAYER
 49
-0.5
 62
   256
  6
BYLAYER
  0
ACDBPLACEHOLDER
  5
F
102
{ACAD_REACTORS
330
E
102
}
330
E
  0
ENDSEC
  0
EOF
