  0
SECTION
  2
HEADER
  9
$ACADVER
  1
AC1015
  9
$ACADMAINTVER
 70
     6
  9
$DWGCODEPAGE
  3
ANSI_1252
  9
$INSBASE
 10
0.0
 20
0.0
 30
0.0
  9
$EXTMIN
 10
0.4992371100224986
 20
0.1240234748972853
 30
-0.0000000000000058
  9
$EXTMAX
 10
20.5023651606198
 20
14.62597659815332
 30
0.0000000000000104
  9
$LIMMIN
 10
0.0
 20
0.0
  9
$LIMMAX
 10
21.0
 20
16.0
  9
$ORTHOMODE
 70
     0
  9
$REGENMODE
 70
     1
  9
$FILLMODE
 70
     1
  9
$QTEXTMODE
 70
     0
  9
$MIRRTEXT
 70
     1
  9
$LTSCALE
 40
1.0
  9
$ATTMODE
 70
     1
  9
$TEXTSIZE
 40
0.2
  9
$TRACEWID
 40
0.05
  9
$TEXTSTYLE
  7
Standard
  9
$CLAYER
  8
TEXT
  9
$CELTYPE
  6
ByLayer
  9
$CECOLOR
 62
   256
  9
$CELTSCALE
 40
1.0
  9
$DISPSILH
 70
     0
  9
$DIMSCALE
 40
1.0
  9
$DIMASZ
 40
0.18
  9
$DIMEXO
 40
0.0625
  9
$DIMDLI
 40
0.38
  9
$DIMRND
 40
0.0
  9
$DIMDLE
 40
0.0
  9
$DIMEXE
 40
0.18
  9
$DIMTP
 40
0.001
  9
$DIMTM
 40
0.001
  9
$DIMTXT
 40
0.18
  9
$DIMCEN
 40
0.09
  9
$DIMTSZ
 40
0.0
  9
$DIMTOL
 70
     0
  9
$DIMLIM
 70
     0
  9
$DIMTIH
 70
     1
  9
$DIMTOH
 70
     1
  9
$DIMSE1
 70
     0
  9
$DIMSE2
 70
     0
  9
$DIMTAD
 70
     0
  9
$DIMZIN
 70
     0
  9
$DIMBLK
  1

  9
$DIMASO
 70
     1
  9
$DIMSHO
 70
     1
  9
$DIMPOST
  1

  9
$DIMAPOST
  1
mm
  9
$DIMALT
 70
     0
  9
$DIMALTD
 70
     2
  9
$DIMALTF
 40
25.4
  9
$DIMLFAC
 40
1.0
  9
$DIMTOFL
 70
     0
  9
$DIMTVP
 40
0.0
  9
$DIMTIX
 70
     0
  9
$DIMSOXD
 70
     0
  9
$DIMSAH
 70
     0
  9
$DIMBLK1
  1

  9
$DIMBLK2
  1

  9
$DIMSTYLE
  2
SU1
  9
$DIMCLRD
 70
     0
  9
$DIMCLRE
 70
     0
  9
$DIMCLRT
 70
     0
  9
$DIMTFAC
 40
1.0
  9
$DIMGAP
 40
0.09
  9
$DIMJUST
 70
     0
  9
$DIMSD1
 70
     0
  9
$DIMSD2
 70
     0
  9
$DIMTOLJ
 70
     1
  9
$DIMTZIN
 70
     0
  9
$DIMALTZ
 70
     0
  9
$DIMALTTZ
 70
     0
  9
$DIMUPT
 70
     0
  9
$DIMDEC
 70
     3
  9
$DIMTDEC
 70
     3
  9
$DIMALTU
 70
     2
  9
$DIMALTTD
 70
     2
  9
$DIMTXSTY
  7
Standard
  9
$DIMAUNIT
 70
     0
  9
$DIMADEC
 70
     0
  9
$DIMALTRND
 40
0.0
  9
$DIMAZIN
 70
     0
  9
$DIMDSEP
 70
    46
  9
$DIMATFIT
 70
     0
  9
$DIMFRAC
 70
     0
  9
$DIMLDRBLK
  1

  9
$DIMLUNIT
 70
     2
  9
$DIMLWD
 70
    -2
  9
$DIMLWE
 70
    -2
  9
$DIMTMOVE
 70
     0
  9
$LUNITS
 70
     2
  9
$LUPREC
 70
     4
  9
$SKETCHINC
 40
0.1
  9
$FILLETRAD
 40
0.5
  9
$AUNITS
 70
     0
  9
$AUPREC
 70
     0
  9
$MENU
  1
.
  9
$ELEVATION
 40
0.0
  9
$PELEVATION
 40
0.0
  9
$THICKNESS
 40
0.0
  9
$LIMCHECK
 70
     0
  9
$CHAMFERA
 40
0.5
  9
$CHAMFERB
 40
0.5
  9
$CHAMFERC
 40
1.0
  9
$CHAMFERD
 40
0.0
  9
$SKPOLY
 70
     0
  9
$TDCREATE
 40
2452838.624920058
  9
$TDUCREATE
 40
2452838.958253391
  9
$TDUPDATE
 40
2452951.376368263
  9
$TDUUPDATE
 40
2452951.709701597
  9
$TDINDWG
 40
0.0254000347
  9
$TDUSRTIMER
 40
0.0254000347
  9
$USRTIMER
 70
     1
  9
$ANGBASE
 50
0.0
  9
$ANGDIR
 70
     0
  9
$PDMODE
 70
     0
  9
$PDSIZE
 40
0.0
  9
$PLINEWID
 40
0.0
  9
$SPLFRAME
 70
     0
  9
$SPLINETYPE
 70
     6
  9
$SPLINESEGS
 70
     8
  9
$HANDSEED
  5
3CF
  9
$SURFTAB1
 70
     6
  9
$SURFTAB2
 70
     6
  9
$SURFTYPE
 70
     6
  9
$SURFU
 70
     6
  9
$SURFV
 70
     6
  9
$UCSBASE
  2

  9
$UCSNAME
  2

  9
$UCSORG
 10
0.0
 20
0.0
 30
0.0
  9
$UCSXDIR
 10
1.0
 20
0.0
 30
0.0
  9
$UCSYDIR
 10
0.0
 20
1.0
 30
0.0
  9
$UCSORTHOREF
  2

  9
$UCSORTHOVIEW
 70
     0
  9
$UCSORGTOP
 10
0.0
 20
0.0
 30
0.0
  9
$UCSORGBOTTOM
 10
0.0
 20
0.0
 30
0.0
  9
$UCSORGLEFT
 10
0.0
 20
0.0
 30
0.0
  9
$UCSORGRIGHT
 10
0.0
 20
0.0
 30
0.0
  9
$UCSORGFRONT
 10
0.0
 20
0.0
 30
0.0
  9
$UCSORGBACK
 10
0.0
 20
0.0
 30
0.0
  9
$PUCSBASE
  2

  9
$PUCSNAME
  2

  9
$PUCSORG
 10
0.0
 20
0.0
 30
0.0
  9
$PUCSXDIR
 10
1.0
 20
0.0
 30
0.0
  9
$PUCSYDIR
 10
0.0
 20
1.0
 30
0.0
  9
$PUCSORTHOREF
  2

  9
$PUCSORTHOVIEW
 70
     0
  9
$PUCSORGTOP
 10
0.0
 20
0.0
 30
0.0
  9
$PUCSORGBOTTOM
 10
0.0
 20
0.0
 30
0.0
  9
$PUCSORGLEFT
 10
0.0
 20
0.0
 30
0.0
  9
$PUCSORGRIGHT
 10
0.0
 20
0.0
 30
0.0
  9
$PUCSORGFRONT
 10
0.0
 20
0.0
 30
0.0
  9
$PUCSORGBACK
 10
0.0
 20
0.0
 30
0.0
  9
$USERI1
 70
     0
  9
$USERI2
 70
     0
  9
$USERI3
 70
     0
  9
$USERI4
 70
     0
  9
$USERI5
 70
     0
  9
$USERR1
 40
0.0
  9
$USERR2
 40
0.0
  9
$USERR3
 40
0.0
  9
$USERR4
 40
0.0
  9
$USERR5
 40
0.0
  9
$WORLDVIEW
 70
     1
  9
$SHADEDGE
 70
     3
  9
$SHADEDIF
 70
    70
  9
$TILEMODE
 70
     1
  9
$MAXACTVP
 70
    64
  9
$PINSBASE
 10
0.0
 20
0.0
 30
0.0
  9
$PLIMCHECK
 70
     0
  9
$PEXTMIN
 10
1.000000000000000E+20
 20
1.000000000000000E+20
 30
1.000000000000000E+20
  9
$PEXTMAX
 10
-1.000000000000000E+20
 20
-1.000000000000000E+20
 30
-1.000000000000000E+20
  9
$PLIMMIN
 10
0.0
 20
0.0
  9
$PLIMMAX
 10
12.0
 20
9.0
  9
$UNITMODE
 70
     0
  9
$VISRETAIN
 70
     1
  9
$PLINEGEN
 70
     0
  9
$PSLTSCALE
 70
     1
  9
$TREEDEPTH
 70
  3020
  9
$CMLSTYLE
  2
Standard
  9
$CMLJUST
 70
     0
  9
$CMLSCALE
 40
1.0
  9
$PROXYGRAPHICS
 70
     1
  9
$MEASUREMENT
 70
     0
  9
$CELWEIGHT
370
    -1
  9
$ENDCAPS
280
     0
  9
$JOINSTYLE
280
     0
  9
$LWDISPLAY
290
     0
  9
$INSUNITS
 70
     1
  9
$HYPERLINKBASE
  1

  9
$STYLESHEET
  1
style-1.ctb
  9
$XEDIT
290
     1
  9
$CEPSNTYPE
380
     0
  9
$PSTYLEMODE
290
     1
  9
$FINGERPRINTGUID
  2
{FDEAD576-A652-11D2-9A35-0060089B3A3F}
  9
$VERSIONGUID
  2
{145F6A3E-7080-47ED-8BDF-100DE01599B1}
  9
$EXTNAMES
290
     1
  9
$PSVPSCALE
 40
0.0
  9
$OLESTARTUP
290
     0
  0
ENDSEC
  0
SECTION
  2
CLASSES
  0
CLASS
  1
ACDBDICTIONARYWDFLT
  2
AcDbDictionaryWithDefault
  3
AutoCAD 2000
 90
        0
280
     0
281
     0
  0
CLASS
  1
ACDBPLACEHOLDER
  2
AcDbPlaceHolder
  3
AutoCAD 2000
 90
        0
280
     0
281
     0
  0
CLASS
  1
LAYOUT
  2
AcDbLayout
  3
AutoCAD 2000
 90
        0
280
     0
281
     0
  0
CLASS
  1
PLOTSETTINGS
  2
AcDbPlotSettings
  3
AutoCAD 2000
 90
        0
280
     0
281
     0
  0
ENDSEC
  0
SECTION
  2
TABLES
  0
TABLE
  2
VPORT
  5
8
330
0
100
AcDbSymbolTable
 70
     2
  0
VPORT
  5
3CE
330
8
100
AcDbSymbolTableRecord
100
AcDbViewportTableRecord
  2
*Active
 70
     0
 10
0.0
 20
0.0
 11
1.0
 21
1.0
 12
10.50080113532114
 22
7.375000036525308
 13
0.0
 23
0.0
 14
0.125
 24
0.125
 15
1.0
 25
1.0
 16
0.0
 26
0.0
 36
1.0
 17
0.0
 27
0.0
 37
0.0
 40
14.59502952384076
 41
1.629473684210526
 42
50.0
 43
0.0
 44
0.0
 50
0.0
 51
0.0
 71
     0
 72
   100
 73
     1
 74
     3
 75
     0
 76
     1
 77
     0
 78
     0
281
     0
 65
     1
110
0.0
120
0.0
130
0.0
111
1.0
121
0.0
131
0.0
112
0.0
122
1.0
132
0.0
 79
     0
146
0.0
  0
ENDTAB
  0
TABLE
  2
LTYPE
  5
5
330
0
100
AcDbSymbolTable
 70
     3
  0
LTYPE
  5
14
330
5
100
AcDbSymbolTableRecord
100
AcDbLinetypeTableRecord
  2
ByBlock
 70
     0
  3

 72
    65
 73
     0
 40
0.0
  0
LTYPE
  5
15
330
5
100
AcDbSymbolTableRecord
100
AcDbLinetypeTableRecord
  2
ByLayer
 70
     0
  3

 72
    65
 73
     0
 40
0.0
  0
LTYPE
  5
16
330
5
100
AcDbSymbolTableRecord
100
AcDbLinetypeTableRecord
  2
Continuous
 70
     0
  3
Solid line
 72
    65
 73
     0
 40
0.0
  0
LTYPE
  5
48
330
5
100
AcDbSymbolTableRecord
100
AcDbLinetypeTableRecord
  2
CENTER
 70
     0
  3
____ _ ____ _ ____ _ ____ _ ____ _ ____ _ ____ 
 72
    65
 73
     4
 40
2.0
 49
1.25
 74
     0
 49
-0.25
 74
     0
 49
0.25
 74
     0
 49
-0.25
 74
     0
  0
LTYPE
  5
F9
330
5
100
AcDbSymbolTableRecord
100
AcDbLinetypeTableRecord
  2
HIDDEN
 70
     0
  3
Hidden __ __ __ __ __ __ __ __ __ __ __ __ __ _
 72
    65
 73
     2
 40
0.375
 49
0.25
 74
     0
 49
-0.125
 74
     0
  0
ENDTAB
  0
TABLE
  2
LAYER
  5
2
330
0
100
AcDbSymbolTable
 70
     8
  0
LAYER
  5
10
330
2
100
AcDbSymbolTableRecord
100
AcDbLayerTableRecord
  2
0
 70
     0
 62
     7
  6
Continuous
370
    -3
390
F
  0
LAYER
  5
49
330
2
100
AcDbSymbolTableRecord
100
AcDbLayerTableRecord
  2
TEXT
 70
     0
 62
     7
  6
Continuous
370
    -3
390
F
  0
LAYER
  5
4A
330
2
100
AcDbSymbolTableRecord
100
AcDbLayerTableRecord
  2
BORDER
 70
     0
 62
     8
  6
Continuous
370
    -3
390
F
  0
LAYER
  5
A1
330
2
100
AcDbSymbolTableRecord
100
AcDbLayerTableRecord
  2
Defpoints
 70
     0
 62
     7
  6
Continuous
290
     0
370
    -3
390
F
  0
LAYER
  5
D8
330
2
100
AcDbSymbolTableRecord
100
AcDbLayerTableRecord
  2
DIM
 70
     0
 62
     3
  6
Continuous
370
    -3
390
F
  0
LAYER
  5
D9
330
2
100
AcDbSymbolTableRecord
100
AcDbLayerTableRecord
  2
CENTER
 70
     0
 62
     1
  6
CENTER
370
    -3
390
F
  0
LAYER
  5
155
330
2
100
AcDbSymbolTableRecord
100
AcDbLayerTableRecord
  2
Title Block
 70
     0
 62
     7
  6
Continuous
370
    -3
390
F
  0
LAYER
  5
1A9
330
2
100
AcDbSymbolTableRecord
100
AcDbLayerTableRecord
  2
handle
 70
     0
 62
     7
  6
Continuous
370
    -3
390
F
  0
ENDTAB
  0
TABLE
  2
STYLE
  5
3
330
0
100
AcDbSymbolTable
 70
     4
  0
STYLE
  5
11
330
3
100
AcDbSymbolTableRecord
100
AcDbTextStyleTableRecord
  2
Standard
 70
     0
 40
0.0
 41
1.0
 50
0.0
 71
     0
 42
0.2
  3
txt
  4

  0
STYLE
  5
4B
330
3
100
AcDbSymbolTableRecord
100
AcDbTextStyleTableRecord
  2
ADESK2
 70
     0
 40
0.0
 41
1.0
 50
0.0
 71
     0
 42
0.065
  3
romans
  4

  0
STYLE
  5
F8
330
3
100
AcDbSymbolTableRecord
100
AcDbTextStyleTableRecord
  2

 70
     1
 40
0.0
 41
1.0
 50
0.0
 71
     0
 42
0.2
  3
ltypeshp.shx
  4

  0
STYLE
  5
156
330
3
100
AcDbSymbolTableRecord
100
AcDbTextStyleTableRecord
  2
Roman
 70
     0
 40
0.0
 41
1.0
 50
0.0
 71
     0
 42
0.25
  3
romans
  4

  0
ENDTAB
  0
TABLE
  2
VIEW
  5
6
330
0
100
AcDbSymbolTable
 70
     0
  0
ENDTAB
  0
TABLE
  2
UCS
  5
7
330
0
100
AcDbSymbolTable
 70
     0
  0
ENDTAB
  0
TABLE
  2
APPID
  5
9
330
0
100
AcDbSymbolTable
 70
     1
  0
APPID
  5
12
330
9
100
AcDbSymbolTableRecord
100
AcDbRegAppTableRecord
  2
ACAD
 70
     0
  0
ENDTAB
  0
TABLE
  2
DIMSTYLE
  5
A
330
0
100
AcDbSymbolTable
 70
     4
100
AcDbDimStyleTable
 71
     4
340
E0
340
4C
340
DF
340
27
  0
DIMSTYLE
105
27
330
A
100
AcDbSymbolTableRecord
100
AcDbDimStyleTableRecord
  2
Standard
 70
     0
340
11
  0
DIMSTYLE
105
4C
102
{ACAD_REACTORS
330
1D7
330
1E5
330
1F3
330
210
330
21F
330
22D
330
23B
330
249
330
2B7
330
2C6
330
2D5
330
2E3
330
305
330
366
330
388
102
}
330
A
100
AcDbSymbolTableRecord
100
AcDbDimStyleTableRecord
  2
SU1
 70
     0
  4
mm
 47
0.001
 48
0.001
271
     3
272
     3
289
     0
340
11
  0
DIMSTYLE
105
DF
102
{ACAD_REACTORS
330
257
102
}
330
A
100
AcDbSymbolTableRecord
100
AcDbDimStyleTableRecord
  2
SU1$4
 70
     0
  4
mm
 47
0.001
 48
0.001
271
     3
272
     3
288
     1
289
     0
340
11
  0
DIMSTYLE
105
E0
102
{ACAD_REACTORS
330
2F1
330
3AB
102
}
330
A
100
AcDbSymbolTableRecord
100
AcDbDimStyleTableRecord
  2
SU1$3
 70
     0
  4
mm
 47
0.001
 48
0.001
271
     3
272
     3
288
     1
289
     0
340
11
  0
ENDTAB
  0
TABLE
  2
BLOCK_RECORD
  5
1
330
0
100
AcDbSymbolTable
 70
    22
  0
BLOCK_RECORD
  5
1F
330
1
100
AcDbSymbolTableRecord
100
AcDbBlockTableRecord
  2
*Model_Space
340
22
  0
BLOCK_RECORD
  5
1B
330
1
100
AcDbSymbolTableRecord
100
AcDbBlockTableRecord
  2
*Paper_Space
340
1E
  0
BLOCK_RECORD
  5
23
330
1
100
AcDbSymbolTableRecord
100
AcDbBlockTableRecord
  2
*Paper_Space0
340
26
  0
BLOCK_RECORD
  5
108
330
1
100
AcDbSymbolTableRecord
100
AcDbBlockTableRecord
  2
ANSI C title block.dwg
340
0
1001
ACAD
1000
DesignCenter Data
1002
{
1070
     1
1070
     1
1002
}
  0
BLOCK_RECORD
  5
158
330
1
100
AcDbSymbolTableRecord
100
AcDbBlockTableRecord
  2
c-border
340
0
102
{BLKREFS
331
1A2
102
}
  0
BLOCK_RECORD
  5
1CD
330
1
100
AcDbSymbolTableRecord
100
AcDbBlockTableRecord
  2
C-BORE-#10
340
0
310
2800000020000000200000000100080000000000000400000000000000000000000000000000000000000000000080000080000000808000800000008000800080800000C0C0C000C0DCC000F0CAA6000020400000206000002080000020A0000020C0000020E00000400000004020000040400000406000004080000040A0
310
000040C0000040E00000600000006020000060400000606000006080000060A0000060C0000060E00000800000008020000080400000806000008080000080A0000080C0000080E00000A0000000A0200000A0400000A0600000A0800000A0A00000A0C00000A0E00000C0000000C0200000C0400000C0600000C0800000C0
310
A00000C0C00000C0E00000E0000000E0200000E0400000E0600000E0800000E0A00000E0C00000E0E00040000000400020004000400040006000400080004000A0004000C0004000E00040200000402020004020400040206000402080004020A0004020C0004020E000404000004040200040404000404060004040800040
310
40A0004040C0004040E00040600000406020004060400040606000406080004060A0004060C0004060E00040800000408020004080400040806000408080004080A0004080C0004080E00040A0000040A0200040A0400040A0600040A0800040A0A00040A0C00040A0E00040C0000040C0200040C0400040C0600040C08000
310
40C0A00040C0C00040C0E00040E0000040E0200040E0400040E0600040E0800040E0A00040E0C00040E0E00080000000800020008000400080006000800080008000A0008000C0008000E00080200000802020008020400080206000802080008020A0008020C0008020E00080400000804020008040400080406000804080
310
008040A0008040C0008040E00080600000806020008060400080606000806080008060A0008060C0008060E00080800000808020008080400080806000808080008080A0008080C0008080E00080A0000080A0200080A0400080A0600080A0800080A0A00080A0C00080A0E00080C0000080C0200080C0400080C0600080C0
310
800080C0A00080C0C00080C0E00080E0000080E0200080E0400080E0600080E0800080E0A00080E0C00080E0E000C0000000C0002000C0004000C0006000C0008000C000A000C000C000C000E000C0200000C0202000C0204000C0206000C0208000C020A000C020C000C020E000C0400000C0402000C0404000C0406000C0
310
408000C040A000C040C000C040E000C0600000C0602000C0604000C0606000C0608000C060A000C060C000C060E000C0800000C0802000C0804000C0806000C0808000C080A000C080C000C080E000C0A00000C0A02000C0A04000C0A06000C0A08000C0A0A000C0A0C000C0A0E000C0C00000C0C02000C0C04000C0C06000
310
C0C08000C0C0A000F0FBFF00A4A0A000808080000000FF0000FF000000FFFF00FF000000FF00FF00FFFF0000FFFFFF00000000000000000000000000000000000000000000000000000000000000000000000000000000000000000000000000F9000000000000000000000000000000000000000000000000000000000000
310
00F900000000000000000000000000000000000000000000000000000000000000F900000000000000000000000000000000000000000000000000000000000000F90000000000000000000000000000000000000000000000000000000000FFFFF9FFFF0000000000000000000000000000000000000000000000FFFFFFFF
310
0000F90000FFFF000000000000000000000000000000000000000000FF0000000000F900000000FFFF000000000000000000000000000000000000FF000000000000F9000000000000FF000000000000000000000000000000FFFF000000000000FFFFFF000000000000FF0000000000000000000000000000FF00000000FF
310
FFFF00F900FFFF00000000FF00000000000000000000000000FF00000000FF00000000F9000000FF00000000FF000000000000000000000000FF00000000FF00000000F900000000FF000000FF0000000000000000000000FF00000000FF0000000000F900000000FF00000000FF00000000000000000000FF00000000FF00
310
00000000F90000000000FF000000FF000000000000F9F9F9F9F9F9F9F9FFF9F9F9F9F9F9F9F9F9F9F9F9FFF9F9F9F9F9F9F9F9000000000000FF000000FF000000000000F90000000000FF000000FF00000000000000000000FF00000000FF0000000000F90000000000FF000000FF00000000000000000000FF00000000FF
310
0000000000F900000000FF00000000FF0000000000000000000000FF00000000FF00000000F900000000FF000000FF000000000000000000000000FF00000000FF00000000F9000000FF00000000FF00000000000000000000000000FF00000000FFFF0000F900FFFF00000000FF0000000000000000000000000000FF0000
310
00000000FFFFFFFF000000000000FF000000000000000000000000000000FFFF000000000000F9000000000000FF000000000000000000000000000000000000FF0000000000F90000000000FF00000000000000000000000000000000000000FFFFFF000000F9000000FFFF00000000000000000000000000000000000000
310
00000000FFFFFFF9FFFFFF00000000000000000000000000000000000000000000000000000000F900000000000000000000000000000000000000000000000000000000000000F900000000000000000000000000000000000000000000000000000000000000F90000000000000000000000000000000000000000000000
310
0000000000000000F90000000000000000000000000000000000000000000000000000000000000000000000000000000000000000000000
1001
ACAD
1000
DesignCenter Data
1002
{
1070
     1
1070
     1
1002
}
  0
BLOCK_RECORD
  5
1D8
330
1
100
AcDbSymbolTableRecord
100
AcDbBlockTableRecord
  2
*D4
340
0
  0
BLOCK_RECORD
  5
1E6
330
1
100
AcDbSymbolTableRecord
100
AcDbBlockTableRecord
  2
*D5
340
0
  0
BLOCK_RECORD
  5
1F4
330
1
100
AcDbSymbolTableRecord
100
AcDbBlockTableRecord
  2
*D6
340
0
  0
BLOCK_RECORD
  5
211
330
1
100
AcDbSymbolTableRecord
100
AcDbBlockTableRecord
  2
*D7
340
0
  0
BLOCK_RECORD
  5
220
330
1
100
AcDbSymbolTableRecord
100
AcDbBlockTableRecord
  2
*D8
340
0
  0
BLOCK_RECORD
  5
22E
330
1
100
AcDbSymbolTableRecord
100
AcDbBlockTableRecord
  2
*D9
340
0
  0
BLOCK_RECORD
  5
23C
330
1
100
AcDbSymbolTableRecord
100
AcDbBlockTableRecord
  2
*D10
340
0
  0
BLOCK_RECORD
  5
24A
330
1
100
AcDbSymbolTableRecord
100
AcDbBlockTableRecord
  2
*D11
340
0
  0
BLOCK_RECORD
  5
258
330
1
100
AcDbSymbolTableRecord
100
AcDbBlockTableRecord
  2
*D12
340
0
  0
BLOCK_RECORD
  5
2B8
330
1
100
AcDbSymbolTableRecord
100
AcDbBlockTableRecord
  2
*D13
340
0
  0
BLOCK_RECORD
  5
2C7
330
1
100
AcDbSymbolTableRecord
100
AcDbBlockTableRecord
  2
*D14
340
0
  0
BLOCK_RECORD
  5
2D6
330
1
100
AcDbSymbolTableRecord
100
AcDbBlockTableRecord
  2
*D15
340
0
  0
BLOCK_RECORD
  5
2E4
330
1
100
AcDbSymbolTableRecord
100
AcDbBlockTableRecord
  2
*D16
340
0
  0
BLOCK_RECORD
  5
2F2
330
1
100
AcDbSymbolTableRecord
100
AcDbBlockTableRecord
  2
*D17
340
0
  0
BLOCK_RECORD
  5
306
330
1
100
AcDbSymbolTableRecord
100
AcDbBlockTableRecord
  2
*D18
340
0
  0
BLOCK_RECORD
  5
367
330
1
100
AcDbSymbolTableRecord
100
AcDbBlockTableRecord
  2
*D19
340
0
  0
BLOCK_RECORD
  5
389
330
1
100
AcDbSymbolTableRecord
100
AcDbBlockTableRecord
  2
*D20
340
0
  0
BLOCK_RECORD
  5
3AC
330
1
100
AcDbSymbolTableRecord
100
AcDbBlockTableRecord
  2
*D21
340
0
  0
ENDTAB
  0
ENDSEC
  0
SECTION
  2
BLOCKS
  0
BLOCK
  5
20
330
1F
100
AcDbEntity
  8
0
100
AcDbBlockBegin
  2
*Model_Space
 70
     0
 10
0.0
 20
0.0
 30
0.0
  3
*Model_Space
  1

  0
ENDBLK
  5
21
330
1F
100
AcDbEntity
  8
0
100
AcDbBlockEnd
  0
BLOCK
  5
1C
330
1B
100
AcDbEntity
 67
     1
  8
0
100
AcDbBlockBegin
  2
*Paper_Space
 70
     0
 10
0.0
 20
0.0
 30
0.0
  3
*Paper_Space
  1

  0
ENDBLK
  5
1D
330
1B
100
AcDbEntity
 67
     1
  8
0
100
AcDbBlockEnd
  0
BLOCK
  5
24
330
23
100
AcDbEntity
  8
0
100
AcDbBlockBegin
  2
*Paper_Space0
 70
     0
 10
0.0
 20
0.0
 30
0.0
  3
*Paper_Space0
  1

  0
ENDBLK
  5
25
330
23
100
AcDbEntity
  8
0
100
AcDbBlockEnd
  0
BLOCK
  5
153
330
108
100
AcDbEntity
  8
0
100
AcDbBlockBegin
  2
ANSI C title block.dwg
 70
     2
 10
0.0
 20
0.0
 30
0.0
  3
ANSI C title block.dwg
  1

  0
LINE
  5
109
330
108
100
AcDbEntity
  8
Title Block
100
AcDbLine
 10
0.0
 20
0.0
 30
0.0
 11
21.0
 21
0.0
 31
0.0
  0
LINE
  5
10A
330
108
100
AcDbEntity
  8
Title Block
100
AcDbLine
 10
21.0
 20
16.0
 30
0.0
 11
0.0
 21
16.0
 31
0.0
  0
LINE
  5
10B
330
108
100
AcDbEntity
  8
Title Block
100
AcDbLine
 10
0.5
 20
0.75
 30
0.0
 11
20.5
 21
0.75
 31
0.0
  0
LINE
  5
10C
330
108
100
AcDbEntity
  8
Title Block
100
AcDbLine
 10
20.5
 20
15.25
 30
0.0
 11
0.5
 21
15.25
 31
0.0
  0
SOLID
  5
10D
330
108
100
AcDbEntity
  8
Title Block
100
AcDbTrace
 10
10.34999999999999
 20
0.6000000000000001
 30
0.0
 11
10.65
 21
0.6000000000000001
 31
0.0
 12
10.5
 22
0.75
 32
0.0
 13
10.5
 23
0.75
 33
0.0
  0
SOLID
  5
10E
330
108
100
AcDbEntity
  8
Title Block
100
AcDbTrace
 10
10.34999999999999
 20
15.4
 30
0.0
 11
10.65
 21
15.4
 31
0.0
 12
10.5
 22
15.25
 32
0.0
 13
10.5
 23
15.25
 33
0.0
  0
LINE
  5
10F
330
108
100
AcDbEntity
  8
Title Block
100
AcDbLine
 10
0.0
 20
16.0
 30
0.0
 11
0.0
 21
0.0
 31
0.0
  0
LINE
  5
110
330
108
100
AcDbEntity
  8
Title Block
100
AcDbLine
 10
0.5
 20
15.25
 30
0.0
 11
0.5
 21
0.75
 31
0.0
  0
SOLID
  5
111
330
108
100
AcDbEntity
  8
Title Block
100
AcDbTrace
 10
0.3499999999999943
 20
7.849999999999999
 30
0.0
 11
0.3499999999999943
 21
8.15
 31
0.0
 12
0.5
 22
8.0
 32
0.0
 13
0.5
 23
8.0
 33
0.0
  0
TEXT
  5
112
330
108
100
AcDbEntity
  8
Title Block
100
AcDbText
 10
0.1428571428571428
 20
2.0
 30
0.0
 40
0.25
  1
A
  7
Roman
 72
     1
 11
0.25
 21
2.125
 31
0.0
100
AcDbText
 73
     2
  0
ATTDEF
  5
113
330
108
100
AcDbEntity
  8
0
 62
     0
100
AcDbText
 10
-0.05
 20
0.0
 30
0.0
 40
0.15
  1

 50
90.0
  7
Roman
100
AcDbAttributeDefinition
  3
Author:
  2
USER
 70
     8
  0
TEXT
  5
114
330
108
100
AcDbEntity
  8
Title Block
100
AcDbText
 10
2.625
 20
0.375
 30
0.0
 40
0.25
  1
4
  7
Roman
 72
     1
 11
2.75
 21
0.5
 31
0.0
100
AcDbText
 73
     2
  0
TEXT
  5
115
330
108
100
AcDbEntity
  8
Title Block
100
AcDbText
 10
0.119047619047619
 20
6.0
 30
0.0
 40
0.25
  1
B
  7
Roman
 72
     1
 11
0.25
 21
6.125
 31
0.0
100
AcDbText
 73
     2
  0
LINE
  5
116
330
108
100
AcDbEntity
  8
Title Block
100
AcDbLine
 10
0.125
 20
4.0
 30
0.0
 11
0.5
 21
4.0
 31
0.0
  0
ATTDEF
  5
117
330
108
100
AcDbEntity
  8
0
 62
     0
100
AcDbText
 10
-0.05
 20
3.0
 30
0.0
 40
0.15
  1

 50
90.0
  7
Roman
100
AcDbAttributeDefinition
  3
Revision date:
  2
REVDATE
 70
     8
  0
ATTDEF
  5
118
330
108
100
AcDbEntity
  8
0
 62
     0
100
AcDbText
 10
-0.05
 20
6.0
 30
0.0
 40
0.15
  1

 50
90.0
  7
Roman
100
AcDbAttributeDefinition
  3
File name:
  2
FNAME
 70
     8
  0
LINE
  5
119
330
108
100
AcDbEntity
  8
Title Block
100
AcDbLine
 10
5.249999999999996
 20
0.375
 30
0.0
 11
5.249999999999996
 21
0.75
 31
0.0
  0
TEXT
  5
11A
330
108
100
AcDbEntity
  8
Title Block
100
AcDbText
 10
7.880952380952381
 20
0.375
 30
0.0
 40
0.25
  1
3
  7
Roman
 72
     1
 11
8.0
 21
0.5
 31
0.0
100
AcDbText
 73
     2
  0
LWPOLYLINE
  5
11B
330
108
100
AcDbEntity
  8
Title Block
100
AcDbPolyline
 90
        2
 70
     0
 43
0.02
 10
10.5
 20
0.5
 10
10.5
 20
0.6000000000000001
  0
LINE
  5
11C
330
108
100
AcDbEntity
  8
Title Block
100
AcDbLine
 10
0.125
 20
12.0
 30
0.0
 11
0.5
 21
12.0
 31
0.0
  0
TEXT
  5
11D
330
108
100
AcDbEntity
  8
Title Block
100
AcDbText
 10
0.125
 20
9.75
 30
0.0
 40
0.25
  1
C
  7
Roman
 72
     1
 11
0.25
 21
9.875
 31
0.0
100
AcDbText
 73
     2
  0
LWPOLYLINE
  5
11E
330
108
100
AcDbEntity
  8
Title Block
100
AcDbPolyline
 90
        2
 70
     0
 43
0.02
 10
0.25
 20
8.0
 10
0.3499999999999943
 20
8.0
  0
TEXT
  5
11F
330
108
100
AcDbEntity
  8
Title Block
100
AcDbText
 10
0.1190476190476191
 20
13.75
 30
0.0
 40
0.25
  1
D
  7
Roman
 72
     1
 11
0.25
 21
13.875
 31
0.0
100
AcDbText
 73
     2
  0
TEXT
  5
120
330
108
100
AcDbEntity
  8
Title Block
100
AcDbText
 10
2.625
 20
15.375
 30
0.0
 40
0.25
  1
4
  7
Roman
 72
     1
 11
2.75
 21
15.5
 31
0.0
100
AcDbText
 73
     2
  0
LINE
  5
121
330
108
100
AcDbEntity
  8
Title Block
100
AcDbLine
 10
5.249999999999996
 20
15.25
 30
0.0
 11
5.249999999999996
 21
15.625
 31
0.0
  0
TEXT
  5
122
330
108
100
AcDbEntity
  8
Title Block
100
AcDbText
 10
7.880952380952381
 20
15.375
 30
0.0
 40
0.25
  1
3
  7
Roman
 72
     1
 11
8.0
 21
15.5
 31
0.0
100
AcDbText
 73
     2
  0
LWPOLYLINE
  5
123
330
108
100
AcDbEntity
  8
Title Block
100
AcDbPolyline
 90
        2
 70
     0
 43
0.02
 10
10.5
 20
15.5
 10
10.5
 20
15.4
  0
LINE
  5
124
330
108
100
AcDbEntity
  8
Title Block
100
AcDbLine
 10
21.0
 20
0.0
 30
0.0
 11
21.0
 21
16.0
 31
0.0
  0
LINE
  5
125
330
108
100
AcDbEntity
  8
Title Block
100
AcDbLine
 10
20.5
 20
0.75
 30
0.0
 11
20.5
 21
15.25
 31
0.0
  0
SOLID
  5
126
330
108
100
AcDbEntity
  8
Title Block
100
AcDbTrace
 10
20.65
 20
7.849999999999999
 30
0.0
 11
20.65
 21
8.15
 31
0.0
 12
20.5
 22
8.0
 32
0.0
 13
20.5
 23
8.0
 33
0.0
  0
LINE
  5
127
330
108
100
AcDbEntity
  8
Title Block
100
AcDbLine
 10
14.25
 20
2.5
 30
0.0
 11
20.5
 21
2.5
 31
0.0
  0
LINE
  5
128
330
108
100
AcDbEntity
  8
Title Block
100
AcDbLine
 10
14.25
 20
1.379999999999999
 30
0.0
 11
20.5
 21
1.379999999999999
 31
0.0
  0
LINE
  5
129
330
108
100
AcDbEntity
  8
Title Block
100
AcDbLine
 10
16.25
 20
1.0
 30
0.0
 11
20.5
 21
1.0
 31
0.0
  0
LINE
  5
12A
330
108
100
AcDbEntity
  8
Title Block
100
AcDbLine
 10
16.25
 20
2.0
 30
0.0
 11
20.5
 21
2.0
 31
0.0
  0
TEXT
  5
12B
330
108
100
AcDbEntity
  8
Title Block
100
AcDbText
 10
12.88095238095238
 20
0.375
 30
0.0
 40
0.25
  1
2
  7
Roman
 72
     1
 11
13.0
 21
0.5
 31
0.0
100
AcDbText
 73
     2
  0
LINE
  5
12C
330
108
100
AcDbEntity
  8
Title Block
100
AcDbLine
 10
14.25
 20
1.064999999999999
 30
0.0
 11
16.25
 21
1.064999999999999
 31
0.0
  0
LINE
  5
12D
330
108
100
AcDbEntity
  8
Title Block
100
AcDbLine
 10
14.25
 20
0.75
 30
0.0
 11
14.25
 21
2.5
 31
0.0
  0
LINE
  5
12E
330
108
100
AcDbEntity
  8
Title Block
100
AcDbLine
 10
15.75
 20
0.375
 30
0.0
 11
15.75
 21
0.75
 31
0.0
  0
LINE
  5
12F
330
108
100
AcDbEntity
  8
Title Block
100
AcDbLine
 10
16.25
 20
0.75
 30
0.0
 11
16.25
 21
2.5
 31
0.0
  0
LINE
  5
130
330
108
100
AcDbEntity
  8
Title Block
100
AcDbLine
 10
16.62999999999999
 20
1.0
 30
0.0
 11
16.62999999999999
 21
1.379999999999999
 31
0.0
  0
TEXT
  5
131
330
108
100
AcDbEntity
  8
Title Block
100
AcDbText
 10
16.3023
 20
0.8425
 30
0.0
 40
0.065
  1
SCALE
  7
Roman
100
AcDbText
  0
LINE
  5
132
330
108
100
AcDbEntity
  8
Title Block
100
AcDbLine
 10
17.25
 20
0.75
 30
0.0
 11
17.25
 21
1.0
 31
0.0
  0
TEXT
  5
133
330
108
100
AcDbEntity
  8
Title Block
100
AcDbText
 10
16.3379
 20
1.2659
 30
0.0
 40
0.065
  1
SIZE
  7
Roman
100
AcDbText
  0
TEXT
  5
134
330
108
100
AcDbEntity
  8
Title Block
100
AcDbText
 10
16.69889999999999
 20
1.2659
 30
0.0
 40
0.065
  1
FSCM NO.
  7
Roman
100
AcDbText
  0
LINE
  5
135
330
108
100
AcDbEntity
  8
Title Block
100
AcDbLine
 10
17.75
 20
1.0
 30
0.0
 11
17.75
 21
1.379999999999999
 31
0.0
  0
TEXT
  5
136
330
108
100
AcDbEntity
  8
Title Block
100
AcDbText
 10
18.14880952380952
 20
0.375
 30
0.0
 40
0.25
  1
1
  7
Roman
 72
     1
 11
18.25
 21
0.5
 31
0.0
100
AcDbText
 73
     2
  0
LINE
  5
137
330
108
100
AcDbEntity
  8
Title Block
100
AcDbLine
 10
18.75
 20
0.75
 30
0.0
 11
18.75
 21
1.0
 31
0.0
  0
TEXT
  5
138
330
108
100
AcDbEntity
  8
Title Block
100
AcDbText
 10
18.8028
 20
0.8425
 30
0.0
 40
0.065
  1
SHEET
  7
Roman
100
AcDbText
  0
TEXT
  5
139
330
108
100
AcDbEntity
  8
Title Block
100
AcDbText
 10
17.82099999999999
 20
1.2659
 30
0.0
 40
0.065
  1
DWG NO.
  7
Roman
100
AcDbText
  0
LINE
  5
13A
330
108
100
AcDbEntity
  8
Title Block
100
AcDbLine
 10
20.12
 20
1.0
 30
0.0
 11
20.12
 21
1.379999999999999
 31
0.0
  0
TEXT
  5
13B
330
108
100
AcDbEntity
  8
Title Block
100
AcDbText
 10
20.2005
 20
1.2659
 30
0.0
 40
0.065
  1
REV
  7
Roman
100
AcDbText
  0
TEXT
  5
13C
330
108
100
AcDbEntity
  8
Title Block
100
AcDbText
 10
20.64285714285714
 20
2.0
 30
0.0
 40
0.25
  1
A
  7
Roman
 72
     1
 11
20.75
 21
2.125
 31
0.0
100
AcDbText
 73
     2
  0
LINE
  5
13D
330
108
100
AcDbEntity
  8
Title Block
100
AcDbLine
 10
20.5
 20
4.0
 30
0.0
 11
20.87499999999999
 21
4.0
 31
0.0
  0
TEXT
  5
13E
330
108
100
AcDbEntity
  8
Title Block
100
AcDbText
 10
20.61904761904762
 20
6.0
 30
0.0
 40
0.25
  1
B
  7
Roman
 72
     1
 11
20.75
 21
6.125
 31
0.0
100
AcDbText
 73
     2
  0
LINE
  5
13F
330
108
100
AcDbEntity
  8
Title Block
100
AcDbLine
 10
15.0
 20
15.0
 30
0.0
 11
20.5
 21
15.0
 31
0.0
  0
LINE
  5
140
330
108
100
AcDbEntity
  8
Title Block
100
AcDbLine
 10
15.0
 20
14.75
 30
0.0
 11
20.5
 21
14.75
 31
0.0
  0
TEXT
  5
141
330
108
100
AcDbEntity
  8
Title Block
100
AcDbText
 10
12.88095238095238
 20
15.375
 30
0.0
 40
0.25
  1
2
  7
Roman
 72
     1
 11
13.0
 21
15.5
 31
0.0
100
AcDbText
 73
     2
  0
LINE
  5
142
330
108
100
AcDbEntity
  8
Title Block
100
AcDbLine
 10
15.0
 20
15.25
 30
0.0
 11
15.0
 21
14.2027
 31
0.0
  0
LINE
  5
143
330
108
100
AcDbEntity
  8
Title Block
100
AcDbLine
 10
15.75
 20
15.25
 30
0.0
 11
15.75
 21
15.625
 31
0.0
  0
TEXT
  5
144
330
108
100
AcDbEntity
  8
Title Block
100
AcDbText
 10
15.10869999999999
 20
14.84029999999999
 30
0.0
 40
0.065
  1
ZONE
  7
Roman
100
AcDbText
  0
LINE
  5
145
330
108
100
AcDbEntity
  8
Title Block
100
AcDbLine
 10
15.5
 20
14.75
 30
0.0
 11
15.5
 21
15.0
 31
0.0
  0
TEXT
  5
146
330
108
100
AcDbEntity
  8
Title Block
100
AcDbText
 10
15.5801
 20
14.84029999999999
 30
0.0
 40
0.065
  1
REV
  7
Roman
100
AcDbText
  0
LINE
  5
147
330
108
100
AcDbEntity
  8
Title Block
100
AcDbLine
 10
15.87999999999999
 20
14.75
 30
0.0
 11
15.87999999999999
 21
15.0
 31
0.0
  0
TEXT
  5
148
330
108
100
AcDbEntity
  8
Title Block
100
AcDbText
 10
16.882
 20
14.84029999999999
 30
0.0
 40
0.065
  1
DESCRIPTION
  7
Roman
100
AcDbText
  0
LWPOLYLINE
  5
149
330
108
100
AcDbEntity
  8
Title Block
100
AcDbPolyline
 90
        2
 70
     0
 43
0.02
 10
20.75
 20
8.0
 10
20.65
 20
8.0
  0
TEXT
  5
14A
330
108
100
AcDbEntity
  8
Title Block
100
AcDbText
 10
20.625
 20
9.75
 30
0.0
 40
0.25
  1
C
  7
Roman
 72
     1
 11
20.75
 21
9.875
 31
0.0
100
AcDbText
 73
     2
  0
LINE
  5
14B
330
108
100
AcDbEntity
  8
Title Block
100
AcDbLine
 10
20.5
 20
12.0
 30
0.0
 11
20.87499999999999
 21
12.0
 31
0.0
  0
TEXT
  5
14C
330
108
100
AcDbEntity
  8
Title Block
100
AcDbText
 10
17.7102
 20
15.0825
 30
0.0
 40
0.065
  1
REVISIONS
  7
Roman
100
AcDbText
  0
TEXT
  5
14D
330
108
100
AcDbEntity
  8
Title Block
100
AcDbText
 10
18.14880952380952
 20
15.375
 30
0.0
 40
0.25
  1
1
  7
Roman
 72
     1
 11
18.25
 21
15.5
 31
0.0
100
AcDbText
 73
     2
  0
LINE
  5
14E
330
108
100
AcDbEntity
  8
Title Block
100
AcDbLine
 10
18.62
 20
14.75
 30
0.0
 11
18.62
 21
15.0
 31
0.0
  0
TEXT
  5
14F
330
108
100
AcDbEntity
  8
Title Block
100
AcDbText
 10
18.94769999999999
 20
14.84029999999999
 30
0.0
 40
0.065
  1
DATE
  7
Roman
100
AcDbText
  0
TEXT
  5
150
330
108
100
AcDbEntity
  8
Title Block
100
AcDbText
 10
20.61904761904762
 20
13.75
 30
0.0
 40
0.25
  1
D
  7
Roman
 72
     1
 11
20.75
 21
13.875
 31
0.0
100
AcDbText
 73
     2
  0
TEXT
  5
151
330
108
100
AcDbEntity
  8
Title Block
100
AcDbText
 10
19.7414
 20
14.84029999999999
 30
0.0
 40
0.065
  1
APPROVED
  7
Roman
100
AcDbText
  0
LINE
  5
152
330
108
100
AcDbEntity
  8
Title Block
100
AcDbLine
 10
19.5
 20
14.75
 30
0.0
 11
19.5
 21
15.0
 31
0.0
  0
ENDBLK
  5
154
330
108
100
AcDbEntity
  8
0
100
AcDbBlockEnd
  0
BLOCK
  5
1A0
330
158
100
AcDbEntity
  8
0
100
AcDbBlockBegin
  2
c-border
 70
     2
 10
0.0
 20
0.0
 30
0.0
  3
c-border
  1

  0
ATTDEF
  5
159
330
158
100
AcDbEntity
  8
TEXT
100
AcDbText
 10
15.75549999999999
 20
0.8301
 30
0.0
 40
0.06
  1

100
AcDbAttributeDefinition
  3
Enter the Date
  2
DATE
 70
     0
  0
ATTDEF
  5
15A
330
158
100
AcDbEntity
  8
TEXT
100
AcDbText
 10
14.7352
 20
0.8425
 30
0.0
 40
0.12
  1
S. KYRE
100
AcDbAttributeDefinition
  3
Enter Your Name
  2
NAME
 70
     0
  0
ATTDEF
  5
15B
330
158
100
AcDbEntity
  8
TEXT
100
AcDbText
 10
16.6768
 20
0.1811
 30
0.0
 40
0.12
  1

100
AcDbAttributeDefinition
  3
Enter Drawing Scale
  2
SCALE
 70
     0
  0
ATTDEF
  5
15C
330
158
100
AcDbEntity
  8
TEXT
100
AcDbText
 10
18.5257
 20
0.4778000000000001
 30
0.0
 40
0.12
  1

100
AcDbAttributeDefinition
  3
Enter Drawing Name
  2
NAME
 70
     0
  0
ATTDEF
  5
15D
330
158
100
AcDbEntity
  8
TEXT
100
AcDbText
 10
16.67611983004387
 20
0.4604688822214698
 30
0.0
 40
0.12
  1

100
AcDbAttributeDefinition
  3
Enter Drawing Directory
  2
DIRECTORY
 70
     0
  0
LINE
  5
15E
330
158
100
AcDbEntity
  8
TEXT
100
AcDbLine
 10
0.5
 20
14.125
 30
0.0
 11
3.0625
 21
14.125
 31
0.0
  0
LINE
  5
15F
330
158
100
AcDbEntity
  8
TEXT
100
AcDbLine
 10
3.0625
 20
14.125
 30
0.0
 11
3.0625
 21
14.625
 31
0.0
  0
CIRCLE
  5
160
330
158
100
AcDbEntity
  8
TEXT
100
AcDbCircle
 10
1.177871382375997
 20
14.36146089745938
 30
0.0
 40
0.1875
  0
CIRCLE
  5
161
330
158
100
AcDbEntity
  8
TEXT
100
AcDbCircle
 10
1.177871382375997
 20
14.36146089745938
 30
0.0
 40
0.09375
  0
LINE
  5
162
330
158
100
AcDbEntity
  8
TEXT
  6
CENTER
100
AcDbLine
 10
0.9439511930482353
 20
14.36146089745938
 30
0.0
 11
2.396621382375997
 21
14.36146089745938
 31
0.0
  0
LINE
  5
163
330
158
100
AcDbEntity
  8
TEXT
  6
CENTER
100
AcDbLine
 10
1.177871382375997
 20
14.13277903195262
 30
0.0
 11
1.177871382375997
 21
14.60065584518079
 31
0.0
  0
LINE
  5
164
330
158
100
AcDbEntity
  8
TEXT
100
AcDbLine
 10
1.646621382375997
 20
14.45521089745938
 30
0.0
 11
2.131263037562575
 21
14.54896089745938
 31
0.0
  0
LINE
  5
165
330
158
100
AcDbEntity
  8
TEXT
100
AcDbLine
 10
1.646621382375997
 20
14.26771089745938
 30
0.0
 11
2.131263037562575
 21
14.17396089745938
 31
0.0
  0
LINE
  5
166
330
158
100
AcDbEntity
  8
TEXT
100
AcDbLine
 10
1.646621382375997
 20
14.26771089745938
 30
0.0
 11
1.646621382375997
 21
14.45521089745938
 31
0.0
  0
LINE
  5
167
330
158
100
AcDbEntity
  8
TEXT
100
AcDbLine
 10
2.131263037562575
 20
14.54896089745938
 30
0.0
 11
2.131263037562575
 21
14.17396089745938
 31
0.0
  0
TEXT
  5
168
330
158
100
AcDbEntity
  8
TEXT
100
AcDbText
 10
0.6875
 20
13.93982759025163
 30
0.0
 40
0.1
  1
THIRD ANGLE PROJECTION
100
AcDbText
  0
LINE
  5
169
330
158
100
AcDbEntity
  8
TEXT
100
AcDbLine
 10
3.0625
 20
14.125
 30
0.0
 11
3.0625
 21
13.875
 31
0.0
  0
LINE
  5
16A
330
158
100
AcDbEntity
  8
TEXT
100
AcDbLine
 10
3.0625
 20
13.875
 30
0.0
 11
0.5
 21
13.875
 31
0.0
  0
TEXT
  5
16B
330
158
100
AcDbEntity
  8
TEXT
100
AcDbText
 10
15.40791980373655
 20
1.361504946102674
 30
0.0
 40
0.065
  1
  %%P 0.5%%D
  7
ADESK2
100
AcDbText
  0
TEXT
  5
16C
330
158
100
AcDbEntity
  8
TEXT
100
AcDbText
 10
15.40791980373655
 20
1.466742946102673
 30
0.0
 40
0.065
  1
ANGULAR
  7
ADESK2
100
AcDbText
  0
TEXT
  5
16D
330
158
100
AcDbEntity
  8
TEXT
100
AcDbText
 10
14.61466004183179
 20
1.153743946102673
 30
0.0
 40
0.065
  1
DO NOT SCALE DRAWING
  7
ADESK2
 72
     1
 11
15.22906480373655
 21
1.153743946102673
 31
0.0
100
AcDbText
  0
TEXT
  5
16E
330
158
100
AcDbEntity
  8
TEXT
100
AcDbText
 10
14.54402280373655
 20
1.256266946102674
 30
0.0
 40
0.065
  1
.XXX %%P .005
  7
ADESK2
100
AcDbText
  0
TEXT
  5
16F
330
158
100
AcDbEntity
  8
TEXT
100
AcDbText
 10
14.54402280373655
 20
1.361504946102674
 30
0.0
 40
0.065
  1
.XX  %%P .05
  7
ADESK2
100
AcDbText
  0
TEXT
  5
170
330
158
100
AcDbEntity
  8
TEXT
100
AcDbText
 10
14.54402280373655
 20
1.466742946102673
 30
0.0
 40
0.065
  1
DECIMALS
  7
ADESK2
100
AcDbText
  0
TEXT
  5
171
330
158
100
AcDbEntity
  8
TEXT
100
AcDbText
 10
14.93037432754608
 20
1.574612946102674
 30
0.0
 40
0.065
  1
TOLERANCES
  7
ADESK2
 72
     1
 11
15.22906480373655
 21
1.574612946102674
 31
0.0
100
AcDbText
  0
TEXT
  5
172
330
158
100
AcDbEntity
  8
TEXT
100
AcDbText
 10
14.53263623230798
 20
1.679850946102674
 30
0.0
 40
0.065
  1
DIMENSIONS ARE IN INCHES
  7
ADESK2
 72
     1
 11
15.22906480373655
 21
1.679850946102674
 31
0.0
100
AcDbText
  0
TEXT
  5
173
330
158
100
AcDbEntity
  8
TEXT
100
AcDbText
 10
14.45835051802227
 20
1.785088946102673
 30
0.0
 40
0.065
  1
UNLESS OTHERWISE SPECIFIED:
  7
ADESK2
 72
     1
 11
15.22906480373655
 21
1.785088946102673
 31
0.0
100
AcDbText
  0
TEXT
  5
174
330
158
100
AcDbEntity
  8
BORDER
100
AcDbText
 10
16.91660791890448
 20
1.575566135628289
 30
0.0
 40
0.15
  1
HIGH ENERGY PHYSICS
100
AcDbText
  0
LINE
  5
175
330
158
100
AcDbEntity
  8
BORDER
100
AcDbLine
 10
0.5
 20
14.625
 30
0.0
 11
20.5
 21
14.625
 31
0.0
  0
TEXT
  5
176
330
158
100
AcDbEntity
  8
TEXT
100
AcDbText
 10
16.68013672017864
 20
0.6653543307085397
 30
0.0
 40
0.075
  1
DIRECTORY
100
AcDbText
  0
TEXT
  5
177
330
158
100
AcDbEntity
  8
BORDER
100
AcDbText
 10
16.36770410286771
 20
0.4519624000487056
 30
0.0
 40
0.15
  1
C
100
AcDbText
  0
LINE
  5
178
330
158
100
AcDbEntity
  8
BORDER
100
AcDbLine
 10
0.5
 20
0.125
 30
0.0
 11
20.5
 21
0.125
 31
0.0
  0
LINE
  5
179
330
158
100
AcDbEntity
  8
BORDER
100
AcDbLine
 10
0.5
 20
14.625
 30
0.0
 11
0.5
 21
0.125
 31
0.0
  0
LINE
  5
17A
330
158
100
AcDbEntity
  8
BORDER
100
AcDbLine
 10
20.5
 20
0.125
 30
0.0
 11
20.5
 21
14.625
 31
0.0
  0
LINE
  5
17B
330
158
100
AcDbEntity
  8
BORDER
100
AcDbLine
 10
14.22802457150521
 20
2.324146981627205
 30
0.0
 11
20.5008624282001
 21
2.324146981627205
 31
0.0
  0
TEXT
  5
17C
330
158
100
AcDbEntity
  8
BORDER
100
AcDbText
 10
14.40702930573621
 20
2.049227858145542
 30
0.0
 40
0.15
  1
UNIVERSITY OF CALIFORNIA @ SANTA BARBARA
100
AcDbText
  0
TEXT
  5
17D
330
158
100
AcDbEntity
  8
TEXT
100
AcDbText
 10
14.29737480373655
 20
0.9799639461026732
 30
0.0
 40
0.065
  1
DRAWN
  7
ADESK2
100
AcDbText
  0
LINE
  5
17E
330
158
100
AcDbEntity
  8
BORDER
100
AcDbLine
 10
14.22906480373655
 20
0.125
 30
0.0
 11
14.22906480373655
 21
2.324146981627205
 31
0.0
  0
LINE
  5
17F
330
158
100
AcDbEntity
  8
BORDER
100
AcDbLine
 10
14.22906480373655
 20
1.901500946102673
 30
0.0
 11
20.50086242820011
 21
1.901500946102673
 31
0.0
  0
LINE
  5
180
330
158
100
AcDbEntity
  8
TEXT
100
AcDbLine
 10
14.22906480373655
 20
0.4665009461026735
 30
0.0
 11
16.22906480373655
 21
0.4665009461026735
 31
0.0
  0
LINE
  5
181
330
158
100
AcDbEntity
  8
TEXT
100
AcDbLine
 10
14.22906480373655
 20
0.781500946102673
 30
0.0
 11
20.50086242820011
 21
0.781500946102673
 31
0.0
  0
LINE
  5
182
330
158
100
AcDbEntity
  8
TEXT
100
AcDbLine
 10
16.22906480373655
 20
0.401500946102674
 30
0.0
 11
20.50086242820011
 21
0.401500946102674
 31
0.0
  0
LINE
  5
183
330
158
100
AcDbEntity
  8
BORDER
100
AcDbLine
 10
16.22906480373655
 20
1.401500946102673
 30
0.0
 11
20.50086242820011
 21
1.401500946102673
 31
0.0
  0
LINE
  5
184
330
158
100
AcDbEntity
  8
BORDER
100
AcDbLine
 10
16.22906480373655
 20
0.125
 30
0.0
 11
16.22906480373655
 21
1.901500946102673
 31
0.0
  0
LINE
  5
185
330
158
100
AcDbEntity
  8
TEXT
100
AcDbLine
 10
17.22906480373656
 20
0.125
 30
0.0
 11
17.22906480373656
 21
0.401500946102674
 31
0.0
  0
LINE
  5
186
330
158
100
AcDbEntity
  8
TEXT
100
AcDbLine
 10
18.72906480373655
 20
0.125
 30
0.0
 11
18.72906480373655
 21
0.401500946102674
 31
0.0
  0
LINE
  5
187
330
158
100
AcDbEntity
  8
TEXT
100
AcDbLine
 10
16.60906480373655
 20
0.401500946102674
 30
0.0
 11
16.60906480373655
 21
0.781500946102673
 31
0.0
  0
LINE
  5
188
330
158
100
AcDbEntity
  8
TEXT
100
AcDbLine
 10
17.72906480373656
 20
0.401500946102674
 30
0.0
 11
17.72906480373656
 21
0.781500946102673
 31
0.0
  0
LINE
  5
189
330
158
100
AcDbEntity
  8
TEXT
100
AcDbLine
 10
20.09906480373655
 20
0.401500946102674
 30
0.0
 11
20.09906480373655
 21
0.781500946102673
 31
0.0
  0
TEXT
  5
18A
330
158
100
AcDbEntity
  8
TEXT
100
AcDbText
 10
16.28136480373655
 20
0.2440009461026733
 30
0.0
 40
0.065
  1
SCALE
  7
ADESK2
100
AcDbText
  0
TEXT
  5
18B
330
158
100
AcDbEntity
  8
TEXT
100
AcDbText
 10
18.78186480373655
 20
0.2440009461026733
 30
0.0
 40
0.065
  1
SHEET
  7
ADESK2
100
AcDbText
  0
TEXT
  5
18C
330
158
100
AcDbEntity
  8
TEXT
100
AcDbText
 10
16.31696480373655
 20
0.6674009461026725
 30
0.0
 40
0.065
  1
SIZE
  7
ADESK2
100
AcDbText
  0
TEXT
  5
18D
330
158
100
AcDbEntity
  8
TEXT
100
AcDbText
 10
17.80006480373655
 20
0.6674009461026725
 30
0.0
 40
0.065
  1
DWG NO.
  7
ADESK2
100
AcDbText
  0
TEXT
  5
18E
330
158
100
AcDbEntity
  8
TEXT
100
AcDbText
 10
20.17956480373655
 20
0.6674009461026725
 30
0.0
 40
0.065
  1
REV
  7
ADESK2
100
AcDbText
  0
LINE
  5
18F
330
158
100
AcDbEntity
  8
TEXT
100
AcDbLine
 10
15.44569368889233
 20
14.2687954598962
 30
0.0
 11
20.5
 21
14.26879545989621
 31
0.0
  0
LINE
  5
190
330
158
100
AcDbEntity
  8
TEXT
100
AcDbLine
 10
15.44569368889233
 20
14.0187954598962
 30
0.0
 11
20.5
 21
14.0187954598962
 31
0.0
  0
LINE
  5
191
330
158
100
AcDbEntity
  8
TEXT
100
AcDbLine
 10
15.44569368889233
 20
14.57885940600617
 30
0.0
 11
15.44569368889233
 21
14.0187954598962
 31
0.0
  0
LINE
  5
192
330
158
100
AcDbEntity
  8
TEXT
100
AcDbLine
 10
15.83594611112369
 20
14.0187954598962
 30
0.0
 11
15.83594611112369
 21
14.2687954598962
 31
0.0
  0
LINE
  5
193
330
158
100
AcDbEntity
  8
TEXT
100
AcDbLine
 10
18.57594611112369
 20
14.0187954598962
 30
0.0
 11
18.57594611112369
 21
14.2687954598962
 31
0.0
  0
LINE
  5
194
330
158
100
AcDbEntity
  8
TEXT
100
AcDbLine
 10
19.45594611112369
 20
14.0187954598962
 30
0.0
 11
19.45594611112369
 21
14.2687954598962
 31
0.0
  0
TEXT
  5
195
330
158
100
AcDbEntity
  8
TEXT
100
AcDbText
 10
17.66614611112369
 20
14.3512954598962
 30
0.0
 40
0.065
  1
REVISIONS
  7
ADESK2
100
AcDbText
  0
TEXT
  5
196
330
158
100
AcDbEntity
  8
TEXT
100
AcDbText
 10
15.53604611112369
 20
14.1090954598962
 30
0.0
 40
0.065
  1
REV
  7
ADESK2
100
AcDbText
  0
TEXT
  5
197
330
158
100
AcDbEntity
  8
TEXT
100
AcDbText
 10
16.83794611112369
 20
14.1090954598962
 30
0.0
 40
0.065
  1
DESCRIPTION
  7
ADESK2
100
AcDbText
  0
TEXT
  5
198
330
158
100
AcDbEntity
  8
TEXT
100
AcDbText
 10
18.90364611112369
 20
14.1090954598962
 30
0.0
 40
0.065
  1
DATE
  7
ADESK2
100
AcDbText
  0
TEXT
  5
199
330
158
100
AcDbEntity
  8
TEXT
100
AcDbText
 10
19.69734611112369
 20
14.1090954598962
 30
0.0
 40
0.065
  1
APPROVED
  7
ADESK2
100
AcDbText
  0
LINE
  5
19A
330
158
100
AcDbEntity
  8
TEXT
100
AcDbLine
 10
14.22906480373655
 20
1.091500946102673
 30
0.0
 11
16.22906480373655
 21
1.091500946102673
 31
0.0
  0
TEXT
  5
19B
330
158
100
AcDbEntity
  8
TEXT
100
AcDbText
 10
14.30906480373655
 20
0.6715009461026736
 30
0.0
 40
0.065
  1
CHECKED
  7
ADESK2
100
AcDbText
  0
TEXT
  5
19C
330
158
100
AcDbEntity
  8
TEXT
100
AcDbText
 10
14.30906480373655
 20
0.3565009461026722
 30
0.0
 40
0.065
  1
DESIGN
  7
ADESK2
100
AcDbText
  0
LINE
  5
19D
330
158
100
AcDbEntity
  8
TEXT
100
AcDbLine
 10
15.72904880373655
 20
1.091500946102673
 30
0.0
 11
15.72904880373655
 21
0.125
 31
0.0
  0
TEXT
  5
19E
330
158
100
AcDbEntity
  8
TEXT
100
AcDbText
 10
15.85246780373655
 20
0.9749509461026732
 30
0.0
 40
0.065
  1
DATE
  7
ADESK2
100
AcDbText
  0
TEXT
  5
19F
330
158
100
AcDbEntity
  8
TEXT
100
AcDbText
 10
19.61203580373655
 20
0.2443769461026726
 30
0.0
 40
0.065
  1
OF
  7
ADESK2
100
AcDbText
  0
ENDBLK
  5
1A1
330
158
100
AcDbEntity
  8
0
100
AcDbBlockEnd
  0
BLOCK
  5
1CE
330
1CD
100
AcDbEntity
  8
0
100
AcDbBlockBegin
  2
C-BORE-#10
 70
     0
 10
0.0
 20
0.0
 30
0.0
  3
C-BORE-#10
  1

  0
CIRCLE
  5
1D0
330
1CD
100
AcDbEntity
  8
handle
100
AcDbCircle
 10
0.0
 20
0.0
 30
0.0
 40
0.1875
  0
LINE
  5
1D1
330
1CD
100
AcDbEntity
  8
CENTER
100
AcDbLine
 10
0.0
 20
-0.25
 30
0.0
 11
0.0
 21
0.25
 31
0.0
  0
LINE
  5
1D2
330
1CD
100
AcDbEntity
  8
CENTER
100
AcDbLine
 10
-0.25
 20
0.0
 30
0.0
 11
0.25
 21
0.0
 31
0.0
  0
CIRCLE
  5
1D3
330
1CD
100
AcDbEntity
  8
handle
100
AcDbCircle
 10
0.0
 20
0.0
 30
0.0
 40
0.1105
  0
ENDBLK
  5
1CF
330
1CD
100
AcDbEntity
  8
0
100
AcDbBlockEnd
  0
BLOCK
  5
1E3
330
1D8
100
AcDbEntity
  8
0
100
AcDbBlockBegin
  2
*D4
 70
     1
 10
0.0
 20
0.0
 30
0.0
  3
*D4
  1

  0
LINE
  5
1D9
330
1D8
100
AcDbEntity
  8
DIM
 62
     0
370
    -2
100
AcDbLine
 10
4.0
 20
10.6875
 30
0.0
 11
4.0
 21
11.3449325486436
 31
0.0
  0
LINE
  5
1DA
330
1D8
100
AcDbEntity
  8
DIM
 62
     0
370
    -2
100
AcDbLine
 10
3.5
 20
10.8125
 30
0.0
 11
3.5
 21
11.3449325486436
 31
0.0
  0
LINE
  5
1DB
330
1D8
100
AcDbEntity
  8
DIM
 62
     0
370
    -2
100
AcDbLine
 10
4.179999999999999
 20
11.1649325486436
 30
0.0
 11
4.36
 21
11.1649325486436
 31
0.0
  0
LINE
  5
1DC
330
1D8
100
AcDbEntity
  8
DIM
 62
     0
370
    -2
100
AcDbLine
 10
3.319999999999999
 20
11.1649325486436
 30
0.0
 11
3.14
 21
11.1649325486436
 31
0.0
  0
SOLID
  5
1DD
330
1D8
100
AcDbEntity
  8
DIM
 62
     0
100
AcDbTrace
 10
4.179999999999999
 20
11.1949325486436
 30
0.0
 11
4.179999999999999
 21
11.1349325486436
 31
0.0
 12
4.0
 22
11.1649325486436
 32
0.0
 13
4.0
 23
11.1649325486436
 33
0.0
  0
SOLID
  5
1DE
330
1D8
100
AcDbEntity
  8
DIM
 62
     0
100
AcDbTrace
 10
3.319999999999999
 20
11.1949325486436
 30
0.0
 11
3.319999999999999
 21
11.1349325486436
 31
0.0
 12
3.5
 22
11.1649325486436
 32
0.0
 13
3.5
 23
11.1649325486436
 33
0.0
  0
MTEXT
  5
1DF
330
1D8
100
AcDbEntity
  8
DIM
 62
     0
100
AcDbMText
 10
2.735
 20
11.1649325486436
 30
0.0
 40
0.18
 41
0.0
 71
     5
 72
     1
  1
\A1;0.500
 73
     1
 44
1.0
  0
POINT
  5
1E0
330
1D8
100
AcDbEntity
  8
Defpoints
 62
     0
100
AcDbPoint
 10
4.0
 20
10.625
 30
0.0
  0
POINT
  5
1E1
330
1D8
100
AcDbEntity
  8
Defpoints
 62
     0
100
AcDbPoint
 10
3.5
 20
10.74999999999999
 30
0.0
  0
POINT
  5
1E2
330
1D8
100
AcDbEntity
  8
Defpoints
 62
     0
100
AcDbPoint
 10
3.5
 20
11.1649325486436
 30
0.0
  0
ENDBLK
  5
1E4
330
1D8
100
AcDbEntity
  8
0
100
AcDbBlockEnd
  0
BLOCK
  5
1F1
330
1E6
100
AcDbEntity
  8
0
100
AcDbBlockBegin
  2
*D5
 70
     1
 10
0.0
 20
0.0
 30
0.0
  3
*D5
  1

  0
LINE
  5
1E7
330
1E6
100
AcDbEntity
  8
DIM
 62
     0
370
    -2
100
AcDbLine
 10
12.49999999999999
 20
10.6875
 30
0.0
 11
12.49999999999999
 21
11.77456227951233
 31
0.0
  0
LINE
  5
1E8
330
1E6
100
AcDbEntity
  8
DIM
 62
     0
370
    -2
100
AcDbLine
 10
3.5
 20
10.8125
 30
0.0
 11
3.5
 21
11.77456227951233
 31
0.0
  0
LINE
  5
1E9
330
1E6
100
AcDbEntity
  8
DIM
 62
     0
370
    -2
100
AcDbLine
 10
12.31999999999999
 20
11.59456227951233
 30
0.0
 11
8.404999999999997
 21
11.59456227951233
 31
0.0
  0
LINE
  5
1EA
330
1E6
100
AcDbEntity
  8
DIM
 62
     0
370
    -2
100
AcDbLine
 10
3.68
 20
11.59456227951233
 30
0.0
 11
7.594999999999997
 21
11.59456227951233
 31
0.0
  0
SOLID
  5
1EB
330
1E6
100
AcDbEntity
  8
DIM
 62
     0
100
AcDbTrace
 10
12.31999999999999
 20
11.62456227951233
 30
0.0
 11
12.31999999999999
 21
11.56456227951233
 31
0.0
 12
12.49999999999999
 22
11.59456227951233
 32
0.0
 13
12.49999999999999
 23
11.59456227951233
 33
0.0
  0
SOLID
  5
1EC
330
1E6
100
AcDbEntity
  8
DIM
 62
     0
100
AcDbTrace
 10
3.68
 20
11.62456227951233
 30
0.0
 11
3.68
 21
11.56456227951233
 31
0.0
 12
3.5
 22
11.59456227951233
 32
0.0
 13
3.5
 23
11.59456227951233
 33
0.0
  0
MTEXT
  5
1ED
330
1E6
100
AcDbEntity
  8
DIM
 62
     0
100
AcDbMText
 10
7.999999999999998
 20
11.59456227951233
 30
0.0
 40
0.18
 41
0.0
 71
     5
 72
     1
  1
\A1;9.000
 73
     1
 44
1.0
  0
POINT
  5
1EE
330
1E6
100
AcDbEntity
  8
Defpoints
 62
     0
100
AcDbPoint
 10
12.49999999999999
 20
10.625
 30
0.0
  0
POINT
  5
1EF
330
1E6
100
AcDbEntity
  8
Defpoints
 62
     0
100
AcDbPoint
 10
3.5
 20
10.74999999999999
 30
0.0
  0
POINT
  5
1F0
330
1E6
100
AcDbEntity
  8
Defpoints
 62
     0
100
AcDbPoint
 10
3.5
 20
11.59456227951233
 30
0.0
  0
ENDBLK
  5
1F2
330
1E6
100
AcDbEntity
  8
0
100
AcDbBlockEnd
  0
BLOCK
  5
1FF
330
1F4
100
AcDbEntity
  8
0
100
AcDbBlockBegin
  2
*D6
 70
     1
 10
0.0
 20
0.0
 30
0.0
  3
*D6
  1

  0
LINE
  5
1F5
330
1F4
100
AcDbEntity
  8
DIM
 62
     0
370
    -2
100
AcDbLine
 10
12.99999999999999
 20
10.8125
 30
0.0
 11
12.99999999999999
 21
12.25022374263571
 31
0.0
  0
LINE
  5
1F6
330
1F4
100
AcDbEntity
  8
DIM
 62
     0
370
    -2
100
AcDbLine
 10
3.5
 20
10.8125
 30
0.0
 11
3.5
 21
12.25022374263571
 31
0.0
  0
LINE
  5
1F7
330
1F4
100
AcDbEntity
  8
DIM
 62
     0
370
    -2
100
AcDbLine
 10
12.81999999999999
 20
12.07022374263571
 30
0.0
 11
8.669999999999998
 21
12.07022374263571
 31
0.0
  0
LINE
  5
1F8
330
1F4
100
AcDbEntity
  8
DIM
 62
     0
370
    -2
100
AcDbLine
 10
3.68
 20
12.07022374263571
 30
0.0
 11
7.829999999999998
 21
12.07022374263571
 31
0.0
  0
SOLID
  5
1F9
330
1F4
100
AcDbEntity
  8
DIM
 62
     0
100
AcDbTrace
 10
12.81999999999999
 20
12.10022374263571
 30
0.0
 11
12.81999999999999
 21
12.04022374263572
 31
0.0
 12
12.99999999999999
 22
12.07022374263571
 32
0.0
 13
12.99999999999999
 23
12.07022374263571
 33
0.0
  0
SOLID
  5
1FA
330
1F4
100
AcDbEntity
  8
DIM
 62
     0
100
AcDbTrace
 10
3.68
 20
12.10022374263571
 30
0.0
 11
3.68
 21
12.04022374263572
 31
0.0
 12
3.5
 22
12.07022374263571
 32
0.0
 13
3.5
 23
12.07022374263571
 33
0.0
  0
MTEXT
  5
1FB
330
1F4
100
AcDbEntity
  8
DIM
 62
     0
100
AcDbMText
 10
8.249999999999998
 20
12.07022374263571
 30
0.0
 40
0.18
 41
0.0
 71
     5
 72
     1
  1
\A1;9.500
 73
     1
 44
1.0
  0
POINT
  5
1FC
330
1F4
100
AcDbEntity
  8
Defpoints
 62
     0
100
AcDbPoint
 10
12.99999999999999
 20
10.74999999999999
 30
0.0
  0
POINT
  5
1FD
330
1F4
100
AcDbEntity
  8
Defpoints
 62
     0
100
AcDbPoint
 10
3.5
 20
10.74999999999999
 30
0.0
  0
POINT
  5
1FE
330
1F4
100
AcDbEntity
  8
Defpoints
 62
     0
100
AcDbPoint
 10
3.5
 20
12.07022374263571
 30
0.0
  0
ENDBLK
  5
200
330
1F4
100
AcDbEntity
  8
0
100
AcDbBlockEnd
  0
BLOCK
  5
21D
330
211
100
AcDbEntity
  8
0
100
AcDbBlockBegin
  2
*D7
 70
     1
 10
0.0
 20
0.0
 30
0.0
  3
*D7
  1

  0
LINE
  5
2AC
330
211
100
AcDbEntity
  8
DIM
 62
     0
370
    -2
100
AcDbLine
 10
13.06249999999999
 20
10.625
 30
0.0
 11
13.6941751733059
 21
10.625
 31
0.0
  0
LINE
  5
2AD
330
211
100
AcDbEntity
  8
DIM
 62
     0
370
    -2
100
AcDbLine
 10
13.06249999999999
 20
10.74999999999999
 30
0.0
 11
13.6941751733059
 21
10.74999999999999
 31
0.0
  0
LINE
  5
2AE
330
211
100
AcDbEntity
  8
DIM
 62
     0
370
    -2
100
AcDbLine
 10
13.5141751733059
 20
10.44499999999999
 30
0.0
 11
13.5141751733059
 21
10.265
 31
0.0
  0
LINE
  5
2AF
330
211
100
AcDbEntity
  8
DIM
 62
     0
370
    -2
100
AcDbLine
 10
13.5141751733059
 20
10.92999999999999
 30
0.0
 11
13.5141751733059
 21
11.10999999999999
 31
0.0
  0
LINE
  5
2B0
330
211
100
AcDbEntity
  8
DIM
 62
     0
370
    -2
100
AcDbLine
 10
13.5141751733059
 20
11.10999999999999
 30
0.0
 11
13.6941751733059
 21
11.10999999999999
 31
0.0
  0
SOLID
  5
2B1
330
211
100
AcDbEntity
  8
DIM
 62
     0
100
AcDbTrace
 10
13.4841751733059
 20
10.44499999999999
 30
0.0
 11
13.5441751733059
 21
10.44499999999999
 31
0.0
 12
13.5141751733059
 22
10.625
 32
0.0
 13
13.5141751733059
 23
10.625
 33
0.0
  0
SOLID
  5
2B2
330
211
100
AcDbEntity
  8
DIM
 62
     0
100
AcDbTrace
 10
13.4841751733059
 20
10.92999999999999
 30
0.0
 11
13.5441751733059
 21
10.92999999999999
 31
0.0
 12
13.5141751733059
 22
10.74999999999999
 32
0.0
 13
13.5141751733059
 23
10.74999999999999
 33
0.0
  0
MTEXT
  5
2B3
330
211
100
AcDbEntity
  8
DIM
 62
     0
100
AcDbMText
 10
14.0991751733059
 20
11.11
 30
0.0
 40
0.18
 41
0.0
 71
     5
 72
     1
  1
\A1;0.125
 73
     1
 44
1.0
  0
POINT
  5
2B4
330
211
100
AcDbEntity
  8
Defpoints
 62
     0
100
AcDbPoint
 10
12.99999999999999
 20
10.625
 30
0.0
  0
POINT
  5
2B5
330
211
100
AcDbEntity
  8
Defpoints
 62
     0
100
AcDbPoint
 10
12.99999999999999
 20
10.74999999999999
 30
0.0
  0
POINT
  5
2B6
330
211
100
AcDbEntity
  8
Defpoints
 62
     0
100
AcDbPoint
 10
13.5141751733059
 20
10.74999999999999
 30
0.0
  0
ENDBLK
  5
21E
330
211
100
AcDbEntity
  8
0
100
AcDbBlockEnd
  0
BLOCK
  5
22B
330
220
100
AcDbEntity
  8
0
100
AcDbBlockBegin
  2
*D8
 70
     1
 10
0.0
 20
0.0
 30
0.0
  3
*D8
  1

  0
LINE
  5
3A1
330
220
100
AcDbEntity
  8
DIM
 62
     0
370
    -2
100
AcDbLine
 10
13.0625
 20
3.999999999999999
 30
0.0
 11
15.87587253638245
 21
3.999999999999999
 31
0.0
  0
LINE
  5
3A2
330
220
100
AcDbEntity
  8
DIM
 62
     0
370
    -2
100
AcDbLine
 10
11.5625
 20
5.5
 30
0.0
 11
15.87587253638245
 21
5.499999999999999
 31
0.0
  0
LINE
  5
3A3
330
220
100
AcDbEntity
  8
DIM
 62
     0
370
    -2
100
AcDbLine
 10
15.69587253638245
 20
4.179999999999998
 30
0.0
 11
15.69587253638245
 21
4.569999999999999
 31
0.0
  0
LINE
  5
3A4
330
220
100
AcDbEntity
  8
DIM
 62
     0
370
    -2
100
AcDbLine
 10
15.69587253638245
 20
5.319999999999999
 30
0.0
 11
15.69587253638245
 21
4.929999999999998
 31
0.0
  0
SOLID
  5
3A5
330
220
100
AcDbEntity
  8
DIM
 62
     0
100
AcDbTrace
 10
15.66587253638245
 20
4.179999999999998
 30
0.0
 11
15.72587253638245
 21
4.179999999999998
 31
0.0
 12
15.69587253638245
 22
3.999999999999999
 32
0.0
 13
15.69587253638245
 23
3.999999999999999
 33
0.0
  0
SOLID
  5
3A6
330
220
100
AcDbEntity
  8
DIM
 62
     0
100
AcDbTrace
 10
15.66587253638245
 20
5.319999999999999
 30
0.0
 11
15.72587253638245
 21
5.319999999999999
 31
0.0
 12
15.69587253638245
 22
5.499999999999999
 32
0.0
 13
15.69587253638245
 23
5.499999999999999
 33
0.0
  0
MTEXT
  5
3A7
330
220
100
AcDbEntity
  8
DIM
 62
     0
100
AcDbMText
 10
15.69587253638245
 20
4.750000000000001
 30
0.0
 40
0.18
 41
0.0
 71
     5
 72
     1
  1
\A1;1.500
 73
     1
 44
1.0
  0
POINT
  5
3A8
330
220
100
AcDbEntity
  8
Defpoints
 62
     0
100
AcDbPoint
 10
13.0
 20
4.0
 30
0.0
  0
POINT
  5
3A9
330
220
100
AcDbEntity
  8
Defpoints
 62
     0
100
AcDbPoint
 10
11.5
 20
5.5
 30
0.0
  0
POINT
  5
3AA
330
220
100
AcDbEntity
  8
Defpoints
 62
     0
100
AcDbPoint
 10
15.69587253638245
 20
5.499999999999999
 30
0.0
  0
ENDBLK
  5
22C
330
220
100
AcDbEntity
  8
0
100
AcDbBlockEnd
  0
BLOCK
  5
239
330
22E
100
AcDbEntity
  8
0
100
AcDbBlockBegin
  2
*D9
 70
     1
 10
0.0
 20
0.0
 30
0.0
  3
*D9
  1

  0
LINE
  5
397
330
22E
100
AcDbEntity
  8
DIM
 62
     0
370
    -2
100
AcDbLine
 10
13.0625
 20
3.999999999999999
 30
0.0
 11
16.76225626061427
 21
3.999999999999999
 31
0.0
  0
LINE
  5
398
330
22E
100
AcDbEntity
  8
DIM
 62
     0
370
    -2
100
AcDbLine
 10
12.5625
 20
6.499999999999979
 30
0.0
 11
16.76225626061427
 21
6.499999999999978
 31
0.0
  0
LINE
  5
399
330
22E
100
AcDbEntity
  8
DIM
 62
     0
370
    -2
100
AcDbLine
 10
16.58225626061427
 20
4.179999999999998
 30
0.0
 11
16.58225626061427
 21
5.069999999999989
 31
0.0
  0
LINE
  5
39A
330
22E
100
AcDbEntity
  8
DIM
 62
     0
370
    -2
100
AcDbLine
 10
16.58225626061427
 20
6.319999999999978
 30
0.0
 11
16.58225626061427
 21
5.429999999999989
 31
0.0
  0
SOLID
  5
39B
330
22E
100
AcDbEntity
  8
DIM
 62
     0
100
AcDbTrace
 10
16.55225626061427
 20
4.179999999999998
 30
0.0
 11
16.61225626061427
 21
4.179999999999998
 31
0.0
 12
16.58225626061427
 22
3.999999999999999
 32
0.0
 13
16.58225626061427
 23
3.999999999999999
 33
0.0
  0
SOLID
  5
39C
330
22E
100
AcDbEntity
  8
DIM
 62
     0
100
AcDbTrace
 10
16.55225626061427
 20
6.319999999999978
 30
0.0
 11
16.61225626061427
 21
6.319999999999978
 31
0.0
 12
16.58225626061427
 22
6.499999999999978
 32
0.0
 13
16.58225626061427
 23
6.499999999999978
 33
0.0
  0
MTEXT
  5
39D
330
22E
100
AcDbEntity
  8
DIM
 62
     0
100
AcDbMText
 10
16.58225626061427
 20
5.249999999999992
 30
0.0
 40
0.18
 41
0.0
 71
     5
 72
     1
  1
\A1;2.500
 73
     1
 44
1.0
  0
POINT
  5
39E
330
22E
100
AcDbEntity
  8
Defpoints
 62
     0
100
AcDbPoint
 10
13.0
 20
4.0
 30
0.0
  0
POINT
  5
39F
330
22E
100
AcDbEntity
  8
Defpoints
 62
     0
100
AcDbPoint
 10
12.5
 20
6.499999999999979
 30
0.0
  0
POINT
  5
3A0
330
22E
100
AcDbEntity
  8
Defpoints
 62
     0
100
AcDbPoint
 10
16.58225626061427
 20
6.499999999999978
 30
0.0
  0
ENDBLK
  5
23A
330
22E
100
AcDbEntity
  8
0
100
AcDbBlockEnd
  0
BLOCK
  5
247
330
23C
100
AcDbEntity
  8
0
100
AcDbBlockBegin
  2
*D10
 70
     1
 10
0.0
 20
0.0
 30
0.0
  3
*D10
  1

  0
LINE
  5
35C
330
23C
100
AcDbEntity
  8
DIM
 62
     0
370
    -2
100
AcDbLine
 10
4.5
 20
3.9375
 30
0.0
 11
4.5
 21
3.313156077688166
 31
0.0
  0
LINE
  5
35D
330
23C
100
AcDbEntity
  8
DIM
 62
     0
370
    -2
100
AcDbLine
 10
3.5
 20
3.9375
 30
0.0
 11
3.5
 21
3.313156077688166
 31
0.0
  0
LINE
  5
35E
330
23C
100
AcDbEntity
  8
DIM
 62
     0
370
    -2
100
AcDbLine
 10
4.679999999999999
 20
3.493156077688166
 30
0.0
 11
4.86
 21
3.493156077688166
 31
0.0
  0
LINE
  5
35F
330
23C
100
AcDbEntity
  8
DIM
 62
     0
370
    -2
100
AcDbLine
 10
3.319999999999999
 20
3.493156077688166
 30
0.0
 11
3.14
 21
3.493156077688166
 31
0.0
  0
SOLID
  5
360
330
23C
100
AcDbEntity
  8
DIM
 62
     0
100
AcDbTrace
 10
4.679999999999999
 20
3.523156077688165
 30
0.0
 11
4.679999999999999
 21
3.463156077688166
 31
0.0
 12
4.5
 22
3.493156077688166
 32
0.0
 13
4.5
 23
3.493156077688166
 33
0.0
  0
SOLID
  5
361
330
23C
100
AcDbEntity
  8
DIM
 62
     0
100
AcDbTrace
 10
3.319999999999999
 20
3.523156077688165
 30
0.0
 11
3.319999999999999
 21
3.463156077688166
 31
0.0
 12
3.5
 22
3.493156077688166
 32
0.0
 13
3.5
 23
3.493156077688166
 33
0.0
  0
MTEXT
  5
362
330
23C
100
AcDbEntity
  8
DIM
 62
     0
100
AcDbMText
 10
2.765
 20
3.493156077688166
 30
0.0
 40
0.18
 41
0.0
 71
     5
 72
     1
  1
\A1;1.000
 73
     1
 44
1.0
  0
POINT
  5
363
330
23C
100
AcDbEntity
  8
Defpoints
 62
     0
100
AcDbPoint
 10
4.5
 20
4.0
 30
0.0
  0
POINT
  5
364
330
23C
100
AcDbEntity
  8
Defpoints
 62
     0
100
AcDbPoint
 10
3.5
 20
4.0
 30
0.0
  0
POINT
  5
365
330
23C
100
AcDbEntity
  8
Defpoints
 62
     0
100
AcDbPoint
 10
3.5
 20
3.493156077688166
 30
0.0
  0
ENDBLK
  5
248
330
23C
100
AcDbEntity
  8
0
100
AcDbBlockEnd
  0
BLOCK
  5
255
330
24A
100
AcDbEntity
  8
0
100
AcDbBlockBegin
  2
*D11
 70
     1
 10
0.0
 20
0.0
 30
0.0
  3
*D11
  1

  0
LINE
  5
352
330
24A
100
AcDbEntity
  8
DIM
 62
     0
370
    -2
100
AcDbLine
 10
12.0
 20
3.9375
 30
0.0
 11
12.0
 21
2.776118931933524
 31
0.0
  0
LINE
  5
353
330
24A
100
AcDbEntity
  8
DIM
 62
     0
370
    -2
100
AcDbLine
 10
3.5
 20
3.9375
 30
0.0
 11
3.5
 21
2.776118931933524
 31
0.0
  0
LINE
  5
354
330
24A
100
AcDbEntity
  8
DIM
 62
     0
370
    -2
100
AcDbLine
 10
11.82
 20
2.956118931933524
 30
0.0
 11
8.169999999999999
 21
2.956118931933524
 31
0.0
  0
LINE
  5
355
330
24A
100
AcDbEntity
  8
DIM
 62
     0
370
    -2
100
AcDbLine
 10
3.68
 20
2.956118931933524
 30
0.0
 11
7.33
 21
2.956118931933524
 31
0.0
  0
SOLID
  5
356
330
24A
100
AcDbEntity
  8
DIM
 62
     0
100
AcDbTrace
 10
11.82
 20
2.986118931933523
 30
0.0
 11
11.82
 21
2.926118931933524
 31
0.0
 12
12.0
 22
2.956118931933524
 32
0.0
 13
12.0
 23
2.956118931933524
 33
0.0
  0
SOLID
  5
357
330
24A
100
AcDbEntity
  8
DIM
 62
     0
100
AcDbTrace
 10
3.68
 20
2.986118931933523
 30
0.0
 11
3.68
 21
2.926118931933524
 31
0.0
 12
3.5
 22
2.956118931933524
 32
0.0
 13
3.5
 23
2.956118931933524
 33
0.0
  0
MTEXT
  5
358
330
24A
100
AcDbEntity
  8
DIM
 62
     0
100
AcDbMText
 10
7.75
 20
2.956118931933524
 30
0.0
 40
0.18
 41
0.0
 71
     5
 72
     1
  1
\A1;8.500
 73
     1
 44
1.0
  0
POINT
  5
359
330
24A
100
AcDbEntity
  8
Defpoints
 62
     0
100
AcDbPoint
 10
12.0
 20
4.0
 30
0.0
  0
POINT
  5
35A
330
24A
100
AcDbEntity
  8
Defpoints
 62
     0
100
AcDbPoint
 10
3.5
 20
4.0
 30
0.0
  0
POINT
  5
35B
330
24A
100
AcDbEntity
  8
Defpoints
 62
     0
100
AcDbPoint
 10
3.5
 20
2.956118931933524
 30
0.0
  0
ENDBLK
  5
256
330
24A
100
AcDbEntity
  8
0
100
AcDbBlockEnd
  0
BLOCK
  5
261
330
258
100
AcDbEntity
  8
0
100
AcDbBlockBegin
  2
*D12
 70
     1
 10
0.0
 20
0.0
 30
0.0
  3
*D12
  1

  0
LINE
  5
263
330
258
100
AcDbEntity
  8
DIM
 62
     0
370
    -2
100
AcDbLine
 10
3.526644395360791
 20
6.488195116276909
 30
0.0
 11
3.00899302931469
 21
7.022074648622175
 31
0.0
  0
LINE
  5
264
330
258
100
AcDbEntity
  8
DIM
 62
     0
370
    -2
100
AcDbLine
 10
3.00899302931469
 20
7.022074648622175
 30
0.0
 11
2.828993029314689
 21
7.022074648622175
 31
0.0
  0
SOLID
  5
265
330
258
100
AcDbEntity
  8
DIM
 62
     0
100
AcDbTrace
 10
3.548182415196539
 20
6.509078451775697
 30
0.0
 11
3.505106375525043
 21
6.467311780778119
 31
0.0
 12
3.651944408353522
 22
6.358966997262426
 32
0.0
 13
3.651944408353522
 23
6.358966997262426
 33
0.0
  0
MTEXT
  5
266
330
258
100
AcDbEntity
  8
DIM
 62
     0
100
AcDbMText
 10
2.333993029314689
 20
7.022074648622175
 30
0.0
 40
0.18
 41
0.0
 71
     5
 72
     1
  1
\A1;R0.500\P4X
 73
     1
 44
1.0
  0
LINE
  5
267
330
258
100
AcDbEntity
  8
DIM
 62
     0
370
    -2
100
AcDbLine
 10
3.909999999999998
 20
5.999999999999974
 30
0.0
 11
4.089999999999998
 21
5.999999999999973
 31
0.0
  0
LINE
  5
268
330
258
100
AcDbEntity
  8
DIM
 62
     0
370
    -2
100
AcDbLine
 10
4.0
 20
5.909999999999974
 30
0.0
 11
3.999999999999999
 21
6.089999999999974
 31
0.0
  0
POINT
  5
269
330
258
100
AcDbEntity
  8
Defpoints
 62
     0
100
AcDbPoint
 10
3.651944408353522
 20
6.358966997262426
 30
0.0
  0
POINT
  5
26A
330
258
100
AcDbEntity
  8
Defpoints
 62
     0
100
AcDbPoint
 10
3.999999999999998
 20
5.999999999999973
 30
0.0
  0
ENDBLK
  5
262
330
258
100
AcDbEntity
  8
0
100
AcDbBlockEnd
  0
BLOCK
  5
2C4
330
2B8
100
AcDbEntity
  8
0
100
AcDbBlockBegin
  2
*D13
 70
     1
 10
0.0
 20
0.0
 30
0.0
  3
*D13
  1

  0
LINE
  5
2B9
330
2B8
100
AcDbEntity
  8
DIM
 62
     0
370
    -2
100
AcDbLine
 10
12.70950051551639
 20
10.375
 30
0.0
 11
14.78349696462086
 21
10.375
 31
0.0
  0
LINE
  5
2BA
330
2B8
100
AcDbEntity
  8
DIM
 62
     0
370
    -2
100
AcDbLine
 10
13.06249999999999
 20
10.74999999999999
 30
0.0
 11
14.78349696462086
 21
10.74999999999999
 31
0.0
  0
LINE
  5
2BB
330
2B8
100
AcDbEntity
  8
DIM
 62
     0
370
    -2
100
AcDbLine
 10
14.60349696462086
 20
10.195
 30
0.0
 11
14.60349696462086
 21
10.015
 31
0.0
  0
LINE
  5
2BC
330
2B8
100
AcDbEntity
  8
DIM
 62
     0
370
    -2
100
AcDbLine
 10
14.60349696462086
 20
10.92999999999999
 30
0.0
 11
14.60349696462086
 21
11.10999999999999
 31
0.0
  0
LINE
  5
2BD
330
2B8
100
AcDbEntity
  8
DIM
 62
     0
370
    -2
100
AcDbLine
 10
14.60349696462086
 20
11.10999999999999
 30
0.0
 11
14.78349696462086
 21
11.10999999999999
 31
0.0
  0
SOLID
  5
2BE
330
2B8
100
AcDbEntity
  8
DIM
 62
     0
100
AcDbTrace
 10
14.57349696462086
 20
10.195
 30
0.0
 11
14.63349696462086
 21
10.195
 31
0.0
 12
14.60349696462086
 22
10.375
 32
0.0
 13
14.60349696462086
 23
10.375
 33
0.0
  0
SOLID
  5
2BF
330
2B8
100
AcDbEntity
  8
DIM
 62
     0
100
AcDbTrace
 10
14.57349696462086
 20
10.92999999999999
 30
0.0
 11
14.63349696462086
 21
10.92999999999999
 31
0.0
 12
14.60349696462086
 22
10.74999999999999
 32
0.0
 13
14.60349696462086
 23
10.74999999999999
 33
0.0
  0
MTEXT
  5
2C0
330
2B8
100
AcDbEntity
  8
DIM
 62
     0
100
AcDbMText
 10
15.21849696462086
 20
11.11
 30
0.0
 40
0.18
 41
0.0
 71
     5
 72
     1
  1
\A1;0.375
 73
     1
 44
1.0
  0
POINT
  5
2C1
330
2B8
100
AcDbEntity
  8
Defpoints
 62
     0
100
AcDbPoint
 10
12.64700051551639
 20
10.375
 30
0.0
  0
POINT
  5
2C2
330
2B8
100
AcDbEntity
  8
Defpoints
 62
     0
100
AcDbPoint
 10
12.99999999999999
 20
10.74999999999999
 30
0.0
  0
POINT
  5
2C3
330
2B8
100
AcDbEntity
  8
Defpoints
 62
     0
100
AcDbPoint
 10
14.60349696462086
 20
10.74999999999999
 30
0.0
  0
ENDBLK
  5
2C5
330
2B8
100
AcDbEntity
  8
0
100
AcDbBlockEnd
  0
BLOCK
  5
2D3
330
2C7
100
AcDbEntity
  8
0
100
AcDbBlockBegin
  2
*D14
 70
     1
 10
0.0
 20
0.0
 30
0.0
  3
*D14
  1

  0
LINE
  5
2C8
330
2C7
100
AcDbEntity
  8
DIM
 62
     0
370
    -2
100
AcDbLine
 10
13.06249999999999
 20
10.12499999999999
 30
0.0
 11
16.06722509022739
 21
10.12499999999999
 31
0.0
  0
LINE
  5
2C9
330
2C7
100
AcDbEntity
  8
DIM
 62
     0
370
    -2
100
AcDbLine
 10
13.06249999999999
 20
10.74999999999999
 30
0.0
 11
16.06722509022739
 21
10.74999999999999
 31
0.0
  0
LINE
  5
2CA
330
2C7
100
AcDbEntity
  8
DIM
 62
     0
370
    -2
100
AcDbLine
 10
15.88722509022739
 20
9.945
 30
0.0
 11
15.88722509022739
 21
9.765
 31
0.0
  0
LINE
  5
2CB
330
2C7
100
AcDbEntity
  8
DIM
 62
     0
370
    -2
100
AcDbLine
 10
15.88722509022739
 20
10.92999999999999
 30
0.0
 11
15.88722509022739
 21
11.10999999999999
 31
0.0
  0
LINE
  5
2CC
330
2C7
100
AcDbEntity
  8
DIM
 62
     0
370
    -2
100
AcDbLine
 10
15.88722509022739
 20
11.10999999999999
 30
0.0
 11
16.06722509022739
 21
11.10999999999999
 31
0.0
  0
SOLID
  5
2CD
330
2C7
100
AcDbEntity
  8
DIM
 62
     0
100
AcDbTrace
 10
15.85722509022739
 20
9.945
 30
0.0
 11
15.91722509022738
 21
9.945
 31
0.0
 12
15.88722509022739
 22
10.12499999999999
 32
0.0
 13
15.88722509022739
 23
10.12499999999999
 33
0.0
  0
SOLID
  5
2CE
330
2C7
100
AcDbEntity
  8
DIM
 62
     0
100
AcDbTrace
 10
15.85722509022739
 20
10.92999999999999
 30
0.0
 11
15.91722509022738
 21
10.92999999999999
 31
0.0
 12
15.88722509022739
 22
10.74999999999999
 32
0.0
 13
15.88722509022739
 23
10.74999999999999
 33
0.0
  0
MTEXT
  5
2CF
330
2C7
100
AcDbEntity
  8
DIM
 62
     0
100
AcDbMText
 10
16.50222509022738
 20
11.11
 30
0.0
 40
0.18
 41
0.0
 71
     5
 72
     1
  1
\A1;0.625
 73
     1
 44
1.0
  0
POINT
  5
2D0
330
2C7
100
AcDbEntity
  8
Defpoints
 62
     0
100
AcDbPoint
 10
12.99999999999999
 20
10.12499999999999
 30
0.0
  0
POINT
  5
2D1
330
2C7
100
AcDbEntity
  8
Defpoints
 62
     0
100
AcDbPoint
 10
12.99999999999999
 20
10.74999999999999
 30
0.0
  0
POINT
  5
2D2
330
2C7
100
AcDbEntity
  8
Defpoints
 62
     0
100
AcDbPoint
 10
15.88722509022739
 20
10.74999999999999
 30
0.0
  0
ENDBLK
  5
2D4
330
2C7
100
AcDbEntity
  8
0
100
AcDbBlockEnd
  0
BLOCK
  5
2E1
330
2D6
100
AcDbEntity
  8
0
100
AcDbBlockBegin
  2
*D15
 70
     1
 10
0.0
 20
0.0
 30
0.0
  3
*D15
  1

  0
LINE
  5
2D7
330
2D6
100
AcDbEntity
  8
DIM
 62
     0
370
    -2
100
AcDbLine
 10
4.0
 20
10.15133059369704
 30
0.0
 11
4.0
 21
9.558417033809398
 31
0.0
  0
LINE
  5
2D8
330
2D6
100
AcDbEntity
  8
DIM
 62
     0
370
    -2
100
AcDbLine
 10
3.5
 20
10.0625
 30
0.0
 11
3.5
 21
9.558417033809398
 31
0.0
  0
LINE
  5
2D9
330
2D6
100
AcDbEntity
  8
DIM
 62
     0
370
    -2
100
AcDbLine
 10
4.179999999999999
 20
9.738417033809398
 30
0.0
 11
4.36
 21
9.738417033809398
 31
0.0
  0
LINE
  5
2DA
330
2D6
100
AcDbEntity
  8
DIM
 62
     0
370
    -2
100
AcDbLine
 10
3.319999999999999
 20
9.738417033809398
 30
0.0
 11
3.14
 21
9.738417033809398
 31
0.0
  0
SOLID
  5
2DB
330
2D6
100
AcDbEntity
  8
DIM
 62
     0
100
AcDbTrace
 10
4.179999999999999
 20
9.768417033809397
 30
0.0
 11
4.179999999999999
 21
9.708417033809398
 31
0.0
 12
4.0
 22
9.738417033809398
 32
0.0
 13
4.0
 23
9.738417033809398
 33
0.0
  0
SOLID
  5
2DC
330
2D6
100
AcDbEntity
  8
DIM
 62
     0
100
AcDbTrace
 10
3.319999999999999
 20
9.768417033809397
 30
0.0
 11
3.319999999999999
 21
9.708417033809398
 31
0.0
 12
3.5
 22
9.738417033809398
 32
0.0
 13
3.5
 23
9.738417033809398
 33
0.0
  0
MTEXT
  5
2DD
330
2D6
100
AcDbEntity
  8
DIM
 62
     0
100
AcDbMText
 10
2.735
 20
9.738417033809398
 30
0.0
 40
0.18
 41
0.0
 71
     5
 72
     1
  1
\A1;0.500
 73
     1
 44
1.0
  0
POINT
  5
2DE
330
2D6
100
AcDbEntity
  8
Defpoints
 62
     0
100
AcDbPoint
 10
4.0
 20
10.21383059369704
 30
0.0
  0
POINT
  5
2DF
330
2D6
100
AcDbEntity
  8
Defpoints
 62
     0
100
AcDbPoint
 10
3.5
 20
10.12499999999999
 30
0.0
  0
POINT
  5
2E0
330
2D6
100
AcDbEntity
  8
Defpoints
 62
     0
100
AcDbPoint
 10
3.5
 20
9.738417033809398
 30
0.0
  0
ENDBLK
  5
2E2
330
2D6
100
AcDbEntity
  8
0
100
AcDbBlockEnd
  0
BLOCK
  5
2EF
330
2E4
100
AcDbEntity
  8
0
100
AcDbBlockBegin
  2
*D16
 70
     1
 10
0.0
 20
0.0
 30
0.0
  3
*D16
  1

  0
LINE
  5
2E5
330
2E4
100
AcDbEntity
  8
DIM
 62
     0
370
    -2
100
AcDbLine
 10
12.49999999999999
 20
10.15133059369704
 30
0.0
 11
12.49999999999999
 21
9.023747604940751
 31
0.0
  0
LINE
  5
2E6
330
2E4
100
AcDbEntity
  8
DIM
 62
     0
370
    -2
100
AcDbLine
 10
3.5
 20
10.0625
 30
0.0
 11
3.5
 21
9.023747604940751
 31
0.0
  0
LINE
  5
2E7
330
2E4
100
AcDbEntity
  8
DIM
 62
     0
370
    -2
100
AcDbLine
 10
12.31999999999999
 20
9.203747604940751
 30
0.0
 11
8.404999999999997
 21
9.203747604940751
 31
0.0
  0
LINE
  5
2E8
330
2E4
100
AcDbEntity
  8
DIM
 62
     0
370
    -2
100
AcDbLine
 10
3.68
 20
9.203747604940751
 30
0.0
 11
7.594999999999997
 21
9.203747604940751
 31
0.0
  0
SOLID
  5
2E9
330
2E4
100
AcDbEntity
  8
DIM
 62
     0
100
AcDbTrace
 10
12.31999999999999
 20
9.23374760494075
 30
0.0
 11
12.31999999999999
 21
9.173747604940752
 31
0.0
 12
12.49999999999999
 22
9.203747604940751
 32
0.0
 13
12.49999999999999
 23
9.203747604940751
 33
0.0
  0
SOLID
  5
2EA
330
2E4
100
AcDbEntity
  8
DIM
 62
     0
100
AcDbTrace
 10
3.68
 20
9.23374760494075
 30
0.0
 11
3.68
 21
9.173747604940752
 31
0.0
 12
3.5
 22
9.203747604940751
 32
0.0
 13
3.5
 23
9.203747604940751
 33
0.0
  0
MTEXT
  5
2EB
330
2E4
100
AcDbEntity
  8
DIM
 62
     0
100
AcDbMText
 10
7.999999999999998
 20
9.203747604940751
 30
0.0
 40
0.18
 41
0.0
 71
     5
 72
     1
  1
\A1;9.000
 73
     1
 44
1.0
  0
POINT
  5
2EC
330
2E4
100
AcDbEntity
  8
Defpoints
 62
     0
100
AcDbPoint
 10
12.49999999999999
 20
10.21383059369704
 30
0.0
  0
POINT
  5
2ED
330
2E4
100
AcDbEntity
  8
Defpoints
 62
     0
100
AcDbPoint
 10
3.5
 20
10.12499999999999
 30
0.0
  0
POINT
  5
2EE
330
2E4
100
AcDbEntity
  8
Defpoints
 62
     0
100
AcDbPoint
 10
3.5
 20
9.203747604940751
 30
0.0
  0
ENDBLK
  5
2F0
330
2E4
100
AcDbEntity
  8
0
100
AcDbBlockEnd
  0
BLOCK
  5
2FB
330
2F2
100
AcDbEntity
  8
0
100
AcDbBlockBegin
  2
*D17
 70
     1
 10
0.0
 20
0.0
 30
0.0
  3
*D17
  1

  0
LINE
  5
2FD
330
2F2
100
AcDbEntity
  8
DIM
 62
     0
370
    -2
100
AcDbLine
 10
12.61306275279748
 20
10.10740503754768
 30
0.0
 11
13.06587003942064
 21
9.035708604690709
 31
0.0
  0
LINE
  5
2FE
330
2F2
100
AcDbEntity
  8
DIM
 62
     0
370
    -2
100
AcDbLine
 10
13.06587003942064
 20
9.035708604690709
 30
0.0
 11
13.24587003942064
 21
9.035708604690711
 31
0.0
  0
SOLID
  5
2FF
330
2F2
100
AcDbEntity
  8
DIM
 62
     0
100
AcDbTrace
 10
12.64069734444488
 20
10.11908105332711
 30
0.0
 11
12.58542816115008
 21
10.09572902176825
 31
0.0
 12
12.5430066581209
 22
10.27321258743207
 32
0.0
 13
12.5430066581209
 23
10.27321258743207
 33
0.0
  0
MTEXT
  5
300
330
2F2
100
AcDbEntity
  8
DIM
 62
     0
100
AcDbMText
 10
14.19087003942064
 20
9.035708604690711
 30
0.0
 40
0.18
 41
0.0
 71
     5
 72
     1
  1
\A1;\U+22050.221 THRU\P2X
 73
     1
 44
1.0
  0
LINE
  5
301
330
2F2
100
AcDbEntity
  8
DIM
 62
     0
370
    -2
100
AcDbLine
 10
12.40999999999999
 20
10.37499999999999
 30
0.0
 11
12.58999999999999
 21
10.37499999999999
 31
0.0
  0
LINE
  5
302
330
2F2
100
AcDbEntity
  8
DIM
 62
     0
370
    -2
100
AcDbLine
 10
12.49999999999999
 20
10.28499999999999
 30
0.0
 11
12.49999999999999
 21
10.46499999999999
 31
0.0
  0
POINT
  5
303
330
2F2
100
AcDbEntity
  8
Defpoints
 62
     0
100
AcDbPoint
 10
12.5430066581209
 20
10.27321258743207
 30
0.0
  0
POINT
  5
304
330
2F2
100
AcDbEntity
  8
Defpoints
 62
     0
100
AcDbPoint
 10
12.45699334187909
 20
10.47678741256791
 30
0.0
  0
ENDBLK
  5
2FC
330
2F2
100
AcDbEntity
  8
0
100
AcDbBlockEnd
  0
BLOCK
  5
312
330
306
100
AcDbEntity
  8
0
100
AcDbBlockBegin
  2
*D18
 70
     1
 10
0.0
 20
0.0
 30
0.0
  3
*D18
  1

  0
LINE
  5
328
330
306
100
AcDbEntity
  8
DIM
 62
     0
370
    -2
100
AcDbLine
 10
13.0625
 20
4.125
 30
0.0
 11
13.85892137827313
 21
4.125
 31
0.0
  0
LINE
  5
329
330
306
100
AcDbEntity
  8
DIM
 62
     0
370
    -2
100
AcDbLine
 10
13.0625
 20
3.999999999999999
 30
0.0
 11
13.85892137827313
 21
3.999999999999999
 31
0.0
  0
LINE
  5
32A
330
306
100
AcDbEntity
  8
DIM
 62
     0
370
    -2
100
AcDbLine
 10
13.67892137827313
 20
4.304999999999999
 30
0.0
 11
13.67892137827313
 21
4.485
 31
0.0
  0
LINE
  5
32B
330
306
100
AcDbEntity
  8
DIM
 62
     0
370
    -2
100
AcDbLine
 10
13.67892137827313
 20
3.819999999999999
 30
0.0
 11
13.67892137827313
 21
3.639999999999997
 31
0.0
  0
LINE
  5
32C
330
306
100
AcDbEntity
  8
DIM
 62
     0
370
    -2
100
AcDbLine
 10
13.67892137827313
 20
3.639999999999997
 30
0.0
 11
13.49892137827313
 21
3.639999999999997
 31
0.0
  0
SOLID
  5
32D
330
306
100
AcDbEntity
  8
DIM
 62
     0
100
AcDbTrace
 10
13.64892137827313
 20
4.304999999999999
 30
0.0
 11
13.70892137827313
 21
4.304999999999999
 31
0.0
 12
13.67892137827313
 22
4.125
 32
0.0
 13
13.67892137827313
 23
4.125
 33
0.0
  0
SOLID
  5
32E
330
306
100
AcDbEntity
  8
DIM
 62
     0
100
AcDbTrace
 10
13.64892137827313
 20
3.819999999999999
 30
0.0
 11
13.70892137827313
 21
3.819999999999999
 31
0.0
 12
13.67892137827313
 22
3.999999999999999
 32
0.0
 13
13.67892137827313
 23
3.999999999999999
 33
0.0
  0
MTEXT
  5
32F
330
306
100
AcDbEntity
  8
DIM
 62
     0
100
AcDbMText
 10
13.09392137827313
 20
3.639999999999999
 30
0.0
 40
0.18
 41
0.0
 71
     5
 72
     1
  1
\A1;0.125
 73
     1
 44
1.0
  0
POINT
  5
330
330
306
100
AcDbEntity
  8
Defpoints
 62
     0
100
AcDbPoint
 10
13.0
 20
4.125
 30
0.0
  0
POINT
  5
331
330
306
100
AcDbEntity
  8
Defpoints
 62
     0
100
AcDbPoint
 10
13.0
 20
4.0
 30
0.0
  0
POINT
  5
332
330
306
100
AcDbEntity
  8
Defpoints
 62
     0
100
AcDbPoint
 10
13.67892137827313
 20
3.999999999999999
 30
0.0
  0
ENDBLK
  5
313
330
306
100
AcDbEntity
  8
0
100
AcDbBlockEnd
  0
BLOCK
  5
372
330
367
100
AcDbEntity
  8
0
100
AcDbBlockBegin
  2
*D19
 70
     1
 10
0.0
 20
0.0
 30
0.0
  3
*D19
  1

  0
LINE
  5
368
330
367
100
AcDbEntity
  8
DIM
 62
     0
370
    -2
100
AcDbLine
 10
12.5
 20
4.334581848711668
 30
0.0
 11
12.5
 21
2.160142236514317
 31
0.0
  0
LINE
  5
369
330
367
100
AcDbEntity
  8
DIM
 62
     0
370
    -2
100
AcDbLine
 10
3.5
 20
3.9375
 30
0.0
 11
3.5
 21
2.160142236514317
 31
0.0
  0
LINE
  5
36A
330
367
100
AcDbEntity
  8
DIM
 62
     0
370
    -2
100
AcDbLine
 10
12.32
 20
2.340142236514317
 30
0.0
 11
8.404999999999999
 21
2.340142236514317
 31
0.0
  0
LINE
  5
36B
330
367
100
AcDbEntity
  8
DIM
 62
     0
370
    -2
100
AcDbLine
 10
3.68
 20
2.340142236514317
 30
0.0
 11
7.594999999999999
 21
2.340142236514317
 31
0.0
  0
SOLID
  5
36C
330
367
100
AcDbEntity
  8
DIM
 62
     0
100
AcDbTrace
 10
12.32
 20
2.370142236514317
 30
0.0
 11
12.32
 21
2.310142236514317
 31
0.0
 12
12.5
 22
2.340142236514317
 32
0.0
 13
12.5
 23
2.340142236514317
 33
0.0
  0
SOLID
  5
36D
330
367
100
AcDbEntity
  8
DIM
 62
     0
100
AcDbTrace
 10
3.68
 20
2.370142236514317
 30
0.0
 11
3.68
 21
2.310142236514317
 31
0.0
 12
3.5
 22
2.340142236514317
 32
0.0
 13
3.5
 23
2.340142236514317
 33
0.0
  0
MTEXT
  5
36E
330
367
100
AcDbEntity
  8
DIM
 62
     0
100
AcDbMText
 10
8.0
 20
2.340142236514317
 30
0.0
 40
0.18
 41
0.0
 71
     5
 72
     1
  1
\A1;9.000
 73
     1
 44
1.0
  0
POINT
  5
36F
330
367
100
AcDbEntity
  8
Defpoints
 62
     0
100
AcDbPoint
 10
12.5
 20
4.397081848711668
 30
0.0
  0
POINT
  5
370
330
367
100
AcDbEntity
  8
Defpoints
 62
     0
100
AcDbPoint
 10
3.5
 20
4.0
 30
0.0
  0
POINT
  5
371
330
367
100
AcDbEntity
  8
Defpoints
 62
     0
100
AcDbPoint
 10
3.5
 20
2.340142236514317
 30
0.0
  0
ENDBLK
  5
373
330
367
100
AcDbEntity
  8
0
100
AcDbBlockEnd
  0
BLOCK
  5
395
330
389
100
AcDbEntity
  8
0
100
AcDbBlockBegin
  2
*D20
 70
     1
 10
0.0
 20
0.0
 30
0.0
  3
*D20
  1

  0
LINE
  5
38A
330
389
100
AcDbEntity
  8
DIM
 62
     0
370
    -2
100
AcDbLine
 10
12.89851195924488
 20
4.75
 30
0.0
 11
15.10344840560036
 21
4.749999999999999
 31
0.0
  0
LINE
  5
38B
330
389
100
AcDbEntity
  8
DIM
 62
     0
370
    -2
100
AcDbLine
 10
13.0625
 20
3.999999999999999
 30
0.0
 11
15.10344840560036
 21
3.999999999999999
 31
0.0
  0
LINE
  5
38C
330
389
100
AcDbEntity
  8
DIM
 62
     0
370
    -2
100
AcDbLine
 10
14.92344840560036
 20
4.929999999999998
 30
0.0
 11
14.92344840560036
 21
5.109999999999999
 31
0.0
  0
LINE
  5
38D
330
389
100
AcDbEntity
  8
DIM
 62
     0
370
    -2
100
AcDbLine
 10
14.92344840560035
 20
3.819999999999999
 30
0.0
 11
14.92344840560035
 21
3.639999999999999
 31
0.0
  0
LINE
  5
38E
330
389
100
AcDbEntity
  8
DIM
 62
     0
370
    -2
100
AcDbLine
 10
14.92344840560035
 20
3.639999999999999
 30
0.0
 11
14.74344840560036
 21
3.639999999999999
 31
0.0
  0
SOLID
  5
38F
330
389
100
AcDbEntity
  8
DIM
 62
     0
100
AcDbTrace
 10
14.89344840560036
 20
4.929999999999998
 30
0.0
 11
14.95344840560036
 21
4.929999999999998
 31
0.0
 12
14.92344840560036
 22
4.749999999999999
 32
0.0
 13
14.92344840560036
 23
4.749999999999999
 33
0.0
  0
SOLID
  5
390
330
389
100
AcDbEntity
  8
DIM
 62
     0
100
AcDbTrace
 10
14.89344840560035
 20
3.819999999999999
 30
0.0
 11
14.95344840560036
 21
3.819999999999999
 31
0.0
 12
14.92344840560036
 22
3.999999999999999
 32
0.0
 13
14.92344840560036
 23
3.999999999999999
 33
0.0
  0
MTEXT
  5
391
330
389
100
AcDbEntity
  8
DIM
 62
     0
100
AcDbMText
 10
14.32344840560036
 20
3.640000000000001
 30
0.0
 40
0.18
 41
0.0
 71
     5
 72
     1
  1
\A1;0.750
 73
     1
 44
1.0
  0
POINT
  5
392
330
389
100
AcDbEntity
  8
Defpoints
 62
     0
100
AcDbPoint
 10
12.83601195924488
 20
4.75
 30
0.0
  0
POINT
  5
393
330
389
100
AcDbEntity
  8
Defpoints
 62
     0
100
AcDbPoint
 10
13.0
 20
4.0
 30
0.0
  0
POINT
  5
394
330
389
100
AcDbEntity
  8
Defpoints
 62
     0
100
AcDbPoint
 10
14.92344840560036
 20
3.999999999999999
 30
0.0
  0
ENDBLK
  5
396
330
389
100
AcDbEntity
  8
0
100
AcDbBlockEnd
  0
BLOCK
  5
3B5
330
3AC
100
AcDbEntity
  8
0
100
AcDbBlockBegin
  2
*D21
 70
     1
 10
0.0
 20
0.0
 30
0.0
  3
*D21
  1

  0
LINE
  5
3B7
330
3AC
100
AcDbEntity
  8
DIM
 62
     0
370
    -2
100
AcDbLine
 10
12.23826491698704
 20
4.428589053826401
 30
0.0
 11
11.62508832032015
 21
3.675607574089267
 31
0.0
  0
LINE
  5
3B8
330
3AC
100
AcDbEntity
  8
DIM
 62
     0
370
    -2
100
AcDbLine
 10
11.62508832032015
 20
3.675607574089267
 30
0.0
 11
11.44508832032015
 21
3.675607574089267
 31
0.0
  0
SOLID
  5
3B9
330
3AC
100
AcDbEntity
  8
DIM
 62
     0
100
AcDbTrace
 10
12.21500236358485
 20
4.44753248564881
 30
0.0
 11
12.26152747038923
 21
4.409645622003993
 31
0.0
 12
12.3519255079215
 22
4.568164374239541
 32
0.0
 13
12.3519255079215
 23
4.568164374239541
 33
0.0
  0
MTEXT
  5
3BA
330
3AC
100
AcDbEntity
  8
DIM
 62
     0
100
AcDbMText
 10
10.47008832032015
 20
3.675607574089266
 30
0.0
 40
0.18
 41
0.0
 71
     5
 72
     1
  1
\A1;\U+22050.469 THRU
 73
     1
 44
1.0
  0
LINE
  5
3BB
330
3AC
100
AcDbEntity
  8
DIM
 62
     0
370
    -2
100
AcDbLine
 10
12.40999999999999
 20
4.749999999999995
 30
0.0
 11
12.58999999999999
 21
4.749999999999995
 31
0.0
  0
LINE
  5
3BC
330
3AC
100
AcDbEntity
  8
DIM
 62
     0
370
    -2
100
AcDbLine
 10
12.49999999999999
 20
4.659999999999997
 30
0.0
 11
12.49999999999999
 21
4.839999999999996
 31
0.0
  0
POINT
  5
3BD
330
3AC
100
AcDbEntity
  8
Defpoints
 62
     0
100
AcDbPoint
 10
12.3519255079215
 20
4.568164374239541
 30
0.0
  0
POINT
  5
3BE
330
3AC
100
AcDbEntity
  8
Defpoints
 62
     0
100
AcDbPoint
 10
12.64807449207848
 20
4.931835625760449
 30
0.0
  0
ENDBLK
  5
3B6
330
3AC
100
AcDbEntity
  8
0
100
AcDbBlockEnd
  0
ENDSEC
  0
SECTION
  2
ENTITIES
  0
INSERT
  5
1A2
330
1F
100
AcDbEntity
  8
0
100
AcDbBlockReference
 66
     1
  2
c-border
 10
0.0
 20
0.0
 30
0.0
  0
ATTRIB
  5
1A3
330
1A2
100
AcDbEntity
  8
TEXT
100
AcDbText
 10
15.75549999999999
 20
0.8301
 30
0.0
 40
0.06
  1
07-17-03
100
AcDbAttribute
  2
DATE
 70
     0
  0
ATTRIB
  5
1A4
330
1A2
100
AcDbEntity
  8
TEXT
100
AcDbText
 10
14.7352
 20
0.8425
 30
0.0
 40
0.12
  1
S. KYRE
100
AcDbAttribute
  2
NAME
 70
     0
  0
ATTRIB
  5
1A5
330
1A2
100
AcDbEntity
  8
TEXT
100
AcDbText
 10
16.6768
 20
0.1811
 30
0.0
 40
0.12
  1
1=1
100
AcDbAttribute
  2
SCALE
 70
     0
  0
ATTRIB
  5
1A6
330
1A2
100
AcDbEntity
  8
TEXT
100
AcDbText
 10
18.5257
 20
0.4778000000000001
 30
0.0
 40
0.12
  1
MOD-PICK-RP-08
100
AcDbAttribute
  2
NAME
 70
     0
  0
ATTRIB
  5
1A7
330
1A2
100
AcDbEntity
  8
TEXT
100
AcDbText
 10
16.67611983004387
 20
0.4604688822214698
 30
0.0
 40
0.12
  1
ROD
100
AcDbAttribute
  2
DIRECTORY
 70
     0
  0
SEQEND
  5
1A8
330
1A2
100
AcDbEntity
  8
0
  0
LINE
  5
1B9
330
1F
100
AcDbEntity
  8
handle
100
AcDbLine
 10
5.0
 20
5.5
 30
0.0
 11
11.5
 21
5.5
 31
0.0
  0
LINE
  5
1BA
330
1F
100
AcDbEntity
  8
handle
100
AcDbLine
 10
4.0
 20
6.5
 30
0.0
 11
12.5
 21
6.499999999999978
 31
0.0
  0
ARC
  5
1BB
330
1F
100
AcDbEntity
  8
handle
100
AcDbCircle
 10
11.5
 20
5.0
 30
0.0
 40
0.5
100
AcDbArc
 50
0.0
 51
90.0
  0
LINE
  5
1BC
330
1F
100
AcDbEntity
  8
handle
100
AcDbLine
 10
3.5
 20
4.0
 30
0.0
 11
3.5
 21
6.0
 31
0.0
  0
LINE
  5
1BD
330
1F
100
AcDbEntity
  8
handle
100
AcDbLine
 10
4.5
 20
4.0
 30
0.0
 11
4.5
 21
5.0
 31
0.0
  0
ARC
  5
1BE
330
1F
100
AcDbEntity
  8
handle
100
AcDbCircle
 10
5.0
 20
5.0
 30
0.0
 40
0.5
100
AcDbArc
 50
90.0
 51
180.0
  0
LINE
  5
1BF
330
1F
100
AcDbEntity
  8
handle
100
AcDbLine
 10
3.5
 20
4.0
 30
0.0
 11
4.5
 21
4.0
 31
0.0
  0
LINE
  5
1C0
330
1F
100
AcDbEntity
  8
handle
100
AcDbLine
 10
12.0
 20
4.0
 30
0.0
 11
12.0
 21
5.0
 31
0.0
  0
LINE
  5
1C1
330
1F
100
AcDbEntity
  8
handle
100
AcDbLine
 10
12.99999999999999
 20
5.999999999999978
 30
0.0
 11
13.0
 21
4.0
 31
0.0
  0
ARC
  5
1C2
330
1F
100
AcDbEntity
  8
handle
100
AcDbCircle
 10
12.5
 20
5.999999999999978
 30
0.0
 40
0.5
100
AcDbArc
 50
0.0
 51
89.99999999999991
  0
LINE
  5
1C4
330
1F
100
AcDbEntity
  8
handle
100
AcDbLine
 10
13.0
 20
4.0
 30
0.0
 11
12.0
 21
4.0
 31
0.0
  0
ARC
  5
1C5
330
1F
100
AcDbEntity
  8
handle
100
AcDbCircle
 10
4.000000000000001
 20
5.999999999999978
 30
0.0
 40
0.5
100
AcDbArc
 50
90.0000000000001
 51
180.0
  0
LWPOLYLINE
  5
1C6
330
1F
100
AcDbEntity
  8
0
100
AcDbPolyline
 90
        4
 70
     1
 43
0.0
 10
3.5
 20
10.625
 10
12.99999999999999
 20
10.625
 10
12.99999999999999
 20
10.74999999999999
 10
3.5
 20
10.74999999999999
  0
DIMENSION
  5
1D7
330
1F
100
AcDbEntity
  8
DIM
100
AcDbDimension
  2
*D4
 10
3.5
 20
11.1649325486436
 30
0.0
 11
2.735
 21
11.1649325486436
 31
0.0
 70
    32
 71
     5
 42
0.5
  3
SU1
100
AcDbAlignedDimension
 13
4.0
 23
10.625
 33
0.0
 14
3.5
 24
10.74999999999999
 34
0.0
100
AcDbRotatedDimension
  0
DIMENSION
  5
1E5
330
1F
100
AcDbEntity
  8
DIM
100
AcDbDimension
  2
*D5
 10
3.5
 20
11.59456227951233
 30
0.0
 11
7.999999999999998
 21
11.59456227951233
 31
0.0
 70
    32
 71
     5
 42
8.999999999999996
  3
SU1
100
AcDbAlignedDimension
 13
12.49999999999999
 23
10.625
 33
0.0
 14
3.5
 24
10.74999999999999
 34
0.0
100
AcDbRotatedDimension
  0
DIMENSION
  5
1F3
330
1F
100
AcDbEntity
  8
DIM
100
AcDbDimension
  2
*D6
 10
3.5
 20
12.07022374263571
 30
0.0
 11
8.249999999999998
 21
12.07022374263571
 31
0.0
 70
    32
 71
     5
 42
9.499999999999996
  3
SU1
100
AcDbAlignedDimension
 13
12.99999999999999
 23
10.74999999999999
 33
0.0
 14
3.5
 24
10.74999999999999
 34
0.0
100
AcDbRotatedDimension
  0
DIMENSION
  5
210
330
1F
100
AcDbEntity
  8
DIM
100
AcDbDimension
  2
*D7
 10
13.5141751733059
 20
10.74999999999999
 30
0.0
 11
14.0991751733059
 21
11.11
 31
0.0
 70
   160
 71
     5
 42
0.125
  3
SU1
100
AcDbAlignedDimension
 13
12.99999999999999
 23
10.625
 33
0.0
 14
12.99999999999999
 24
10.74999999999999
 34
0.0
 50
90.0
100
AcDbRotatedDimension
  0
DIMENSION
  5
21F
330
1F
100
AcDbEntity
  8
DIM
100
AcDbDimension
  2
*D8
 10
15.69587253638245
 20
5.499999999999999
 30
0.0
 11
15.69587253638245
 21
4.750000000000001
 31
0.0
 70
   160
 71
     5
 42
1.5
  3
SU1
100
AcDbAlignedDimension
 13
13.0
 23
4.0
 33
0.0
 14
11.5
 24
5.5
 34
0.0
 50
90.0
100
AcDbRotatedDimension
  0
DIMENSION
  5
22D
330
1F
100
AcDbEntity
  8
DIM
100
AcDbDimension
  2
*D9
 10
16.58225626061427
 20
6.499999999999978
 30
0.0
 11
16.58225626061427
 21
5.249999999999992
 31
0.0
 70
   160
 71
     5
 42
2.499999999999979
  3
SU1
100
AcDbAlignedDimension
 13
13.0
 23
4.0
 33
0.0
 14
12.5
 24
6.499999999999979
 34
0.0
 50
90.0
100
AcDbRotatedDimension
  0
DIMENSION
  5
23B
330
1F
100
AcDbEntity
  8
DIM
100
AcDbDimension
  2
*D10
 10
3.5
 20
3.493156077688166
 30
0.0
 11
2.765
 21
3.493156077688166
 31
0.0
 70
    32
 71
     5
  3
SU1
100
AcDbAlignedDimension
 13
4.5
 23
4.0
 33
0.0
 14
3.5
 24
4.0
 34
0.0
100
AcDbRotatedDimension
  0
DIMENSION
  5
249
330
1F
100
AcDbEntity
  8
DIM
100
AcDbDimension
  2
*D11
 10
3.5
 20
2.956118931933524
 30
0.0
 11
7.75
 21
2.956118931933524
 31
0.0
 70
    32
 71
     5
 42
8.5
  3
SU1
100
AcDbAlignedDimension
 13
12.0
 23
4.0
 33
0.0
 14
3.5
 24
4.0
 34
0.0
100
AcDbRotatedDimension
  0
DIMENSION
  5
257
330
1F
100
AcDbEntity
  8
DIM
100
AcDbDimension
  2
*D12
 10
3.999999999999998
 20
5.999999999999973
 30
0.0
 11
2.333993029314689
 21
7.022074648622175
 31
0.0
 70
   164
  1
<>\P4X
 71
     5
 42
0.5
  3
SU1$4
100
AcDbRadialDimension
 15
3.651944408353522
 25
6.358966997262426
 35
0.0
 40
0.0
  0
MTEXT
  5
287
330
1F
100
AcDbEntity
  8
TEXT
100
AcDbMText
 10
18.36451480373655
 20
1.091500946102673
 30
0.0
 40
0.12
 41
4.2709
 71
     5
 72
     5
  1
HANDLE FOR MODULE PICK UP FIXTURE
 73
     1
 44
1.0
  0
MTEXT
  5
288
330
1F
100
AcDbEntity
  8
TEXT
100
AcDbMText
 10
3.25
 20
1.25
 30
0.0
 40
0.2
 41
8.125
 71
     1
 72
     5
  1
MATERIAL: SHEET AL\P1 EA. REQUIRED
 73
     1
 44
1.0
  0
LWPOLYLINE
  5
29B
330
1F
100
AcDbEntity
  8
handle
100
AcDbPolyline
 90
        4
 70
     1
 43
0.0
 10
3.5
 20
10.625
 10
4.5
 20
10.625
 10
4.5
 20
10.12499999999999
 10
3.5
 20
10.12499999999999
  0
LINE
  5
2A3
330
1F
100
AcDbEntity
  8
CENTER
100
AcDbLine
 10
4.190807587344536
 20
10.375
 30
0.0
 11
3.852999484483603
 21
10.375
 31
0.0
  0
CIRCLE
  5
2A4
330
1F
100
AcDbEntity
  8
handle
100
AcDbCircle
 10
4.0
 20
10.375
 30
0.0
 40
0.1105
  0
LINE
  5
2A5
330
1F
100
AcDbEntity
  8
CENTER
100
AcDbLine
 10
4.0
 20
10.21383059369704
 30
0.0
 11
4.0
 21
10.53401990371081
 31
0.0
  0
CIRCLE
  5
2A6
330
1F
100
AcDbEntity
  8
handle
100
AcDbCircle
 10
12.49999999999999
 20
10.375
 30
0.0
 40
0.1105
  0
LINE
  5
2A7
330
1F
100
AcDbEntity
  8
CENTER
100
AcDbLine
 10
12.30919241265546
 20
10.375
 30
0.0
 11
12.64700051551639
 21
10.375
 31
0.0
  0
LWPOLYLINE
  5
2A8
330
1F
100
AcDbEntity
  8
handle
100
AcDbPolyline
 90
        4
 70
     1
 43
0.0
 10
12.99999999999999
 20
10.625
 10
11.99999999999999
 20
10.625
 10
11.99999999999999
 20
10.12499999999999
 10
12.99999999999999
 20
10.12499999999999
  0
LINE
  5
2A9
330
1F
100
AcDbEntity
  8
CENTER
100
AcDbLine
 10
12.49999999999999
 20
10.21383059369704
 30
0.0
 11
12.49999999999999
 21
10.53401990371081
 31
0.0
  0
LINE
  5
2AA
330
1F
100
AcDbEntity
  8
handle
100
AcDbLine
 10
3.5
 20
4.125
 30
0.0
 11
4.5
 21
4.125
 31
0.0
  0
LINE
  5
2AB
330
1F
100
AcDbEntity
  8
handle
100
AcDbLine
 10
12.0
 20
4.125
 30
0.0
 11
13.0
 21
4.125
 31
0.0
  0
DIMENSION
  5
2B7
330
1F
100
AcDbEntity
  8
DIM
100
AcDbDimension
  2
*D13
 10
14.60349696462086
 20
10.74999999999999
 30
0.0
 11
15.21849696462086
 21
11.11
 31
0.0
 70
    32
 71
     5
 42
0.375
  3
SU1
100
AcDbAlignedDimension
 13
12.64700051551639
 23
10.375
 33
0.0
 14
12.99999999999999
 24
10.74999999999999
 34
0.0
 50
90.0
100
AcDbRotatedDimension
  0
DIMENSION
  5
2C6
330
1F
100
AcDbEntity
  8
DIM
100
AcDbDimension
  2
*D14
 10
15.88722509022739
 20
10.74999999999999
 30
0.0
 11
16.50222509022738
 21
11.11
 31
0.0
 70
    32
 71
     5
 42
0.625
  3
SU1
100
AcDbAlignedDimension
 13
12.99999999999999
 23
10.12499999999999
 33
0.0
 14
12.99999999999999
 24
10.74999999999999
 34
0.0
 50
90.0
100
AcDbRotatedDimension
  0
DIMENSION
  5
2D5
330
1F
100
AcDbEntity
  8
DIM
100
AcDbDimension
  2
*D15
 10
3.5
 20
9.738417033809398
 30
0.0
 11
2.735
 21
9.738417033809398
 31
0.0
 70
    32
 71
     5
 42
0.5
  3
SU1
100
AcDbAlignedDimension
 13
4.0
 23
10.21383059369704
 33
0.0
 14
3.5
 24
10.12499999999999
 34
0.0
100
AcDbRotatedDimension
  0
DIMENSION
  5
2E3
330
1F
100
AcDbEntity
  8
DIM
100
AcDbDimension
  2
*D16
 10
3.5
 20
9.203747604940751
 30
0.0
 11
7.999999999999998
 21
9.203747604940751
 31
0.0
 70
    32
 71
     5
 42
8.999999999999996
  3
SU1
100
AcDbAlignedDimension
 13
12.49999999999999
 23
10.21383059369704
 33
0.0
 14
3.5
 24
10.12499999999999
 34
0.0
100
AcDbRotatedDimension
  0
DIMENSION
  5
2F1
330
1F
100
AcDbEntity
  8
DIM
100
AcDbDimension
  2
*D17
 10
12.45699334187909
 20
10.47678741256791
 30
0.0
 11
14.19087003942064
 21
9.035708604690711
 31
0.0
 70
   163
  1
<> THRU\P2X
 71
     5
 42
0.2209999999999983
  3
SU1$3
100
AcDbDiametricDimension
 15
12.5430066581209
 25
10.27321258743207
 35
0.0
 40
0.0
  0
DIMENSION
  5
305
330
1F
100
AcDbEntity
  8
DIM
100
AcDbDimension
  2
*D18
 10
13.67892137827313
 20
3.999999999999999
 30
0.0
 11
13.09392137827313
 21
3.639999999999999
 31
0.0
 70
   160
 71
     5
 42
0.125
  3
SU1
100
AcDbAlignedDimension
 13
13.0
 23
4.125
 33
0.0
 14
13.0
 24
4.0
 34
0.0
 50
90.0
100
AcDbRotatedDimension
  0
CIRCLE
  5
33B
330
1F
100
AcDbEntity
  8
handle
100
AcDbCircle
 10
12.5
 20
4.75
 30
0.0
 40
0.2345
  0
LINE
  5
33C
330
1F
100
AcDbEntity
  8
CENTER
100
AcDbLine
 10
12.5
 20
5.129307991806253
 30
0.0
 11
12.5
 21
4.397081848711668
 31
0.0
  0
LINE
  5
33D
330
1F
100
AcDbEntity
  8
CENTER
100
AcDbLine
 10
12.16651815314179
 20
4.75
 30
0.0
 11
12.83601195924488
 21
4.75
 31
0.0
  0
DIMENSION
  5
366
330
1F
100
AcDbEntity
  8
DIM
100
AcDbDimension
  2
*D19
 10
3.5
 20
2.340142236514317
 30
0.0
 11
8.0
 21
2.340142236514317
 31
0.0
 70
    32
 71
     5
 42
9.0
  3
SU1
100
AcDbAlignedDimension
 13
12.5
 23
4.397081848711668
 33
0.0
 14
3.5
 24
4.0
 34
0.0
100
AcDbRotatedDimension
  0
DIMENSION
  5
388
330
1F
100
AcDbEntity
  8
DIM
100
AcDbDimension
  2
*D20
 10
14.92344840560036
 20
3.999999999999999
 30
0.0
 11
14.32344840560036
 21
3.640000000000001
 31
0.0
 70
    32
 71
     5
 42
0.75
  3
SU1
100
AcDbAlignedDimension
 13
12.83601195924488
 23
4.75
 33
0.0
 14
13.0
 24
4.0
 34
0.0
 50
90.0
100
AcDbRotatedDimension
  0
DIMENSION
  5
3AB
330
1F
100
AcDbEntity
  8
DIM
100
AcDbDimension
  2
*D21
 10
12.64807449207848
 20
4.931835625760449
 30
0.0
 11
10.47008832032015
 21
3.675607574089266
 31
0.0
 70
   163
  1
<> THRU
 71
     5
 42
0.4689999999999959
  3
SU1$3
100
AcDbDiametricDimension
 15
12.3519255079215
 25
4.568164374239541
 35
0.0
 40
0.0
  0
LINE
  5
3BF
330
1F
100
AcDbEntity
  8
TEXT
100
AcDbLine
 10
15.44569368889233
 20
14.0187954598962
 30
0.0
 11
15.44569368889233
 21
12.76291188114313
 31
0.0
  0
LINE
  5
3C0
330
1F
100
AcDbEntity
  8
TEXT
100
AcDbLine
 10
15.83594611112369
 20
14.0187954598962
 30
0.0
 11
15.83594611112369
 21
12.76291188114313
 31
0.0
  0
LINE
  5
3C1
330
1F
100
AcDbEntity
  8
TEXT
100
AcDbLine
 10
18.57594611112369
 20
14.0187954598962
 30
0.0
 11
18.57594611112369
 21
12.76291188114313
 31
0.0
  0
LINE
  5
3C2
330
1F
100
AcDbEntity
  8
TEXT
100
AcDbLine
 10
19.45594611112369
 20
14.0187954598962
 30
0.0
 11
19.45594611112369
 21
12.76291188114313
 31
0.0
  0
MTEXT
  5
3C3
330
1F
100
AcDbEntity
  8
TEXT
100
AcDbMText
 10
15.58437400179327
 20
13.94857176787195
 30
0.0
 40
0.1
 41
0.2051
 71
     1
 72
     5
  1
A
 73
     1
 44
1.0
  0
MTEXT
  5
3C4
330
1F
100
AcDbEntity
  8
TEXT
100
AcDbMText
 10
15.90056345387487
 20
13.96992725871871
 30
0.0
 40
0.1
 41
2.602199999999999
 71
     1
 72
     5
  1
ADD HOLE FOR RELEASE VALVE
 73
     1
 44
1.0
  0
MTEXT
  5
3C5
330
1F
100
AcDbEntity
  8
TEXT
100
AcDbMText
 10
18.66508482368059
 20
13.92056028354835
 30
0.0
 40
0.1
 41
1.8349
 71
     1
 72
     5
  1
10-20-03
 73
     1
 44
1.0
  0
MTEXT
  5
3C6
330
1F
100
AcDbEntity
  8
TEXT
100
AcDbMText
 10
20.25723835864633
 20
0.6143726585389456
 30
0.0
 40
0.1
 41
0.2051
 71
     1
 72
     5
  1
A
 73
     1
 44
1.0
  0
ENDSEC
  0
SECTION
  2
OBJECTS
  0
DICTIONARY
  5
C
330
0
100
AcDbDictionary
281
     1
  3
ACAD_GROUP
350
D
  3
ACAD_LAYOUT
350
1A
  3
ACAD_MLINESTYLE
350
17
  3
ACAD_PLOTSETTINGS
350
19
  3
ACAD_PLOTSTYLENAME
350
E
  3
AcadDim
350
EE
  0
DICTIONARY
  5
D
102
{ACAD_REACTORS
330
C
102
}
330
C
100
AcDbDictionary
281
     1
  0
DICTIONARY
  5
1A
102
{ACAD_REACTORS
330
C
102
}
330
C
100
AcDbDictionary
281
     1
  3
Layout1
350
1E
  3
Layout2
350
26
  3
Model
350
22
  0
DICTIONARY
  5
17
102
{ACAD_REACTORS
330
C
102
}
330
C
100
AcDbDictionary
281
     1
  3
Standard
350
18
  0
DICTIONARY
  5
19
102
{ACAD_REACTORS
330
C
102
}
330
C
100
AcDbDictionary
281
     1
  3
C-1_TO_1
350
157
  0
ACDBDICTIONARYWDFLT
  5
E
102
{ACAD_REACTORS
330
C
102
}
330
C
100
AcDbDictionary
281
     1
  3
Normal
350
F
100
AcDbDictionaryWithDefault
340
F
  0
XRECORD
  5
EE
102
{ACAD_REACTORS
330
C
102
}
330
C
100
AcDbXrecord
280
     1
 90
   990106
  3

 60
     0
 61
     0
 62
     2
 63
     2
 64
     0
 65
     0
 66
     0
 67
     3
 68
     1
 69
     0
 70
     0
 71
     0
 72
     0
 40
0.0
170
     2
340
0
  0
LAYOUT
  5
1E
102
{ACAD_REACTORS
330
1A
102
}
330
1A
100
AcDbPlotSettings
  1

  2

  4

  6

 40
0.0
 41
0.0
 42
0.0
 43
0.0
 44
0.0
 45
0.0
 46
0.0
 47
0.0
 48
0.0
 49
0.0
140
0.0
141
0.0
142
1.0
143
1.0
 70
   688
 72
     0
 73
     0
 74
     5
  7
style-1.ctb
 75
    16
147
1.0
148
0.0
149
0.0
100
AcDbLayout
  1
Layout1
 70
     1
 71
     1
 10
0.0
 20
0.0
 11
12.0
 21
9.0
 12
0.0
 22
0.0
 32
0.0
 14
1.000000000000000E+20
 24
1.000000000000000E+20
 34
1.000000000000000E+20
 15
-1.000000000000000E+20
 25
-1.000000000000000E+20
 35
-1.000000000000000E+20
146
0.0
 13
0.0
 23
0.0
 33
0.0
 16
1.0
 26
0.0
 36
0.0
 17
0.0
 27
1.0
 37
0.0
 76
     0
330
1B
  0
LAYOUT
  5
26
102
{ACAD_REACTORS
330
1A
102
}
330
1A
100
AcDbPlotSettings
  1

  2

  4

  6

 40
0.0
 41
0.0
 42
0.0
 43
0.0
 44
0.0
 45
0.0
 46
0.0
 47
0.0
 48
0.0
 49
0.0
140
0.0
141
0.0
142
1.0
143
1.0
 70
   688
 72
     0
 73
     0
 74
     5
  7
style-1.ctb
 75
    16
147
1.0
148
0.0
149
0.0
100
AcDbLayout
  1
Layout2
 70
     1
 71
     2
 10
0.0
 20
0.0
 11
12.0
 21
9.0
 12
0.0
 22
0.0
 32
0.0
 14
0.0
 24
0.0
 34
0.0
 15
0.0
 25
0.0
 35
0.0
146
0.0
 13
0.0
 23
0.0
 33
0.0
 16
1.0
 26
0.0
 36
0.0
 17
0.0
 27
1.0
 37
0.0
 76
     0
330
23
  0
LAYOUT
  5
22
102
{ACAD_REACTORS
330
1A
102
}
330
1A
100
AcDbPlotSettings
  1

  2
HP DesignJet 488CA (E/A0) by HP
  4
User1288
  6

 40
4.995333194732666
 41
16.93330574035644
 42
4.99530029296875
 43
16.93331909179687
 44
558.7153320312499
 45
431.6306457519531
 46
20.32
 47
14.73199999999999
 48
0.0
 49
0.0
140
0.0
141
0.0
142
1.0
143
1.0
 70
 11956
 72
     0
 73
     0
 74
     1
  7
style-1.ctb
 75
    16
147
1.0
148
-12.68062259457146
149
-3.150196262391045
100
AcDbLayout
  1
Model
 70
     1
 71
     0
 10
0.0
 20
0.0
 11
12.0
 21
9.0
 12
0.0
 22
0.0
 32
0.0
 14
0.0
 24
0.0
 34
0.0
 15
0.0
 25
0.0
 35
0.0
146
0.0
 13
0.0
 23
0.0
 33
0.0
 16
1.0
 26
0.0
 36
0.0
 17
0.0
 27
1.0
 37
0.0
 76
     0
330
1F
  0
MLINESTYLE
  5
18
102
{ACAD_REACTORS
330
17
102
}
330
17
100
AcDbMlineStyle
  2
STANDARD
 70
     0
  3

 62
   256
 51
90.0
 52
90.0
 71
     2
 49
0.5
 62
   256
  6
BYLAYER
 49
-0.5
 62
   256
  6
BYLAYER
  0
PLOTSETTINGS
  5
157
102
{ACAD_REACTORS
330
19
102
}
330
19
100
AcDbPlotSettings
  1
C-1_TO_1
  2
Draftmaster 2 (7596A).pc3
  4
ANSI_C_(22.00_x_17.00_Inches)
  6

 40
16.79375076293945
 41
40.79375076293945
 42
16.8187255859375
 43
16.81875610351562
 44
558.7999877929687
 45
431.7999877929687
 46
0.0
 47
0.0
 48
0.0
 49
0.0
140
0.0
141
0.0
142
1.0
143
1.0
 70
   688
 72
     0
 73
     0
 74
     5
  7

 75
    16
147
1.0
148
0.0
149
0.0
  0
ACDBPLACEHOLDER
  5
F
102
{ACAD_REACTORS
330
E
102
}
330
E
  0
ENDSEC
  0
EOF
