  0
SECTION
  2
HEADER
  9
$ACADVER
  1
AC1015
  9
$ACADMAINTVER
 70
     6
  9
$DWGCODEPAGE
  3
ANSI_1252
  9
$INSBASE
 10
0.0
 20
0.0
 30
0.0
  9
$EXTMIN
 10
0.671218949685823
 20
0.1243286623204227
 30
-0.000000000000013
  9
$EXTMAX
 10
31.17315681298864
 20
20.12585454006429
 30
0.0000000000000023
  9
$LIMMIN
 10
0.0
 20
0.0
  9
$LIMMAX
 10
33.0
 20
21.0
  9
$ORTHOMODE
 70
     0
  9
$REGENMODE
 70
     1
  9
$FILLMODE
 70
     1
  9
$QTEXTMODE
 70
     0
  9
$MIRRTEXT
 70
     1
  9
$LTSCALE
 40
0.125
  9
$ATTMODE
 70
     1
  9
$TEXTSIZE
 40
0.2
  9
$TRACEWID
 40
0.05
  9
$TEXTSTYLE
  7
Standard
  9
$CLAYER
  8
handle
  9
$CELTYPE
  6
ByLayer
  9
$CECOLOR
 62
   256
  9
$CELTSCALE
 40
1.0
  9
$DISPSILH
 70
     0
  9
$DIMSCALE
 40
1.0
  9
$DIMASZ
 40
0.18
  9
$DIMEXO
 40
0.0625
  9
$DIMDLI
 40
0.38
  9
$DIMRND
 40
0.0
  9
$DIMDLE
 40
0.0
  9
$DIMEXE
 40
0.18
  9
$DIMTP
 40
0.001
  9
$DIMTM
 40
0.001
  9
$DIMTXT
 40
0.18
  9
$DIMCEN
 40
0.09
  9
$DIMTSZ
 40
0.0
  9
$DIMTOL
 70
     0
  9
$DIMLIM
 70
     0
  9
$DIMTIH
 70
     1
  9
$DIMTOH
 70
     1
  9
$DIMSE1
 70
     0
  9
$DIMSE2
 70
     0
  9
$DIMTAD
 70
     0
  9
$DIMZIN
 70
     0
  9
$DIMBLK
  1

  9
$DIMASO
 70
     1
  9
$DIMSHO
 70
     1
  9
$DIMPOST
  1

  9
$DIMAPOST
  1
mm
  9
$DIMALT
 70
     0
  9
$DIMALTD
 70
     2
  9
$DIMALTF
 40
25.4
  9
$DIMLFAC
 40
1.0
  9
$DIMTOFL
 70
     0
  9
$DIMTVP
 40
0.0
  9
$DIMTIX
 70
     0
  9
$DIMSOXD
 70
     0
  9
$DIMSAH
 70
     0
  9
$DIMBLK1
  1

  9
$DIMBLK2
  1

  9
$DIMSTYLE
  2
SU1
  9
$DIMCLRD
 70
     0
  9
$DIMCLRE
 70
     0
  9
$DIMCLRT
 70
     0
  9
$DIMTFAC
 40
1.0
  9
$DIMGAP
 40
0.09
  9
$DIMJUST
 70
     0
  9
$DIMSD1
 70
     0
  9
$DIMSD2
 70
     0
  9
$DIMTOLJ
 70
     1
  9
$DIMTZIN
 70
     0
  9
$DIMALTZ
 70
     0
  9
$DIMALTTZ
 70
     0
  9
$DIMUPT
 70
     0
  9
$DIMDEC
 70
     3
  9
$DIMTDEC
 70
     3
  9
$DIMALTU
 70
     2
  9
$DIMALTTD
 70
     2
  9
$DIMTXSTY
  7
Standard
  9
$DIMAUNIT
 70
     0
  9
$DIMADEC
 70
     0
  9
$DIMALTRND
 40
0.0
  9
$DIMAZIN
 70
     0
  9
$DIMDSEP
 70
    46
  9
$DIMATFIT
 70
     0
  9
$DIMFRAC
 70
     0
  9
$DIMLDRBLK
  1

  9
$DIMLUNIT
 70
     2
  9
$DIMLWD
 70
    -2
  9
$DIMLWE
 70
    -2
  9
$DIMTMOVE
 70
     0
  9
$LUNITS
 70
     2
  9
$LUPREC
 70
     4
  9
$SKETCHINC
 40
0.1
  9
$FILLETRAD
 40
0.5
  9
$AUNITS
 70
     0
  9
$AUPREC
 70
     0
  9
$MENU
  1
.
  9
$ELEVATION
 40
0.0
  9
$PELEVATION
 40
0.0
  9
$THICKNESS
 40
0.0
  9
$LIMCHECK
 70
     0
  9
$CHAMFERA
 40
0.5
  9
$CHAMFERB
 40
0.5
  9
$CHAMFERC
 40
1.0
  9
$CHAMFERD
 40
0.0
  9
$SKPOLY
 70
     0
  9
$TDCREATE
 40
2452832.354201562
  9
$TDUCREATE
 40
2452832.687534896
  9
$TDUPDATE
 40
2452951.377009549
  9
$TDUUPDATE
 40
2452951.710342881
  9
$TDINDWG
 40
0.2071128241
  9
$TDUSRTIMER
 40
0.2071128241
  9
$USRTIMER
 70
     1
  9
$ANGBASE
 50
0.0
  9
$ANGDIR
 70
     0
  9
$PDMODE
 70
     0
  9
$PDSIZE
 40
0.0
  9
$PLINEWID
 40
0.0
  9
$SPLFRAME
 70
     0
  9
$SPLINETYPE
 70
     6
  9
$SPLINESEGS
 70
     8
  9
$HANDSEED
  5
752
  9
$SURFTAB1
 70
     6
  9
$SURFTAB2
 70
     6
  9
$SURFTYPE
 70
     6
  9
$SURFU
 70
     6
  9
$SURFV
 70
     6
  9
$UCSBASE
  2

  9
$UCSNAME
  2

  9
$UCSORG
 10
0.0
 20
0.0
 30
0.0
  9
$UCSXDIR
 10
1.0
 20
0.0
 30
0.0
  9
$UCSYDIR
 10
0.0
 20
1.0
 30
0.0
  9
$UCSORTHOREF
  2

  9
$UCSORTHOVIEW
 70
     0
  9
$UCSORGTOP
 10
0.0
 20
0.0
 30
0.0
  9
$UCSORGBOTTOM
 10
0.0
 20
0.0
 30
0.0
  9
$UCSORGLEFT
 10
0.0
 20
0.0
 30
0.0
  9
$UCSORGRIGHT
 10
0.0
 20
0.0
 30
0.0
  9
$UCSORGFRONT
 10
0.0
 20
0.0
 30
0.0
  9
$UCSORGBACK
 10
0.0
 20
0.0
 30
0.0
  9
$PUCSBASE
  2

  9
$PUCSNAME
  2

  9
$PUCSORG
 10
0.0
 20
0.0
 30
0.0
  9
$PUCSXDIR
 10
1.0
 20
0.0
 30
0.0
  9
$PUCSYDIR
 10
0.0
 20
1.0
 30
0.0
  9
$PUCSORTHOREF
  2

  9
$PUCSORTHOVIEW
 70
     0
  9
$PUCSORGTOP
 10
0.0
 20
0.0
 30
0.0
  9
$PUCSORGBOTTOM
 10
0.0
 20
0.0
 30
0.0
  9
$PUCSORGLEFT
 10
0.0
 20
0.0
 30
0.0
  9
$PUCSORGRIGHT
 10
0.0
 20
0.0
 30
0.0
  9
$PUCSORGFRONT
 10
0.0
 20
0.0
 30
0.0
  9
$PUCSORGBACK
 10
0.0
 20
0.0
 30
0.0
  9
$USERI1
 70
     0
  9
$USERI2
 70
     0
  9
$USERI3
 70
     0
  9
$USERI4
 70
     0
  9
$USERI5
 70
     0
  9
$USERR1
 40
0.0
  9
$USERR2
 40
0.0
  9
$USERR3
 40
0.0
  9
$USERR4
 40
0.0
  9
$USERR5
 40
0.0
  9
$WORLDVIEW
 70
     1
  9
$SHADEDGE
 70
     3
  9
$SHADEDIF
 70
    70
  9
$TILEMODE
 70
     1
  9
$MAXACTVP
 70
    64
  9
$PINSBASE
 10
0.0
 20
0.0
 30
0.0
  9
$PLIMCHECK
 70
     0
  9
$PEXTMIN
 10
1.000000000000000E+20
 20
1.000000000000000E+20
 30
1.000000000000000E+20
  9
$PEXTMAX
 10
-1.000000000000000E+20
 20
-1.000000000000000E+20
 30
-1.000000000000000E+20
  9
$PLIMMIN
 10
0.0
 20
0.0
  9
$PLIMMAX
 10
12.0
 20
9.0
  9
$UNITMODE
 70
     0
  9
$VISRETAIN
 70
     1
  9
$PLINEGEN
 70
     0
  9
$PSLTSCALE
 70
     1
  9
$TREEDEPTH
 70
  3020
  9
$CMLSTYLE
  2
Standard
  9
$CMLJUST
 70
     0
  9
$CMLSCALE
 40
1.0
  9
$PROXYGRAPHICS
 70
     1
  9
$MEASUREMENT
 70
     0
  9
$CELWEIGHT
370
    -1
  9
$ENDCAPS
280
     0
  9
$JOINSTYLE
280
     0
  9
$LWDISPLAY
290
     0
  9
$INSUNITS
 70
     1
  9
$HYPERLINKBASE
  1

  9
$STYLESHEET
  1
style-1.ctb
  9
$XEDIT
290
     1
  9
$CEPSNTYPE
380
     0
  9
$PSTYLEMODE
290
     1
  9
$FINGERPRINTGUID
  2
{FDEAD576-A652-11D2-9A35-0060089B3A3F}
  9
$VERSIONGUID
  2
{E2C7769B-0D8C-4B92-B9B1-FD8944E65D98}
  9
$EXTNAMES
290
     1
  9
$PSVPSCALE
 40
0.0
  9
$OLESTARTUP
290
     0
  0
ENDSEC
  0
SECTION
  2
CLASSES
  0
CLASS
  1
ACDBDICTIONARYWDFLT
  2
AcDbDictionaryWithDefault
  3
AutoCAD 2000
 90
        0
280
     0
281
     0
  0
CLASS
  1
ACDBPLACEHOLDER
  2
AcDbPlaceHolder
  3
AutoCAD 2000
 90
        0
280
     0
281
     0
  0
CLASS
  1
LAYOUT
  2
AcDbLayout
  3
AutoCAD 2000
 90
        0
280
     0
281
     0
  0
ENDSEC
  0
SECTION
  2
TABLES
  0
TABLE
  2
VPORT
  5
8
330
0
100
AcDbSymbolTable
 70
     2
  0
VPORT
  5
751
330
8
100
AcDbSymbolTableRecord
100
AcDbViewportTableRecord
  2
*Active
 70
     0
 10
0.0
 20
0.0
 11
1.0
 21
1.0
 12
15.92218788133723
 22
10.12509160119235
 13
0.0
 23
0.0
 14
0.125
 24
0.125
 15
1.0
 25
1.0
 16
0.0
 26
0.0
 36
1.0
 17
0.0
 27
0.0
 37
0.0
 40
20.13713364388188
 41
1.629473684210526
 42
50.0
 43
0.0
 44
0.0
 50
0.0
 51
0.0
 71
     0
 72
   100
 73
     1
 74
     3
 75
     0
 76
     1
 77
     0
 78
     0
281
     0
 65
     1
110
0.0
120
0.0
130
0.0
111
1.0
121
0.0
131
0.0
112
0.0
122
1.0
132
0.0
 79
     0
146
0.0
  0
ENDTAB
  0
TABLE
  2
LTYPE
  5
5
330
0
100
AcDbSymbolTable
 70
     3
  0
LTYPE
  5
14
330
5
100
AcDbSymbolTableRecord
100
AcDbLinetypeTableRecord
  2
ByBlock
 70
     0
  3

 72
    65
 73
     0
 40
0.0
  0
LTYPE
  5
15
330
5
100
AcDbSymbolTableRecord
100
AcDbLinetypeTableRecord
  2
ByLayer
 70
     0
  3

 72
    65
 73
     0
 40
0.0
  0
LTYPE
  5
16
330
5
100
AcDbSymbolTableRecord
100
AcDbLinetypeTableRecord
  2
Continuous
 70
     0
  3
Solid line
 72
    65
 73
     0
 40
0.0
  0
LTYPE
  5
48
330
5
100
AcDbSymbolTableRecord
100
AcDbLinetypeTableRecord
  2
CENTER
 70
     0
  3
____ _ ____ _ ____ _ ____ _ ____ _ ____ _ ____ 
 72
    65
 73
     4
 40
2.0
 49
1.25
 74
     0
 49
-0.25
 74
     0
 49
0.25
 74
     0
 49
-0.25
 74
     0
  0
LTYPE
  5
F9
330
5
100
AcDbSymbolTableRecord
100
AcDbLinetypeTableRecord
  2
HIDDEN
 70
     0
  3
Hidden __ __ __ __ __ __ __ __ __ __ __ __ __ _
 72
    65
 73
     2
 40
0.375
 49
0.25
 74
     0
 49
-0.125
 74
     0
  0
ENDTAB
  0
TABLE
  2
LAYER
  5
2
330
0
100
AcDbSymbolTable
 70
     9
  0
LAYER
  5
10
330
2
100
AcDbSymbolTableRecord
100
AcDbLayerTableRecord
  2
0
 70
     0
 62
     7
  6
Continuous
370
    -3
390
F
  0
LAYER
  5
49
330
2
100
AcDbSymbolTableRecord
100
AcDbLayerTableRecord
  2
TEXT
 70
     0
 62
     7
  6
Continuous
370
    -3
390
F
  0
LAYER
  5
4A
330
2
100
AcDbSymbolTableRecord
100
AcDbLayerTableRecord
  2
BORDER
 70
     0
 62
     8
  6
Continuous
370
    -3
390
F
  0
LAYER
  5
A1
330
2
100
AcDbSymbolTableRecord
100
AcDbLayerTableRecord
  2
Defpoints
 70
     0
 62
     7
  6
Continuous
290
     0
370
    -3
390
F
  0
LAYER
  5
D8
330
2
100
AcDbSymbolTableRecord
100
AcDbLayerTableRecord
  2
DIM
 70
     0
 62
     3
  6
Continuous
370
    -3
390
F
  0
LAYER
  5
D9
330
2
100
AcDbSymbolTableRecord
100
AcDbLayerTableRecord
  2
CENTER
 70
     0
 62
     1
  6
CENTER
370
    -3
390
F
  0
LAYER
  5
166
330
2
100
AcDbSymbolTableRecord
100
AcDbLayerTableRecord
  2
VAC-CUP
 70
     1
 62
     5
  6
Continuous
370
    -3
390
F
  0
LAYER
  5
167
330
2
100
AcDbSymbolTableRecord
100
AcDbLayerTableRecord
  2
downstop
 70
     1
 62
     2
  6
Continuous
370
    -3
390
F
  0
LAYER
  5
168
330
2
100
AcDbSymbolTableRecord
100
AcDbLayerTableRecord
  2
handle
 70
     0
 62
     7
  6
Continuous
370
    -3
390
F
  0
ENDTAB
  0
TABLE
  2
STYLE
  5
3
330
0
100
AcDbSymbolTable
 70
     3
  0
STYLE
  5
11
330
3
100
AcDbSymbolTableRecord
100
AcDbTextStyleTableRecord
  2
Standard
 70
     0
 40
0.0
 41
1.0
 50
0.0
 71
     0
 42
0.2
  3
txt
  4

  0
STYLE
  5
4B
330
3
100
AcDbSymbolTableRecord
100
AcDbTextStyleTableRecord
  2
ADESK2
 70
     0
 40
0.0
 41
1.0
 50
0.0
 71
     0
 42
0.065
  3
romans
  4

  0
STYLE
  5
F8
330
3
100
AcDbSymbolTableRecord
100
AcDbTextStyleTableRecord
  2

 70
     1
 40
0.0
 41
1.0
 50
0.0
 71
     0
 42
0.2
  3
ltypeshp.shx
  4

  0
ENDTAB
  0
TABLE
  2
VIEW
  5
6
330
0
100
AcDbSymbolTable
 70
     0
  0
ENDTAB
  0
TABLE
  2
UCS
  5
7
330
0
100
AcDbSymbolTable
 70
     0
  0
ENDTAB
  0
TABLE
  2
APPID
  5
9
330
0
100
AcDbSymbolTable
 70
     1
  0
APPID
  5
12
330
9
100
AcDbSymbolTableRecord
100
AcDbRegAppTableRecord
  2
ACAD
 70
     0
  0
ENDTAB
  0
TABLE
  2
DIMSTYLE
  5
A
330
0
100
AcDbSymbolTable
 70
     4
100
AcDbDimStyleTable
 71
     4
340
E0
340
4C
340
DF
340
27
  0
DIMSTYLE
105
27
330
A
100
AcDbSymbolTableRecord
100
AcDbDimStyleTableRecord
  2
Standard
 70
     0
340
11
  0
DIMSTYLE
105
4C
102
{ACAD_REACTORS
330
26D
330
27B
330
289
330
297
330
2A6
330
2B5
330
2C3
330
2D1
330
2DF
330
2ED
330
2FB
330
309
330
317
330
325
330
333
330
341
330
46B
330
47A
330
489
330
497
330
4A5
330
4B3
330
4C1
330
5D8
102
}
330
A
100
AcDbSymbolTableRecord
100
AcDbDimStyleTableRecord
  2
SU1
 70
     0
  4
mm
 47
0.001
 48
0.001
271
     3
272
     3
289
     0
340
11
  0
DIMSTYLE
105
DF
330
A
100
AcDbSymbolTableRecord
100
AcDbDimStyleTableRecord
  2
SU1$4
 70
     0
  4
mm
 47
0.001
 48
0.001
271
     3
272
     3
288
     1
289
     0
340
11
  0
DIMSTYLE
105
E0
102
{ACAD_REACTORS
330
603
330
60F
330
61B
330
5E7
102
}
330
A
100
AcDbSymbolTableRecord
100
AcDbDimStyleTableRecord
  2
SU1$3
 70
     0
  4
mm
 47
0.001
 48
0.001
271
     3
272
     3
288
     1
289
     0
340
11
  0
ENDTAB
  0
TABLE
  2
BLOCK_RECORD
  5
1
330
0
100
AcDbSymbolTable
 70
    34
  0
BLOCK_RECORD
  5
1F
330
1
100
AcDbSymbolTableRecord
100
AcDbBlockTableRecord
  2
*Model_Space
340
22
  0
BLOCK_RECORD
  5
1B
330
1
100
AcDbSymbolTableRecord
100
AcDbBlockTableRecord
  2
*Paper_Space
340
1E
  0
BLOCK_RECORD
  5
23
330
1
100
AcDbSymbolTableRecord
100
AcDbBlockTableRecord
  2
*Paper_Space0
340
26
  0
BLOCK_RECORD
  5
108
330
1
100
AcDbSymbolTableRecord
100
AcDbBlockTableRecord
  2
d-border
340
0
102
{BLKREFS
331
156
102
}
  0
BLOCK_RECORD
  5
15E
330
1
100
AcDbSymbolTableRecord
100
AcDbBlockTableRecord
  2
vac-cup-top
340
0
310
2800000020000000200000000100080000000000000400000000000000000000000000000000000000000000000080000080000000808000800000008000800080800000C0C0C000C0DCC000F0CAA6000020400000206000002080000020A0000020C0000020E00000400000004020000040400000406000004080000040A0
310
000040C0000040E00000600000006020000060400000606000006080000060A0000060C0000060E00000800000008020000080400000806000008080000080A0000080C0000080E00000A0000000A0200000A0400000A0600000A0800000A0A00000A0C00000A0E00000C0000000C0200000C0400000C0600000C0800000C0
310
A00000C0C00000C0E00000E0000000E0200000E0400000E0600000E0800000E0A00000E0C00000E0E00040000000400020004000400040006000400080004000A0004000C0004000E00040200000402020004020400040206000402080004020A0004020C0004020E000404000004040200040404000404060004040800040
310
40A0004040C0004040E00040600000406020004060400040606000406080004060A0004060C0004060E00040800000408020004080400040806000408080004080A0004080C0004080E00040A0000040A0200040A0400040A0600040A0800040A0A00040A0C00040A0E00040C0000040C0200040C0400040C0600040C08000
310
40C0A00040C0C00040C0E00040E0000040E0200040E0400040E0600040E0800040E0A00040E0C00040E0E00080000000800020008000400080006000800080008000A0008000C0008000E00080200000802020008020400080206000802080008020A0008020C0008020E00080400000804020008040400080406000804080
310
008040A0008040C0008040E00080600000806020008060400080606000806080008060A0008060C0008060E00080800000808020008080400080806000808080008080A0008080C0008080E00080A0000080A0200080A0400080A0600080A0800080A0A00080A0C00080A0E00080C0000080C0200080C0400080C0600080C0
310
800080C0A00080C0C00080C0E00080E0000080E0200080E0400080E0600080E0800080E0A00080E0C00080E0E000C0000000C0002000C0004000C0006000C0008000C000A000C000C000C000E000C0200000C0202000C0204000C0206000C0208000C020A000C020C000C020E000C0400000C0402000C0404000C0406000C0
310
408000C040A000C040C000C040E000C0600000C0602000C0604000C0606000C0608000C060A000C060C000C060E000C0800000C0802000C0804000C0806000C0808000C080A000C080C000C080E000C0A00000C0A02000C0A04000C0A06000C0A08000C0A0A000C0A0C000C0A0E000C0C00000C0C02000C0C04000C0C06000
310
C0C08000C0C0A000F0FBFF00A4A0A000808080000000FF0000FF000000FFFF00FF000000FF00FF00FFFF0000FFFFFF0000000000000000000000000000000000000000000000000000000000000000000000000000000000000000000000000000000000000000000000000000000000000000000000000000000000000000
310
F900000000000000000000000000000000000000000000000000000000000000F900000000000000000000000000000000000000000000000000000000000000F900000000000000000000000000000000000000000000000000000000000000F900000000000000000000000000000000000000000000000000000000FCFC
310
FCFCFCFCFCFC00000000000000000000000000000000000000000000FCFC000000F900000000FCFC00000000000000000000000000000000000000FC0000000000F9000000000000FC0000000000000000000000000000000000FC00000000FCFCFCFCFCFC000000FC0000000000000000000000000000000000FC0000FCFC
310
0000F9000000FC000000FCFC0000000000000000000000000000FC0000FC000000FCFCFCFC0000FC000000FC0000000000000000000000000000FC0000FC00FCFC00F90000FC0000FC0000FC00000000000000000000000000FC000000FCFCFC0000F9000000FC00FC000000FC000000000000000000000000FC0000FC00FC
310
000000F9000000FC0000FC0000FC00000000000000F9F9F9F9F9FCF9F9FCF9FCF9F9F9F9F9F9F9F9FCF9FCF9F9FCF9F9F9F9F900000000000000FC0000FC00FC000000F900000000FC00FC0000FC000000000000000000000000FC0000FC00FC000000F9000000FC0000FC0000FC000000000000000000000000FC000000FC
310
00FC0000F90000FCFC00FC000000FC00000000000000000000000000FC0000FC00FCFCFCF900FCFC0000FC0000FC0000000000000000000000000000FC000000FC000000FCFC000000FC000000FC000000000000000000000000000000FC000000FCFC00F90000FCFC00000000FC00000000000000000000000000000000FC
310
00000000FCFCFCFC00000000FCFC0000000000000000000000000000000000FC0000000000F90000000000FC0000000000000000000000000000000000000000FC00000000F9000000FCFC00000000000000000000000000000000000000000000FCFCFCFCFCFCFCFC00000000000000000000000000000000000000000000
310
000000000000F900000000000000000000000000000000000000000000000000000000000000F900000000000000000000000000000000000000000000000000000000000000F900000000000000000000000000000000000000000000000000000000000000F9000000000000000000000000000000000000000000000000
310
0000000000000000000000000000000000000000000000000000000000000000000000000000000000000000000000000000000000000000
1001
ACAD
1000
DesignCenter Data
1002
{
1070
     1
1070
     1
1002
}
  0
BLOCK_RECORD
  5
1C3
330
1
100
AcDbSymbolTableRecord
100
AcDbBlockTableRecord
  2
10-32-THREAD
340
0
310
2800000020000000200000000100080000000000000400000000000000000000000000000000000000000000000080000080000000808000800000008000800080800000C0C0C000C0DCC000F0CAA6000020400000206000002080000020A0000020C0000020E00000400000004020000040400000406000004080000040A0
310
000040C0000040E00000600000006020000060400000606000006080000060A0000060C0000060E00000800000008020000080400000806000008080000080A0000080C0000080E00000A0000000A0200000A0400000A0600000A0800000A0A00000A0C00000A0E00000C0000000C0200000C0400000C0600000C0800000C0
310
A00000C0C00000C0E00000E0000000E0200000E0400000E0600000E0800000E0A00000E0C00000E0E00040000000400020004000400040006000400080004000A0004000C0004000E00040200000402020004020400040206000402080004020A0004020C0004020E000404000004040200040404000404060004040800040
310
40A0004040C0004040E00040600000406020004060400040606000406080004060A0004060C0004060E00040800000408020004080400040806000408080004080A0004080C0004080E00040A0000040A0200040A0400040A0600040A0800040A0A00040A0C00040A0E00040C0000040C0200040C0400040C0600040C08000
310
40C0A00040C0C00040C0E00040E0000040E0200040E0400040E0600040E0800040E0A00040E0C00040E0E00080000000800020008000400080006000800080008000A0008000C0008000E00080200000802020008020400080206000802080008020A0008020C0008020E00080400000804020008040400080406000804080
310
008040A0008040C0008040E00080600000806020008060400080606000806080008060A0008060C0008060E00080800000808020008080400080806000808080008080A0008080C0008080E00080A0000080A0200080A0400080A0600080A0800080A0A00080A0C00080A0E00080C0000080C0200080C0400080C0600080C0
310
800080C0A00080C0C00080C0E00080E0000080E0200080E0400080E0600080E0800080E0A00080E0C00080E0E000C0000000C0002000C0004000C0006000C0008000C000A000C000C000C000E000C0200000C0202000C0204000C0206000C0208000C020A000C020C000C020E000C0400000C0402000C0404000C0406000C0
310
408000C040A000C040C000C040E000C0600000C0602000C0604000C0606000C0608000C060A000C060C000C060E000C0800000C0802000C0804000C0806000C0808000C080A000C080C000C080E000C0A00000C0A02000C0A04000C0A06000C0A08000C0A0A000C0A0C000C0A0E000C0C00000C0C02000C0C04000C0C06000
310
C0C08000C0C0A000F0FBFF00A4A0A000808080000000FF0000FF000000FFFF00FF000000FF00FF00FFFF0000FFFFFF000000000000000000000000000000000000000000000000000000000000000000000000000000000000000000000000F900000000000000000000000000000000000000000000000000000000000000
310
F900000000000000000000000000000000000000000000000000000000000000F900000000000000000000000000000000000000000000000000000000000000F900000000000000000000000000000000000000000000000000000000000000F9000000000000000000000000000000000000000000000000000000000000
310
00F900000000000000000000000000000000000000000000000000000000000000F900000000000000000000000000000000000000000000000000000000000000F90000000000000000000000000000000000000000000000000000000000FFFFFFFFFFFF000000000000000000000000000000000000000000000000FFFF
310
FFFFFFFFFF00FF00000000000000000000000000000000000000000000FF00FF0000F90000FFFFFF0000000000000000000000000000000000000000FF00FF000000F9000000FF00FF00000000000000000000000000000000000000FFFF00000000F900000000FF00FF000000000000000000000000000000000000FFFF00
310
000000F900000000FF00FF0000000000000000000000000000000000FF00FF00000000F90000000000FFFF0000000000000000000000F9F9F9F9F9F9F9F9F9F9F9F9F9F9F9F9F9F9F9F9F9F9F9F9F9F9F9F90000000000000000000000FFFF00000000F90000000000FFFF000000000000000000000000000000000000FFFF
310
00000000F900000000FF00FF000000000000000000000000000000000000FF00FF000000F9000000FFFFFF0000000000000000000000000000000000000000FF00FF0000F9000000FFFF00000000000000000000000000000000000000000000FF00FFFFFFFFFFFFFF00000000000000000000000000000000000000000000
310
0000FFFFFFFFFFFFFF00000000000000000000000000000000000000000000000000000000F900000000000000000000000000000000000000000000000000000000000000F900000000000000000000000000000000000000000000000000000000000000F900000000000000000000000000000000000000000000000000
310
000000000000F900000000000000000000000000000000000000000000000000000000000000F900000000000000000000000000000000000000000000000000000000000000F900000000000000000000000000000000000000000000000000000000000000F9000000000000000000000000000000000000000000000000
310
00000000000000F9000000000000000000000000000000000000000000000000000000000000000000000000000000000000000000000000
102
{BLKREFS
331
253
331
254
331
255
331
256
331
257
331
259
331
269
331
26A
102
}
1001
ACAD
1000
DesignCenter Data
1002
{
1070
     1
1070
     1
1002
}
  0
BLOCK_RECORD
  5
1D8
330
1
100
AcDbSymbolTableRecord
100
AcDbBlockTableRecord
  2
6-32-THREAD
340
0
310
2800000020000000200000000100080000000000000400000000000000000000000000000000000000000000000080000080000000808000800000008000800080800000C0C0C000C0DCC000F0CAA6000020400000206000002080000020A0000020C0000020E00000400000004020000040400000406000004080000040A0
310
000040C0000040E00000600000006020000060400000606000006080000060A0000060C0000060E00000800000008020000080400000806000008080000080A0000080C0000080E00000A0000000A0200000A0400000A0600000A0800000A0A00000A0C00000A0E00000C0000000C0200000C0400000C0600000C0800000C0
310
A00000C0C00000C0E00000E0000000E0200000E0400000E0600000E0800000E0A00000E0C00000E0E00040000000400020004000400040006000400080004000A0004000C0004000E00040200000402020004020400040206000402080004020A0004020C0004020E000404000004040200040404000404060004040800040
310
40A0004040C0004040E00040600000406020004060400040606000406080004060A0004060C0004060E00040800000408020004080400040806000408080004080A0004080C0004080E00040A0000040A0200040A0400040A0600040A0800040A0A00040A0C00040A0E00040C0000040C0200040C0400040C0600040C08000
310
40C0A00040C0C00040C0E00040E0000040E0200040E0400040E0600040E0800040E0A00040E0C00040E0E00080000000800020008000400080006000800080008000A0008000C0008000E00080200000802020008020400080206000802080008020A0008020C0008020E00080400000804020008040400080406000804080
310
008040A0008040C0008040E00080600000806020008060400080606000806080008060A0008060C0008060E00080800000808020008080400080806000808080008080A0008080C0008080E00080A0000080A0200080A0400080A0600080A0800080A0A00080A0C00080A0E00080C0000080C0200080C0400080C0600080C0
310
800080C0A00080C0C00080C0E00080E0000080E0200080E0400080E0600080E0800080E0A00080E0C00080E0E000C0000000C0002000C0004000C0006000C0008000C000A000C000C000C000E000C0200000C0202000C0204000C0206000C0208000C020A000C020C000C020E000C0400000C0402000C0404000C0406000C0
310
408000C040A000C040C000C040E000C0600000C0602000C0604000C0606000C0608000C060A000C060C000C060E000C0800000C0802000C0804000C0806000C0808000C080A000C080C000C080E000C0A00000C0A02000C0A04000C0A06000C0A08000C0A0A000C0A0C000C0A0E000C0C00000C0C02000C0C04000C0C06000
310
C0C08000C0C0A000F0FBFF00A4A0A000808080000000FF0000FF000000FFFF00FF000000FF00FF00FFFF0000FFFFFF00000000000000000000000000000000000000000000000000000000000000000000000000000000000000000000000000F9000000000000000000000000000000000000000000000000000000000000
310
00F900000000000000000000000000000000000000000000000000000000000000F900000000000000000000000000000000000000000000000000000000000000F900000000000000000000000000000000000000000000000000000000000000F90000000000000000000000000000000000000000000000000000000000
310
0000F900000000000000000000000000000000000000000000000000000000000000F90000000000000000000000000000000000000000000000000000000000FFFFF9FFFFFF000000000000000000000000000000000000000000000000FFFF0000F9000000FF00000000000000000000000000000000000000000000FF00
310
FFFFFFFFFFFF0000FF0000000000000000000000000000000000000000FF00FF000000F90000FFFF00FF000000000000000000000000000000000000FF0000FF000000F900000000FF00FF0000000000000000000000000000000000FF00FF00000000F900000000FF00FF0000000000000000000000000000000000FF00FF
310
00000000F900000000FF00FF00000000000000000000F9F9F9F9F9F9F9F9FFF9F9F9F9F9F9F9F9F9F9F9FFF9F9F9F9F9F9F90000000000000000000000FFFF0000000000F900000000FF00FF0000000000000000000000000000000000FF00FF00000000F900000000FF00FF0000000000000000000000000000000000FF00
310
FF00000000F900000000FF00FF0000000000000000000000000000000000FF0000FF000000F9000000FF00FF00000000000000000000000000000000000000FF0000FFFF00F900FFFF00FF000000000000000000000000000000000000000000FF000000FFFFFF0000FF000000000000000000000000000000000000000000
310
0000FFFFFF00F900FFFF000000000000000000000000000000000000000000000000000000FFF9FF000000000000000000000000000000000000000000000000000000000000F900000000000000000000000000000000000000000000000000000000000000F9000000000000000000000000000000000000000000000000
310
00000000000000F900000000000000000000000000000000000000000000000000000000000000F900000000000000000000000000000000000000000000000000000000000000F900000000000000000000000000000000000000000000000000000000000000F90000000000000000000000000000000000000000000000
310
0000000000000000F90000000000000000000000000000000000000000000000000000000000000000000000000000000000000000000000
102
{BLKREFS
331
1DF
331
1E1
102
}
1001
ACAD
1000
DesignCenter Data
1002
{
1070
     1
1070
     1
1002
}
  0
BLOCK_RECORD
  5
26E
330
1
100
AcDbSymbolTableRecord
100
AcDbBlockTableRecord
  2
*D5
340
0
  0
BLOCK_RECORD
  5
27C
330
1
100
AcDbSymbolTableRecord
100
AcDbBlockTableRecord
  2
*D6
340
0
  0
BLOCK_RECORD
  5
28A
330
1
100
AcDbSymbolTableRecord
100
AcDbBlockTableRecord
  2
*D7
340
0
  0
BLOCK_RECORD
  5
298
330
1
100
AcDbSymbolTableRecord
100
AcDbBlockTableRecord
  2
*D8
340
0
  0
BLOCK_RECORD
  5
2A7
330
1
100
AcDbSymbolTableRecord
100
AcDbBlockTableRecord
  2
*D9
340
0
  0
BLOCK_RECORD
  5
2B6
330
1
100
AcDbSymbolTableRecord
100
AcDbBlockTableRecord
  2
*D10
340
0
  0
BLOCK_RECORD
  5
2C4
330
1
100
AcDbSymbolTableRecord
100
AcDbBlockTableRecord
  2
*D11
340
0
  0
BLOCK_RECORD
  5
2D2
330
1
100
AcDbSymbolTableRecord
100
AcDbBlockTableRecord
  2
*D12
340
0
  0
BLOCK_RECORD
  5
2E0
330
1
100
AcDbSymbolTableRecord
100
AcDbBlockTableRecord
  2
*D13
340
0
  0
BLOCK_RECORD
  5
2EE
330
1
100
AcDbSymbolTableRecord
100
AcDbBlockTableRecord
  2
*D14
340
0
  0
BLOCK_RECORD
  5
2FC
330
1
100
AcDbSymbolTableRecord
100
AcDbBlockTableRecord
  2
*D15
340
0
  0
BLOCK_RECORD
  5
30A
330
1
100
AcDbSymbolTableRecord
100
AcDbBlockTableRecord
  2
*D16
340
0
  0
BLOCK_RECORD
  5
318
330
1
100
AcDbSymbolTableRecord
100
AcDbBlockTableRecord
  2
*D17
340
0
  0
BLOCK_RECORD
  5
326
330
1
100
AcDbSymbolTableRecord
100
AcDbBlockTableRecord
  2
*D18
340
0
  0
BLOCK_RECORD
  5
334
330
1
100
AcDbSymbolTableRecord
100
AcDbBlockTableRecord
  2
*D19
340
0
  0
BLOCK_RECORD
  5
342
330
1
100
AcDbSymbolTableRecord
100
AcDbBlockTableRecord
  2
*D20
340
0
  0
BLOCK_RECORD
  5
46C
330
1
100
AcDbSymbolTableRecord
100
AcDbBlockTableRecord
  2
*D21
340
0
  0
BLOCK_RECORD
  5
47B
330
1
100
AcDbSymbolTableRecord
100
AcDbBlockTableRecord
  2
*D22
340
0
  0
BLOCK_RECORD
  5
48A
330
1
100
AcDbSymbolTableRecord
100
AcDbBlockTableRecord
  2
*D23
340
0
  0
BLOCK_RECORD
  5
498
330
1
100
AcDbSymbolTableRecord
100
AcDbBlockTableRecord
  2
*D24
340
0
  0
BLOCK_RECORD
  5
4A6
330
1
100
AcDbSymbolTableRecord
100
AcDbBlockTableRecord
  2
*D25
340
0
  0
BLOCK_RECORD
  5
4B4
330
1
100
AcDbSymbolTableRecord
100
AcDbBlockTableRecord
  2
*D26
340
0
  0
BLOCK_RECORD
  5
4C2
330
1
100
AcDbSymbolTableRecord
100
AcDbBlockTableRecord
  2
*D27
340
0
  0
BLOCK_RECORD
  5
5D9
330
1
100
AcDbSymbolTableRecord
100
AcDbBlockTableRecord
  2
*D28
340
0
  0
BLOCK_RECORD
  5
5E8
330
1
100
AcDbSymbolTableRecord
100
AcDbBlockTableRecord
  2
*D29
340
0
  0
BLOCK_RECORD
  5
604
330
1
100
AcDbSymbolTableRecord
100
AcDbBlockTableRecord
  2
*D30
340
0
  0
BLOCK_RECORD
  5
610
330
1
100
AcDbSymbolTableRecord
100
AcDbBlockTableRecord
  2
*D31
340
0
  0
BLOCK_RECORD
  5
61C
330
1
100
AcDbSymbolTableRecord
100
AcDbBlockTableRecord
  2
*D32
340
0
  0
BLOCK_RECORD
  5
6F1
330
1
100
AcDbSymbolTableRecord
100
AcDbBlockTableRecord
  2
C-BORE-#6
340
0
102
{BLKREFS
331
6F8
331
6F9
331
6FA
331
6FB
331
6FC
331
6FD
331
6FE
331
6FF
331
700
331
701
102
}
1001
ACAD
1000
DesignCenter Data
1002
{
1070
     1
1070
     1
1002
}
  0
ENDTAB
  0
ENDSEC
  0
SECTION
  2
BLOCKS
  0
BLOCK
  5
20
330
1F
100
AcDbEntity
  8
0
100
AcDbBlockBegin
  2
*Model_Space
 70
     0
 10
0.0
 20
0.0
 30
0.0
  3
*Model_Space
  1

  0
ENDBLK
  5
21
330
1F
100
AcDbEntity
  8
0
100
AcDbBlockEnd
  0
BLOCK
  5
1C
330
1B
100
AcDbEntity
 67
     1
  8
0
100
AcDbBlockBegin
  2
*Paper_Space
 70
     0
 10
0.0
 20
0.0
 30
0.0
  3
*Paper_Space
  1

  0
ENDBLK
  5
1D
330
1B
100
AcDbEntity
 67
     1
  8
0
100
AcDbBlockEnd
  0
BLOCK
  5
24
330
23
100
AcDbEntity
  8
0
100
AcDbBlockBegin
  2
*Paper_Space0
 70
     0
 10
0.0
 20
0.0
 30
0.0
  3
*Paper_Space0
  1

  0
ENDBLK
  5
25
330
23
100
AcDbEntity
  8
0
100
AcDbBlockEnd
  0
BLOCK
  5
150
330
108
100
AcDbEntity
  8
0
100
AcDbBlockBegin
  2
d-border
 70
     2
 10
0.0
 20
0.0
 30
0.0
  3
d-border
  1

  0
ATTDEF
  5
109
330
108
100
AcDbEntity
  8
TEXT
100
AcDbText
 10
26.4087
 20
0.8153
 30
0.0
 40
0.06
  1

100
AcDbAttributeDefinition
  3
Enter the Date
  2
DATE
 70
     0
  0
ATTDEF
  5
10A
330
108
100
AcDbEntity
  8
TEXT
100
AcDbText
 10
25.4066
 20
0.8516999999999999
 30
0.0
 40
0.12
  1
S. KYRE
100
AcDbAttributeDefinition
  3
Enter Your Name
  2
NAME
 70
     0
  0
ATTDEF
  5
10B
330
108
100
AcDbEntity
  8
TEXT
100
AcDbText
 10
27.3318
 20
0.1839
 30
0.0
 40
0.12
  1

100
AcDbAttributeDefinition
  3
Enter Drawing Scale
  2
SCALE
 70
     0
  0
ATTDEF
  5
10C
330
108
100
AcDbEntity
  8
TEXT
100
AcDbText
 10
28.97149999999999
 20
0.4692000000000001
 30
0.0
 40
0.12
  1

100
AcDbAttributeDefinition
  3
Enter File Name
  2
FILE
 70
     0
  0
ATTDEF
  5
10D
330
108
100
AcDbEntity
  8
TEXT
100
AcDbText
 10
27.3257
 20
0.4571
 30
0.0
 40
0.12
  1

100
AcDbAttributeDefinition
  3
Enter Drawing Directory
  2
DIRECTORY
 70
     0
  0
TEXT
  5
10E
330
108
100
AcDbEntity
  8
TEXT
100
AcDbText
 10
26.05617561769021
 20
1.361504946102674
 30
0.0
 40
0.065
  1
  %%P 0.5%%D
  7
ADESK2
100
AcDbText
  0
TEXT
  5
10F
330
108
100
AcDbEntity
  8
TEXT
100
AcDbText
 10
26.05617561769021
 20
1.466742946102673
 30
0.0
 40
0.065
  1
ANGULAR
  7
ADESK2
100
AcDbText
  0
TEXT
  5
110
330
108
100
AcDbEntity
  8
TEXT
100
AcDbText
 10
25.26291585578544
 20
1.153743946102673
 30
0.0
 40
0.065
  1
DO NOT SCALE DRAWING
  7
ADESK2
 72
     1
 11
25.8773206176902
 21
1.153743946102673
 31
0.0
100
AcDbText
  0
TEXT
  5
111
330
108
100
AcDbEntity
  8
TEXT
100
AcDbText
 10
25.19227861769021
 20
1.256266946102674
 30
0.0
 40
0.065
  1
.XXX %%P .005
  7
ADESK2
100
AcDbText
  0
TEXT
  5
112
330
108
100
AcDbEntity
  8
TEXT
100
AcDbText
 10
25.19227861769021
 20
1.361504946102674
 30
0.0
 40
0.065
  1
.XX  %%P .05
  7
ADESK2
100
AcDbText
  0
TEXT
  5
113
330
108
100
AcDbEntity
  8
TEXT
100
AcDbText
 10
25.19227861769021
 20
1.466742946102673
 30
0.0
 40
0.065
  1
DECIMALS
  7
ADESK2
100
AcDbText
  0
TEXT
  5
114
330
108
100
AcDbEntity
  8
TEXT
100
AcDbText
 10
25.57863014149973
 20
1.574612946102674
 30
0.0
 40
0.065
  1
TOLERANCES
  7
ADESK2
 72
     1
 11
25.8773206176902
 21
1.574612946102674
 31
0.0
100
AcDbText
  0
TEXT
  5
115
330
108
100
AcDbEntity
  8
TEXT
100
AcDbText
 10
25.18089204626163
 20
1.679850946102674
 30
0.0
 40
0.065
  1
DIMENSIONS ARE IN INCHES
  7
ADESK2
 72
     1
 11
25.8773206176902
 21
1.679850946102674
 31
0.0
100
AcDbText
  0
TEXT
  5
116
330
108
100
AcDbEntity
  8
TEXT
100
AcDbText
 10
25.10660633197592
 20
1.785088946102673
 30
0.0
 40
0.065
  1
UNLESS OTHERWISE SPECIFIED:
  7
ADESK2
 72
     1
 11
25.8773206176902
 21
1.785088946102673
 31
0.0
100
AcDbText
  0
TEXT
  5
117
330
108
100
AcDbEntity
  8
BORDER
100
AcDbText
 10
27.00116736861396
 20
0.4347781652093627
 30
0.0
 40
0.2
  1
D
100
AcDbText
  0
TEXT
  5
118
330
108
100
AcDbEntity
  8
BORDER
100
AcDbText
 10
27.56486373285813
 20
1.575566135628289
 30
0.0
 40
0.15
  1
HIGH ENERGY PHYSICS
100
AcDbText
  0
LINE
  5
119
330
108
100
AcDbEntity
  8
BORDER
100
AcDbLine
 10
0.6713999999999999
 20
20.1249954914957
 30
0.0
 11
31.17142006958448
 21
20.1249954914957
 31
0.0
  0
TEXT
  5
11A
330
108
100
AcDbEntity
  8
TEXT
100
AcDbText
 10
27.3283925341323
 20
0.6653543307085395
 30
0.0
 40
0.075
  1
DIRECTORY
100
AcDbText
  0
LINE
  5
11B
330
108
100
AcDbEntity
  8
BORDER
100
AcDbLine
 10
0.6713999999999999
 20
0.125
 30
0.0
 11
31.17142006958448
 21
0.125
 31
0.0
  0
LINE
  5
11C
330
108
100
AcDbEntity
  8
BORDER
100
AcDbLine
 10
0.6714000000000001
 20
20.12499549149571
 30
0.0
 11
0.6714000000000001
 21
0.125
 31
0.0
  0
LINE
  5
11D
330
108
100
AcDbEntity
  8
BORDER
100
AcDbLine
 10
31.17142006958448
 20
0.125
 30
0.0
 11
31.17142006958448
 21
20.1249954914957
 31
0.0
  0
LINE
  5
11E
330
108
100
AcDbEntity
  8
BORDER
100
AcDbLine
 10
24.87628038545887
 20
2.324146981627205
 30
0.0
 11
31.14911824215376
 21
2.324146981627205
 31
0.0
  0
TEXT
  5
11F
330
108
100
AcDbEntity
  8
BORDER
100
AcDbText
 10
25.05528511968987
 20
2.049227858145542
 30
0.0
 40
0.15
  1
UNIVERSITY OF CALIFORNIA @ SANTA BARBARA
100
AcDbText
  0
TEXT
  5
120
330
108
100
AcDbEntity
  8
TEXT
100
AcDbText
 10
24.94563061769021
 20
0.9799639461026732
 30
0.0
 40
0.065
  1
DRAWN
  7
ADESK2
100
AcDbText
  0
LINE
  5
121
330
108
100
AcDbEntity
  8
BORDER
100
AcDbLine
 10
24.87732061769021
 20
0.125
 30
0.0
 11
24.87732061769021
 21
2.324146981627205
 31
0.0
  0
LINE
  5
122
330
108
100
AcDbEntity
  8
BORDER
100
AcDbLine
 10
24.87732061769021
 20
1.901500946102673
 30
0.0
 11
31.14911824215376
 21
1.901500946102673
 31
0.0
  0
LINE
  5
123
330
108
100
AcDbEntity
  8
TEXT
100
AcDbLine
 10
24.87732061769021
 20
0.4665009461026735
 30
0.0
 11
26.87732061769021
 21
0.4665009461026735
 31
0.0
  0
LINE
  5
124
330
108
100
AcDbEntity
  8
TEXT
100
AcDbLine
 10
24.87732061769021
 20
0.781500946102673
 30
0.0
 11
31.14911824215376
 21
0.781500946102673
 31
0.0
  0
LINE
  5
125
330
108
100
AcDbEntity
  8
TEXT
100
AcDbLine
 10
26.87732061769021
 20
0.401500946102674
 30
0.0
 11
31.14911824215376
 21
0.401500946102674
 31
0.0
  0
LINE
  5
126
330
108
100
AcDbEntity
  8
BORDER
100
AcDbLine
 10
26.87732061769021
 20
1.401500946102673
 30
0.0
 11
31.14911824215376
 21
1.401500946102673
 31
0.0
  0
LINE
  5
127
330
108
100
AcDbEntity
  8
BORDER
100
AcDbLine
 10
26.87732061769021
 20
0.125
 30
0.0
 11
26.87732061769021
 21
1.901500946102673
 31
0.0
  0
LINE
  5
128
330
108
100
AcDbEntity
  8
TEXT
100
AcDbLine
 10
27.87732061769021
 20
0.125
 30
0.0
 11
27.87732061769021
 21
0.401500946102674
 31
0.0
  0
LINE
  5
129
330
108
100
AcDbEntity
  8
TEXT
100
AcDbLine
 10
29.37732061769021
 20
0.125
 30
0.0
 11
29.37732061769021
 21
0.401500946102674
 31
0.0
  0
LINE
  5
12A
330
108
100
AcDbEntity
  8
TEXT
100
AcDbLine
 10
27.2573206176902
 20
0.401500946102674
 30
0.0
 11
27.2573206176902
 21
0.781500946102673
 31
0.0
  0
LINE
  5
12B
330
108
100
AcDbEntity
  8
TEXT
100
AcDbLine
 10
28.37732061769021
 20
0.401500946102674
 30
0.0
 11
28.37732061769021
 21
0.781500946102673
 31
0.0
  0
LINE
  5
12C
330
108
100
AcDbEntity
  8
TEXT
100
AcDbLine
 10
30.74732061769021
 20
0.401500946102674
 30
0.0
 11
30.74732061769021
 21
0.781500946102673
 31
0.0
  0
TEXT
  5
12D
330
108
100
AcDbEntity
  8
TEXT
100
AcDbText
 10
26.92962061769021
 20
0.2440009461026733
 30
0.0
 40
0.065
  1
SCALE
  7
ADESK2
100
AcDbText
  0
TEXT
  5
12E
330
108
100
AcDbEntity
  8
TEXT
100
AcDbText
 10
29.43012061769021
 20
0.2440009461026733
 30
0.0
 40
0.065
  1
SHEET
  7
ADESK2
100
AcDbText
  0
TEXT
  5
12F
330
108
100
AcDbEntity
  8
TEXT
100
AcDbText
 10
26.96522061769021
 20
0.6674009461026725
 30
0.0
 40
0.065
  1
SIZE
  7
ADESK2
100
AcDbText
  0
TEXT
  5
130
330
108
100
AcDbEntity
  8
TEXT
100
AcDbText
 10
28.44832061769021
 20
0.6674009461026725
 30
0.0
 40
0.065
  1
DWG NO.
  7
ADESK2
100
AcDbText
  0
TEXT
  5
131
330
108
100
AcDbEntity
  8
TEXT
100
AcDbText
 10
30.8278206176902
 20
0.6674009461026725
 30
0.0
 40
0.065
  1
REV
  7
ADESK2
100
AcDbText
  0
LINE
  5
132
330
108
100
AcDbEntity
  8
TEXT
100
AcDbLine
 10
26.1080494845343
 20
19.80229554512702
 30
0.0
 11
31.16235579564198
 21
19.80229554512702
 31
0.0
  0
LINE
  5
133
330
108
100
AcDbEntity
  8
TEXT
100
AcDbLine
 10
26.1080494845343
 20
19.55229554512702
 30
0.0
 11
31.16235579564198
 21
19.55229554512702
 31
0.0
  0
LINE
  5
134
330
108
100
AcDbEntity
  8
TEXT
100
AcDbLine
 10
26.1080494845343
 20
20.11235949123699
 30
0.0
 11
26.1080494845343
 21
19.55229554512702
 31
0.0
  0
LINE
  5
135
330
108
100
AcDbEntity
  8
TEXT
100
AcDbLine
 10
26.49830190676567
 20
19.55229554512702
 30
0.0
 11
26.49830190676567
 21
19.80229554512702
 31
0.0
  0
LINE
  5
136
330
108
100
AcDbEntity
  8
TEXT
100
AcDbLine
 10
29.23830190676567
 20
19.55229554512702
 30
0.0
 11
29.23830190676567
 21
19.80229554512702
 31
0.0
  0
LINE
  5
137
330
108
100
AcDbEntity
  8
TEXT
100
AcDbLine
 10
30.11830190676567
 20
19.55229554512702
 30
0.0
 11
30.11830190676567
 21
19.80229554512702
 31
0.0
  0
TEXT
  5
138
330
108
100
AcDbEntity
  8
TEXT
100
AcDbText
 10
28.32850190676566
 20
19.88479554512703
 30
0.0
 40
0.065
  1
REVISIONS
  7
ADESK2
100
AcDbText
  0
TEXT
  5
139
330
108
100
AcDbEntity
  8
TEXT
100
AcDbText
 10
26.19840190676566
 20
19.64259554512702
 30
0.0
 40
0.065
  1
REV
  7
ADESK2
100
AcDbText
  0
TEXT
  5
13A
330
108
100
AcDbEntity
  8
TEXT
100
AcDbText
 10
27.50030190676567
 20
19.64259554512702
 30
0.0
 40
0.065
  1
DESCRIPTION
  7
ADESK2
100
AcDbText
  0
TEXT
  5
13B
330
108
100
AcDbEntity
  8
TEXT
100
AcDbText
 10
29.56600190676567
 20
19.64259554512702
 30
0.0
 40
0.065
  1
DATE
  7
ADESK2
100
AcDbText
  0
TEXT
  5
13C
330
108
100
AcDbEntity
  8
TEXT
100
AcDbText
 10
30.35970190676567
 20
19.64259554512702
 30
0.0
 40
0.065
  1
APPROVED
  7
ADESK2
100
AcDbText
  0
LINE
  5
13D
330
108
100
AcDbEntity
  8
TEXT
100
AcDbLine
 10
24.87732061769021
 20
1.091500946102673
 30
0.0
 11
26.87732061769021
 21
1.091500946102673
 31
0.0
  0
TEXT
  5
13E
330
108
100
AcDbEntity
  8
TEXT
100
AcDbText
 10
24.95732061769021
 20
0.6715009461026736
 30
0.0
 40
0.065
  1
CHECKED
  7
ADESK2
100
AcDbText
  0
TEXT
  5
13F
330
108
100
AcDbEntity
  8
TEXT
100
AcDbText
 10
24.95732061769021
 20
0.3565009461026722
 30
0.0
 40
0.065
  1
DESIGN
  7
ADESK2
100
AcDbText
  0
LINE
  5
140
330
108
100
AcDbEntity
  8
TEXT
100
AcDbLine
 10
26.37730461769021
 20
1.091500946102673
 30
0.0
 11
26.37730461769021
 21
0.125
 31
0.0
  0
TEXT
  5
141
330
108
100
AcDbEntity
  8
TEXT
100
AcDbText
 10
26.50072361769021
 20
0.9749509461026732
 30
0.0
 40
0.065
  1
DATE
  7
ADESK2
100
AcDbText
  0
TEXT
  5
142
330
108
100
AcDbEntity
  8
TEXT
100
AcDbText
 10
30.26029161769021
 20
0.2443769461026726
 30
0.0
 40
0.065
  1
OF
  7
ADESK2
100
AcDbText
  0
LINE
  5
143
330
108
100
AcDbEntity
  8
TEXT
100
AcDbLine
 10
3.2339
 20
19.3749954914957
 30
0.0
 11
0.6713999999999999
 21
19.3749954914957
 31
0.0
  0
LINE
  5
144
330
108
100
AcDbEntity
  8
TEXT
100
AcDbLine
 10
3.2339
 20
19.6249954914957
 30
0.0
 11
3.2339
 21
19.3749954914957
 31
0.0
  0
TEXT
  5
145
330
108
100
AcDbEntity
  8
TEXT
100
AcDbText
 10
0.8589
 20
19.43982308174734
 30
0.0
 40
0.1
  1
THIRD ANGLE PROJECTION
100
AcDbText
  0
LINE
  5
146
330
108
100
AcDbEntity
  8
TEXT
100
AcDbLine
 10
2.302663037562576
 20
20.04895638895508
 30
0.0
 11
2.302663037562576
 21
19.67395638895508
 31
0.0
  0
LINE
  5
147
330
108
100
AcDbEntity
  8
TEXT
100
AcDbLine
 10
1.818021382375997
 20
19.76770638895508
 30
0.0
 11
1.818021382375997
 21
19.95520638895508
 31
0.0
  0
LINE
  5
148
330
108
100
AcDbEntity
  8
TEXT
100
AcDbLine
 10
1.818021382375997
 20
19.76770638895508
 30
0.0
 11
2.302663037562576
 21
19.67395638895508
 31
0.0
  0
LINE
  5
149
330
108
100
AcDbEntity
  8
TEXT
100
AcDbLine
 10
1.818021382375997
 20
19.95520638895508
 30
0.0
 11
2.302663037562576
 21
20.04895638895508
 31
0.0
  0
LINE
  5
14A
330
108
100
AcDbEntity
  8
TEXT
  6
CENTER
100
AcDbLine
 10
1.349271382375997
 20
19.63277452344833
 30
0.0
 11
1.349271382375997
 21
20.1006513366765
 31
0.0
  0
LINE
  5
14B
330
108
100
AcDbEntity
  8
TEXT
  6
CENTER
100
AcDbLine
 10
1.115351193048235
 20
19.86145638895508
 30
0.0
 11
2.568021382375997
 21
19.86145638895508
 31
0.0
  0
CIRCLE
  5
14C
330
108
100
AcDbEntity
  8
TEXT
100
AcDbCircle
 10
1.349271382375997
 20
19.86145638895508
 30
0.0
 40
0.09375
  0
CIRCLE
  5
14D
330
108
100
AcDbEntity
  8
TEXT
100
AcDbCircle
 10
1.349271382375997
 20
19.86145638895508
 30
0.0
 40
0.1875
  0
LINE
  5
14E
330
108
100
AcDbEntity
  8
TEXT
100
AcDbLine
 10
3.2339
 20
19.6249954914957
 30
0.0
 11
3.2339
 21
20.1249954914957
 31
0.0
  0
LINE
  5
14F
330
108
100
AcDbEntity
  8
TEXT
100
AcDbLine
 10
0.6713999999999999
 20
19.6249954914957
 30
0.0
 11
3.2339
 21
19.6249954914957
 31
0.0
  0
ENDBLK
  5
151
330
108
100
AcDbEntity
  8
0
100
AcDbBlockEnd
  0
BLOCK
  5
164
330
15E
100
AcDbEntity
  8
0
100
AcDbBlockBegin
  2
vac-cup-top
 70
     0
 10
0.0
 20
0.0
 30
0.0
  3
vac-cup-top
  1

  0
LINE
  5
15F
330
15E
100
AcDbEntity
  8
CENTER
100
AcDbLine
 10
-0.3187493907822443
 20
0.0
 30
0.0
 11
0.328347549114099
 21
0.0
 31
0.0
  0
LINE
  5
160
330
15E
100
AcDbEntity
  8
CENTER
100
AcDbLine
 10
0.0
 20
0.3141158026301838
 30
0.0
 11
0.0
 21
-0.3079345452594282
 31
0.0
  0
CIRCLE
  5
161
330
15E
100
AcDbEntity
  8
VAC-CUP
100
AcDbCircle
 10
0.0
 20
0.0
 30
0.0
 40
0.225
  0
CIRCLE
  5
162
330
15E
100
AcDbEntity
  8
VAC-CUP
100
AcDbCircle
 10
0.0
 20
0.0
 30
0.0
 40
0.1487704126543718
  0
CIRCLE
  5
163
330
15E
100
AcDbEntity
  8
VAC-CUP
100
AcDbCircle
 10
0.0
 20
0.0
 30
0.0
 40
0.1
  0
ENDBLK
  5
165
330
15E
100
AcDbEntity
  8
0
100
AcDbBlockEnd
  0
BLOCK
  5
1C4
330
1C3
100
AcDbEntity
  8
0
100
AcDbBlockBegin
  2
10-32-THREAD
 70
     0
 10
0.0
 20
0.0
 30
0.0
  3
10-32-THREAD
  1

  0
LINE
  5
1C6
330
1C3
100
AcDbEntity
  8
CENTER
100
AcDbLine
 10
0.0
 20
-0.1975376167524771
 30
0.0
 11
0.0
 21
0.1944296551450009
 31
0.0
  0
CIRCLE
  5
1C7
330
1C3
100
AcDbEntity
  8
handle
  6
HIDDEN
100
AcDbCircle
 10
0.0
 20
0.0
 30
0.0
 40
0.095
  0
CIRCLE
  5
1C8
330
1C3
100
AcDbEntity
  8
handle
100
AcDbCircle
 10
0.0
 20
0.0
 30
0.0
 40
0.078
  0
LINE
  5
1C9
330
1C3
100
AcDbEntity
  8
CENTER
100
AcDbLine
 10
-0.1836830594637462
 20
0.0
 30
0.0
 11
0.1899617356404803
 21
0.0
 31
0.0
  0
ENDBLK
  5
1C5
330
1C3
100
AcDbEntity
  8
0
100
AcDbBlockEnd
  0
BLOCK
  5
1D9
330
1D8
100
AcDbEntity
  8
0
100
AcDbBlockBegin
  2
6-32-THREAD
 70
     0
 10
0.0
 20
0.0
 30
0.0
  3
6-32-THREAD
  1

  0
CIRCLE
  5
1DB
330
1D8
100
AcDbEntity
  8
0
  6
HIDDEN
100
AcDbCircle
 10
0.0
 20
0.0
 30
0.0
 40
0.069
  0
LINE
  5
1DC
330
1D8
100
AcDbEntity
  8
CENTER
100
AcDbLine
 10
0.0
 20
-0.1279832183029228
 30
0.0
 11
0.0
 21
0.1336872602465959
 31
0.0
  0
LINE
  5
1DD
330
1D8
100
AcDbEntity
  8
CENTER
100
AcDbLine
 10
-0.1318975397983451
 20
0.0
 30
0.0
 11
0.1232160353974194
 21
0.0
 31
0.0
  0
CIRCLE
  5
1DE
330
1D8
100
AcDbEntity
  8
0
100
AcDbCircle
 10
0.0
 20
0.0
 30
0.0
 40
0.052
  0
ENDBLK
  5
1DA
330
1D8
100
AcDbEntity
  8
0
100
AcDbBlockEnd
  0
BLOCK
  5
279
330
26E
100
AcDbEntity
  8
0
100
AcDbBlockBegin
  2
*D5
 70
     1
 10
0.0
 20
0.0
 30
0.0
  3
*D5
  1

  0
LINE
  5
5AD
330
26E
100
AcDbEntity
  8
DIM
 62
     0
370
    -2
100
AcDbLine
 10
11.74999996214154
 20
16.3836872604981
 30
0.0
 11
11.74999996214154
 21
16.8723523782417
 31
0.0
  0
LINE
  5
5AE
330
26E
100
AcDbEntity
  8
DIM
 62
     0
370
    -2
100
AcDbLine
 10
10.99999996214154
 20
16.4375000002515
 30
0.0
 11
10.99999996214154
 21
16.8723523782417
 31
0.0
  0
LINE
  5
5AF
330
26E
100
AcDbEntity
  8
DIM
 62
     0
370
    -2
100
AcDbLine
 10
11.92999996214154
 20
16.6923523782417
 30
0.0
 11
12.10999996214154
 21
16.6923523782417
 31
0.0
  0
LINE
  5
5B0
330
26E
100
AcDbEntity
  8
DIM
 62
     0
370
    -2
100
AcDbLine
 10
10.81999996214154
 20
16.6923523782417
 30
0.0
 11
10.63999996214154
 21
16.6923523782417
 31
0.0
  0
SOLID
  5
5B1
330
26E
100
AcDbEntity
  8
DIM
 62
     0
100
AcDbTrace
 10
11.92999996214154
 20
16.7223523782417
 30
0.0
 11
11.92999996214154
 21
16.6623523782417
 31
0.0
 12
11.74999996214154
 22
16.6923523782417
 32
0.0
 13
11.74999996214154
 23
16.6923523782417
 33
0.0
  0
SOLID
  5
5B2
330
26E
100
AcDbEntity
  8
DIM
 62
     0
100
AcDbTrace
 10
10.81999996214154
 20
16.7223523782417
 30
0.0
 11
10.81999996214154
 21
16.6623523782417
 31
0.0
 12
10.99999996214154
 22
16.6923523782417
 32
0.0
 13
10.99999996214154
 23
16.6923523782417
 33
0.0
  0
MTEXT
  5
5B3
330
26E
100
AcDbEntity
  8
DIM
 62
     0
100
AcDbMText
 10
10.21999996214154
 20
16.6923523782417
 30
0.0
 40
0.18
 41
0.0
 71
     5
 72
     1
  1
\A1;0.750
 73
     1
 44
1.0
  0
POINT
  5
5B4
330
26E
100
AcDbEntity
  8
Defpoints
 62
     0
100
AcDbPoint
 10
11.74999996214154
 20
16.32118726049809
 30
0.0
  0
POINT
  5
5B5
330
26E
100
AcDbEntity
  8
Defpoints
 62
     0
100
AcDbPoint
 10
10.99999996214154
 20
16.3750000002515
 30
0.0
  0
POINT
  5
5B6
330
26E
100
AcDbEntity
  8
Defpoints
 62
     0
100
AcDbPoint
 10
10.99999996214154
 20
16.6923523782417
 30
0.0
  0
ENDBLK
  5
27A
330
26E
100
AcDbEntity
  8
0
100
AcDbBlockEnd
  0
BLOCK
  5
287
330
27C
100
AcDbEntity
  8
0
100
AcDbBlockBegin
  2
*D6
 70
     1
 10
0.0
 20
0.0
 30
0.0
  3
*D6
  1

  0
LINE
  5
4F7
330
27C
100
AcDbEntity
  8
DIM
 62
     0
370
    -2
100
AcDbLine
 10
19.74999996214154
 20
16.3836872604981
 30
0.0
 11
19.74999996214154
 21
17.38917049319086
 31
0.0
  0
LINE
  5
4F8
330
27C
100
AcDbEntity
  8
DIM
 62
     0
370
    -2
100
AcDbLine
 10
10.99999996214154
 20
16.4375000002515
 30
0.0
 11
10.99999996214154
 21
17.38917049319086
 31
0.0
  0
LINE
  5
4F9
330
27C
100
AcDbEntity
  8
DIM
 62
     0
370
    -2
100
AcDbLine
 10
19.56999996214154
 20
17.20917049319086
 30
0.0
 11
15.80999996214154
 21
17.20917049319086
 31
0.0
  0
LINE
  5
4FA
330
27C
100
AcDbEntity
  8
DIM
 62
     0
370
    -2
100
AcDbLine
 10
11.17999996214154
 20
17.20917049319086
 30
0.0
 11
14.93999996214154
 21
17.20917049319086
 31
0.0
  0
SOLID
  5
4FB
330
27C
100
AcDbEntity
  8
DIM
 62
     0
100
AcDbTrace
 10
19.56999996214154
 20
17.23917049319086
 30
0.0
 11
19.56999996214154
 21
17.17917049319086
 31
0.0
 12
19.74999996214154
 22
17.20917049319086
 32
0.0
 13
19.74999996214154
 23
17.20917049319086
 33
0.0
  0
SOLID
  5
4FC
330
27C
100
AcDbEntity
  8
DIM
 62
     0
100
AcDbTrace
 10
11.17999996214154
 20
17.23917049319086
 30
0.0
 11
11.17999996214154
 21
17.17917049319086
 31
0.0
 12
10.99999996214154
 22
17.20917049319086
 32
0.0
 13
10.99999996214154
 23
17.20917049319086
 33
0.0
  0
MTEXT
  5
4FD
330
27C
100
AcDbEntity
  8
DIM
 62
     0
100
AcDbMText
 10
15.37499996214154
 20
17.20917049319086
 30
0.0
 40
0.18
 41
0.0
 71
     5
 72
     1
  1
\A1;8.750
 73
     1
 44
1.0
  0
POINT
  5
4FE
330
27C
100
AcDbEntity
  8
Defpoints
 62
     0
100
AcDbPoint
 10
19.74999996214154
 20
16.32118726049809
 30
0.0
  0
POINT
  5
4FF
330
27C
100
AcDbEntity
  8
Defpoints
 62
     0
100
AcDbPoint
 10
10.99999996214154
 20
16.3750000002515
 30
0.0
  0
POINT
  5
500
330
27C
100
AcDbEntity
  8
Defpoints
 62
     0
100
AcDbPoint
 10
10.99999996214154
 20
17.20917049319086
 30
0.0
  0
ENDBLK
  5
288
330
27C
100
AcDbEntity
  8
0
100
AcDbBlockEnd
  0
BLOCK
  5
295
330
28A
100
AcDbEntity
  8
0
100
AcDbBlockBegin
  2
*D7
 70
     1
 10
0.0
 20
0.0
 30
0.0
  3
*D7
  1

  0
LINE
  5
4ED
330
28A
100
AcDbEntity
  8
DIM
 62
     0
370
    -2
100
AcDbLine
 10
20.49999996214154
 20
16.4375000002515
 30
0.0
 11
20.49999996214154
 21
17.74501247092201
 31
0.0
  0
LINE
  5
4EE
330
28A
100
AcDbEntity
  8
DIM
 62
     0
370
    -2
100
AcDbLine
 10
10.99999996214154
 20
16.4375000002515
 30
0.0
 11
10.99999996214154
 21
17.74501247092201
 31
0.0
  0
LINE
  5
4EF
330
28A
100
AcDbEntity
  8
DIM
 62
     0
370
    -2
100
AcDbLine
 10
20.31999996214154
 20
17.56501247092201
 30
0.0
 11
16.16999996214154
 21
17.56501247092201
 31
0.0
  0
LINE
  5
4F0
330
28A
100
AcDbEntity
  8
DIM
 62
     0
370
    -2
100
AcDbLine
 10
11.17999996214154
 20
17.56501247092201
 30
0.0
 11
15.32999996214154
 21
17.56501247092201
 31
0.0
  0
SOLID
  5
4F1
330
28A
100
AcDbEntity
  8
DIM
 62
     0
100
AcDbTrace
 10
20.31999996214154
 20
17.59501247092201
 30
0.0
 11
20.31999996214154
 21
17.53501247092201
 31
0.0
 12
20.49999996214154
 22
17.56501247092201
 32
0.0
 13
20.49999996214154
 23
17.56501247092201
 33
0.0
  0
SOLID
  5
4F2
330
28A
100
AcDbEntity
  8
DIM
 62
     0
100
AcDbTrace
 10
11.17999996214154
 20
17.59501247092201
 30
0.0
 11
11.17999996214154
 21
17.53501247092201
 31
0.0
 12
10.99999996214154
 22
17.56501247092201
 32
0.0
 13
10.99999996214154
 23
17.56501247092201
 33
0.0
  0
MTEXT
  5
4F3
330
28A
100
AcDbEntity
  8
DIM
 62
     0
100
AcDbMText
 10
15.74999996214154
 20
17.56501247092201
 30
0.0
 40
0.18
 41
0.0
 71
     5
 72
     1
  1
\A1;9.500
 73
     1
 44
1.0
  0
POINT
  5
4F4
330
28A
100
AcDbEntity
  8
Defpoints
 62
     0
100
AcDbPoint
 10
20.49999996214154
 20
16.3750000002515
 30
0.0
  0
POINT
  5
4F5
330
28A
100
AcDbEntity
  8
Defpoints
 62
     0
100
AcDbPoint
 10
10.99999996214154
 20
16.3750000002515
 30
0.0
  0
POINT
  5
4F6
330
28A
100
AcDbEntity
  8
Defpoints
 62
     0
100
AcDbPoint
 10
10.99999996214154
 20
17.56501247092201
 30
0.0
  0
ENDBLK
  5
296
330
28A
100
AcDbEntity
  8
0
100
AcDbBlockEnd
  0
BLOCK
  5
2A4
330
298
100
AcDbEntity
  8
0
100
AcDbBlockBegin
  2
*D8
 70
     1
 10
0.0
 20
0.0
 30
0.0
  3
*D8
  1

  0
LINE
  5
5CD
330
298
100
AcDbEntity
  8
DIM
 62
     0
370
    -2
100
AcDbLine
 10
19.93571599753896
 20
16.1875000002515
 30
0.0
 11
21.02031522716877
 21
16.1875000002515
 31
0.0
  0
LINE
  5
5CE
330
298
100
AcDbEntity
  8
DIM
 62
     0
370
    -2
100
AcDbLine
 10
20.56249996214154
 20
16.3750000002515
 30
0.0
 11
21.02031522716877
 21
16.3750000002515
 31
0.0
  0
LINE
  5
5CF
330
298
100
AcDbEntity
  8
DIM
 62
     0
370
    -2
100
AcDbLine
 10
20.84031522716877
 20
16.0075000002515
 30
0.0
 11
20.84031522716877
 21
15.8275000002515
 31
0.0
  0
LINE
  5
5D0
330
298
100
AcDbEntity
  8
DIM
 62
     0
370
    -2
100
AcDbLine
 10
20.84031522716877
 20
16.5550000002515
 30
0.0
 11
20.84031522716877
 21
16.7350000002515
 31
0.0
  0
LINE
  5
5D1
330
298
100
AcDbEntity
  8
DIM
 62
     0
370
    -2
100
AcDbLine
 10
20.84031522716877
 20
16.7350000002515
 30
0.0
 11
21.02031522716877
 21
16.7350000002515
 31
0.0
  0
SOLID
  5
5D2
330
298
100
AcDbEntity
  8
DIM
 62
     0
100
AcDbTrace
 10
20.81031522716877
 20
16.0075000002515
 30
0.0
 11
20.87031522716877
 21
16.0075000002515
 31
0.0
 12
20.84031522716877
 22
16.1875000002515
 32
0.0
 13
20.84031522716877
 23
16.1875000002515
 33
0.0
  0
SOLID
  5
5D3
330
298
100
AcDbEntity
  8
DIM
 62
     0
100
AcDbTrace
 10
20.81031522716877
 20
16.5550000002515
 30
0.0
 11
20.87031522716877
 21
16.5550000002515
 31
0.0
 12
20.84031522716877
 22
16.3750000002515
 32
0.0
 13
20.84031522716877
 23
16.3750000002515
 33
0.0
  0
MTEXT
  5
5D4
330
298
100
AcDbEntity
  8
DIM
 62
     0
100
AcDbMText
 10
21.42531522716877
 20
16.7350000002515
 30
0.0
 40
0.18
 41
0.0
 71
     5
 72
     1
  1
\A1;0.188
 73
     1
 44
1.0
  0
POINT
  5
5D5
330
298
100
AcDbEntity
  8
Defpoints
 62
     0
100
AcDbPoint
 10
19.87321599753896
 20
16.1875000002515
 30
0.0
  0
POINT
  5
5D6
330
298
100
AcDbEntity
  8
Defpoints
 62
     0
100
AcDbPoint
 10
20.49999996214154
 20
16.3750000002515
 30
0.0
  0
POINT
  5
5D7
330
298
100
AcDbEntity
  8
Defpoints
 62
     0
100
AcDbPoint
 10
20.84031522716877
 20
16.3750000002515
 30
0.0
  0
ENDBLK
  5
2A5
330
298
100
AcDbEntity
  8
0
100
AcDbBlockEnd
  0
BLOCK
  5
2B3
330
2A7
100
AcDbEntity
  8
0
100
AcDbBlockBegin
  2
*D9
 70
     1
 10
0.0
 20
0.0
 30
0.0
  3
*D9
  1

  0
LINE
  5
5C2
330
2A7
100
AcDbEntity
  8
DIM
 62
     0
370
    -2
100
AcDbLine
 10
20.56249996214154
 20
16.0000000002515
 30
0.0
 11
22.16455785949205
 21
16.0000000002515
 31
0.0
  0
LINE
  5
5C3
330
2A7
100
AcDbEntity
  8
DIM
 62
     0
370
    -2
100
AcDbLine
 10
20.56249996214154
 20
16.3750000002515
 30
0.0
 11
22.16455785949205
 21
16.3750000002515
 31
0.0
  0
LINE
  5
5C4
330
2A7
100
AcDbEntity
  8
DIM
 62
     0
370
    -2
100
AcDbLine
 10
21.98455785949205
 20
15.8200000002515
 30
0.0
 11
21.98455785949205
 21
15.6400000002515
 31
0.0
  0
LINE
  5
5C5
330
2A7
100
AcDbEntity
  8
DIM
 62
     0
370
    -2
100
AcDbLine
 10
21.98455785949205
 20
16.5550000002515
 30
0.0
 11
21.98455785949205
 21
16.7350000002515
 31
0.0
  0
LINE
  5
5C6
330
2A7
100
AcDbEntity
  8
DIM
 62
     0
370
    -2
100
AcDbLine
 10
21.98455785949205
 20
16.7350000002515
 30
0.0
 11
22.16455785949205
 21
16.7350000002515
 31
0.0
  0
SOLID
  5
5C7
330
2A7
100
AcDbEntity
  8
DIM
 62
     0
100
AcDbTrace
 10
21.95455785949205
 20
15.8200000002515
 30
0.0
 11
22.01455785949205
 21
15.8200000002515
 31
0.0
 12
21.98455785949205
 22
16.0000000002515
 32
0.0
 13
21.98455785949205
 23
16.0000000002515
 33
0.0
  0
SOLID
  5
5C8
330
2A7
100
AcDbEntity
  8
DIM
 62
     0
100
AcDbTrace
 10
21.95455785949205
 20
16.5550000002515
 30
0.0
 11
22.01455785949205
 21
16.5550000002515
 31
0.0
 12
21.98455785949205
 22
16.3750000002515
 32
0.0
 13
21.98455785949205
 23
16.3750000002515
 33
0.0
  0
MTEXT
  5
5C9
330
2A7
100
AcDbEntity
  8
DIM
 62
     0
100
AcDbMText
 10
22.59955785949205
 20
16.7350000002515
 30
0.0
 40
0.18
 41
0.0
 71
     5
 72
     1
  1
\A1;0.375
 73
     1
 44
1.0
  0
POINT
  5
5CA
330
2A7
100
AcDbEntity
  8
Defpoints
 62
     0
100
AcDbPoint
 10
20.49999996214154
 20
16.0000000002515
 30
0.0
  0
POINT
  5
5CB
330
2A7
100
AcDbEntity
  8
Defpoints
 62
     0
100
AcDbPoint
 10
20.49999996214154
 20
16.3750000002515
 30
0.0
  0
POINT
  5
5CC
330
2A7
100
AcDbEntity
  8
Defpoints
 62
     0
100
AcDbPoint
 10
21.98455785949205
 20
16.3750000002515
 30
0.0
  0
ENDBLK
  5
2B4
330
2A7
100
AcDbEntity
  8
0
100
AcDbBlockEnd
  0
BLOCK
  5
2C1
330
2B6
100
AcDbEntity
  8
0
100
AcDbBlockBegin
  2
*D10
 70
     1
 10
0.0
 20
0.0
 30
0.0
  3
*D10
  1

  0
LINE
  5
5A3
330
2B6
100
AcDbEntity
  8
DIM
 62
     0
370
    -2
100
AcDbLine
 10
11.47596302837944
 20
9.679108906480772
 30
0.0
 11
11.47596302837944
 21
10.24815061543233
 31
0.0
  0
LINE
  5
5A4
330
2B6
100
AcDbEntity
  8
DIM
 62
     0
370
    -2
100
AcDbLine
 10
10.99999997613493
 20
9.814126646234187
 30
0.0
 11
10.99999997613493
 21
10.24815061543233
 31
0.0
  0
LINE
  5
5A5
330
2B6
100
AcDbEntity
  8
DIM
 62
     0
370
    -2
100
AcDbLine
 10
11.65596302837944
 20
10.06815061543233
 30
0.0
 11
11.83596302837944
 21
10.06815061543233
 31
0.0
  0
LINE
  5
5A6
330
2B6
100
AcDbEntity
  8
DIM
 62
     0
370
    -2
100
AcDbLine
 10
10.81999997613493
 20
10.06815061543233
 30
0.0
 11
10.63999997613493
 21
10.06815061543233
 31
0.0
  0
SOLID
  5
5A7
330
2B6
100
AcDbEntity
  8
DIM
 62
     0
100
AcDbTrace
 10
11.65596302837944
 20
10.09815061543233
 30
0.0
 11
11.65596302837944
 21
10.03815061543233
 31
0.0
 12
11.47596302837944
 22
10.06815061543233
 32
0.0
 13
11.47596302837944
 23
10.06815061543233
 33
0.0
  0
SOLID
  5
5A8
330
2B6
100
AcDbEntity
  8
DIM
 62
     0
100
AcDbTrace
 10
10.81999997613493
 20
10.09815061543233
 30
0.0
 11
10.81999997613493
 21
10.03815061543233
 31
0.0
 12
10.99999997613493
 22
10.06815061543233
 32
0.0
 13
10.99999997613493
 23
10.06815061543233
 33
0.0
  0
MTEXT
  5
5A9
330
2B6
100
AcDbEntity
  8
DIM
 62
     0
100
AcDbMText
 10
10.20499997613492
 20
10.06815061543233
 30
0.0
 40
0.18
 41
0.0
 71
     5
 72
     1
  1
\A1;0.476
 73
     1
 44
1.0
  0
POINT
  5
5AA
330
2B6
100
AcDbEntity
  8
Defpoints
 62
     0
100
AcDbPoint
 10
11.47596302837944
 20
9.616608906480772
 30
0.0
  0
POINT
  5
5AB
330
2B6
100
AcDbEntity
  8
Defpoints
 62
     0
100
AcDbPoint
 10
10.99999997613493
 20
9.751626646234187
 30
0.0
  0
POINT
  5
5AC
330
2B6
100
AcDbEntity
  8
Defpoints
 62
     0
100
AcDbPoint
 10
10.99999997613493
 20
10.06815061543233
 30
0.0
  0
ENDBLK
  5
2C2
330
2B6
100
AcDbEntity
  8
0
100
AcDbBlockEnd
  0
BLOCK
  5
2CF
330
2C4
100
AcDbEntity
  8
0
100
AcDbBlockBegin
  2
*D11
 70
     1
 10
0.0
 20
0.0
 30
0.0
  3
*D11
  1

  0
LINE
  5
6D6
330
2C4
100
AcDbEntity
  8
DIM
 62
     0
370
    -2
100
AcDbLine
 10
11.50001986266721
 20
7.946056301379188
 30
0.0
 11
11.50001986266721
 21
10.6944172427702
 31
0.0
  0
LINE
  5
6D7
330
2C4
100
AcDbEntity
  8
DIM
 62
     0
370
    -2
100
AcDbLine
 10
10.99999997613493
 20
9.814126646234187
 30
0.0
 11
10.99999997613493
 21
10.6944172427702
 31
0.0
  0
LINE
  5
6D8
330
2C4
100
AcDbEntity
  8
DIM
 62
     0
370
    -2
100
AcDbLine
 10
11.68001986266721
 20
10.51441724277019
 30
0.0
 11
11.86001986266721
 21
10.51441724277019
 31
0.0
  0
LINE
  5
6D9
330
2C4
100
AcDbEntity
  8
DIM
 62
     0
370
    -2
100
AcDbLine
 10
10.81999997613493
 20
10.51441724277019
 30
0.0
 11
10.63999997613492
 21
10.51441724277019
 31
0.0
  0
SOLID
  5
6DA
330
2C4
100
AcDbEntity
  8
DIM
 62
     0
100
AcDbTrace
 10
11.68001986266721
 20
10.5444172427702
 30
0.0
 11
11.68001986266721
 21
10.4844172427702
 31
0.0
 12
11.50001986266721
 22
10.51441724277019
 32
0.0
 13
11.50001986266721
 23
10.51441724277019
 33
0.0
  0
SOLID
  5
6DB
330
2C4
100
AcDbEntity
  8
DIM
 62
     0
100
AcDbTrace
 10
10.81999997613493
 20
10.5444172427702
 30
0.0
 11
10.81999997613493
 21
10.4844172427702
 31
0.0
 12
10.99999997613493
 22
10.51441724277019
 32
0.0
 13
10.99999997613493
 23
10.51441724277019
 33
0.0
  0
MTEXT
  5
6DC
330
2C4
100
AcDbEntity
  8
DIM
 62
     0
100
AcDbMText
 10
10.23499997613493
 20
10.51441724277019
 30
0.0
 40
0.18
 41
0.0
 71
     5
 72
     1
  1
\A1;0.500
 73
     1
 44
1.0
  0
POINT
  5
6DD
330
2C4
100
AcDbEntity
  8
Defpoints
 62
     0
100
AcDbPoint
 10
11.50001986266721
 20
7.883556301379188
 30
0.0
  0
POINT
  5
6DE
330
2C4
100
AcDbEntity
  8
Defpoints
 62
     0
100
AcDbPoint
 10
10.99999997613493
 20
9.751626646234187
 30
0.0
  0
POINT
  5
6DF
330
2C4
100
AcDbEntity
  8
Defpoints
 62
     0
100
AcDbPoint
 10
10.99999997613493
 20
10.51441724277019
 30
0.0
  0
ENDBLK
  5
2D0
330
2C4
100
AcDbEntity
  8
0
100
AcDbBlockEnd
  0
BLOCK
  5
2DD
330
2D2
100
AcDbEntity
  8
0
100
AcDbBlockBegin
  2
*D12
 70
     1
 10
0.0
 20
0.0
 30
0.0
  3
*D12
  1

  0
LINE
  5
547
330
2D2
100
AcDbEntity
  8
DIM
 62
     0
370
    -2
100
AcDbLine
 10
11.62501986266722
 20
9.008577148385185
 30
0.0
 11
11.62501986266722
 21
11.118914768607
 31
0.0
  0
LINE
  5
548
330
2D2
100
AcDbEntity
  8
DIM
 62
     0
370
    -2
100
AcDbLine
 10
10.99999997613493
 20
9.814126646234187
 30
0.0
 11
10.99999997613493
 21
11.118914768607
 31
0.0
  0
LINE
  5
549
330
2D2
100
AcDbEntity
  8
DIM
 62
     0
370
    -2
100
AcDbLine
 10
11.80501986266721
 20
10.938914768607
 30
0.0
 11
11.98501986266721
 21
10.938914768607
 31
0.0
  0
LINE
  5
54A
330
2D2
100
AcDbEntity
  8
DIM
 62
     0
370
    -2
100
AcDbLine
 10
10.81999997613493
 20
10.938914768607
 30
0.0
 11
10.63999997613493
 21
10.938914768607
 31
0.0
  0
SOLID
  5
54B
330
2D2
100
AcDbEntity
  8
DIM
 62
     0
100
AcDbTrace
 10
11.80501986266721
 20
10.968914768607
 30
0.0
 11
11.80501986266721
 21
10.908914768607
 31
0.0
 12
11.62501986266722
 22
10.938914768607
 32
0.0
 13
11.62501986266722
 23
10.938914768607
 33
0.0
  0
SOLID
  5
54C
330
2D2
100
AcDbEntity
  8
DIM
 62
     0
100
AcDbTrace
 10
10.81999997613493
 20
10.968914768607
 30
0.0
 11
10.81999997613493
 21
10.908914768607
 31
0.0
 12
10.99999997613493
 22
10.938914768607
 32
0.0
 13
10.99999997613493
 23
10.938914768607
 33
0.0
  0
MTEXT
  5
54D
330
2D2
100
AcDbEntity
  8
DIM
 62
     0
100
AcDbMText
 10
10.20499997613492
 20
10.938914768607
 30
0.0
 40
0.18
 41
0.0
 71
     5
 72
     1
  1
\A1;0.625
 73
     1
 44
1.0
  0
POINT
  5
54E
330
2D2
100
AcDbEntity
  8
Defpoints
 62
     0
100
AcDbPoint
 10
11.62501986266722
 20
8.946077148385185
 30
0.0
  0
POINT
  5
54F
330
2D2
100
AcDbEntity
  8
Defpoints
 62
     0
100
AcDbPoint
 10
10.99999997613493
 20
9.751626646234187
 30
0.0
  0
POINT
  5
550
330
2D2
100
AcDbEntity
  8
Defpoints
 62
     0
100
AcDbPoint
 10
10.99999997613493
 20
10.938914768607
 30
0.0
  0
ENDBLK
  5
2DE
330
2D2
100
AcDbEntity
  8
0
100
AcDbBlockEnd
  0
BLOCK
  5
2EB
330
2E0
100
AcDbEntity
  8
0
100
AcDbBlockBegin
  2
*D13
 70
     1
 10
0.0
 20
0.0
 30
0.0
  3
*D13
  1

  0
LINE
  5
599
330
2E0
100
AcDbEntity
  8
DIM
 62
     0
370
    -2
100
AcDbLine
 10
12.06651302837944
 20
5.010294029481711
 30
0.0
 11
12.06651302837944
 21
4.326144576551804
 31
0.0
  0
LINE
  5
59A
330
2E0
100
AcDbEntity
  8
DIM
 62
     0
370
    -2
100
AcDbLine
 10
10.99999997613493
 20
4.939126646234187
 30
0.0
 11
10.99999997613493
 21
4.326144576551804
 31
0.0
  0
LINE
  5
59B
330
2E0
100
AcDbEntity
  8
DIM
 62
     0
370
    -2
100
AcDbLine
 10
12.24651302837944
 20
4.506144576551804
 30
0.0
 11
12.42651302837944
 21
4.506144576551804
 31
0.0
  0
LINE
  5
59C
330
2E0
100
AcDbEntity
  8
DIM
 62
     0
370
    -2
100
AcDbLine
 10
10.81999997613493
 20
4.506144576551804
 30
0.0
 11
10.63999997613492
 21
4.506144576551804
 31
0.0
  0
SOLID
  5
59D
330
2E0
100
AcDbEntity
  8
DIM
 62
     0
100
AcDbTrace
 10
12.24651302837944
 20
4.536144576551804
 30
0.0
 11
12.24651302837944
 21
4.476144576551804
 31
0.0
 12
12.06651302837944
 22
4.506144576551804
 32
0.0
 13
12.06651302837944
 23
4.506144576551804
 33
0.0
  0
SOLID
  5
59E
330
2E0
100
AcDbEntity
  8
DIM
 62
     0
100
AcDbTrace
 10
10.81999997613493
 20
4.536144576551804
 30
0.0
 11
10.81999997613493
 21
4.476144576551804
 31
0.0
 12
10.99999997613493
 22
4.506144576551804
 32
0.0
 13
10.99999997613493
 23
4.506144576551804
 33
0.0
  0
MTEXT
  5
59F
330
2E0
100
AcDbEntity
  8
DIM
 62
     0
100
AcDbMText
 10
10.23499997613493
 20
4.506144576551804
 30
0.0
 40
0.18
 41
0.0
 71
     5
 72
     1
  1
\A1;1.067
 73
     1
 44
1.0
  0
POINT
  5
5A0
330
2E0
100
AcDbEntity
  8
Defpoints
 62
     0
100
AcDbPoint
 10
12.06651302837944
 20
5.072794029481711
 30
0.0
  0
POINT
  5
5A1
330
2E0
100
AcDbEntity
  8
Defpoints
 62
     0
100
AcDbPoint
 10
10.99999997613493
 20
5.001626646234187
 30
0.0
  0
POINT
  5
5A2
330
2E0
100
AcDbEntity
  8
Defpoints
 62
     0
100
AcDbPoint
 10
10.99999997613493
 20
4.506144576551804
 30
0.0
  0
ENDBLK
  5
2EC
330
2E0
100
AcDbEntity
  8
0
100
AcDbBlockEnd
  0
BLOCK
  5
2F9
330
2EE
100
AcDbEntity
  8
0
100
AcDbBlockBegin
  2
*D14
 70
     1
 10
0.0
 20
0.0
 30
0.0
  3
*D14
  1

  0
LINE
  5
533
330
2EE
100
AcDbEntity
  8
DIM
 62
     0
370
    -2
100
AcDbLine
 10
14.37496643837942
 20
9.635324735594814
 30
0.0
 11
14.37496643837942
 21
11.5434122944438
 31
0.0
  0
LINE
  5
534
330
2EE
100
AcDbEntity
  8
DIM
 62
     0
370
    -2
100
AcDbLine
 10
10.99999997613493
 20
9.814126646234187
 30
0.0
 11
10.99999997613493
 21
11.5434122944438
 31
0.0
  0
LINE
  5
535
330
2EE
100
AcDbEntity
  8
DIM
 62
     0
370
    -2
100
AcDbLine
 10
14.19496643837942
 20
11.3634122944438
 30
0.0
 11
13.13748320725717
 21
11.3634122944438
 31
0.0
  0
LINE
  5
536
330
2EE
100
AcDbEntity
  8
DIM
 62
     0
370
    -2
100
AcDbLine
 10
11.17999997613493
 20
11.3634122944438
 30
0.0
 11
12.23748320725718
 21
11.3634122944438
 31
0.0
  0
SOLID
  5
537
330
2EE
100
AcDbEntity
  8
DIM
 62
     0
100
AcDbTrace
 10
14.19496643837942
 20
11.3934122944438
 30
0.0
 11
14.19496643837942
 21
11.3334122944438
 31
0.0
 12
14.37496643837942
 22
11.3634122944438
 32
0.0
 13
14.37496643837942
 23
11.3634122944438
 33
0.0
  0
SOLID
  5
538
330
2EE
100
AcDbEntity
  8
DIM
 62
     0
100
AcDbTrace
 10
11.17999997613493
 20
11.3934122944438
 30
0.0
 11
11.17999997613493
 21
11.3334122944438
 31
0.0
 12
10.99999997613493
 22
11.3634122944438
 32
0.0
 13
10.99999997613493
 23
11.3634122944438
 33
0.0
  0
MTEXT
  5
539
330
2EE
100
AcDbEntity
  8
DIM
 62
     0
100
AcDbMText
 10
12.68748320725717
 20
11.3634122944438
 30
0.0
 40
0.18
 41
0.0
 71
     5
 72
     1
  1
\A1;3.375
 73
     1
 44
1.0
  0
POINT
  5
53A
330
2EE
100
AcDbEntity
  8
Defpoints
 62
     0
100
AcDbPoint
 10
14.37496643837942
 20
9.572824735594814
 30
0.0
  0
POINT
  5
53B
330
2EE
100
AcDbEntity
  8
Defpoints
 62
     0
100
AcDbPoint
 10
10.99999997613493
 20
9.751626646234187
 30
0.0
  0
POINT
  5
53C
330
2EE
100
AcDbEntity
  8
Defpoints
 62
     0
100
AcDbPoint
 10
10.99999997613493
 20
11.3634122944438
 30
0.0
  0
ENDBLK
  5
2FA
330
2EE
100
AcDbEntity
  8
0
100
AcDbBlockEnd
  0
BLOCK
  5
307
330
2FC
100
AcDbEntity
  8
0
100
AcDbBlockBegin
  2
*D15
 70
     1
 10
0.0
 20
0.0
 30
0.0
  3
*D15
  1

  0
LINE
  5
529
330
2FC
100
AcDbEntity
  8
DIM
 62
     0
370
    -2
100
AcDbLine
 10
14.87496643837942
 20
9.696067130493219
 30
0.0
 11
14.87496643837942
 21
11.95702526953007
 31
0.0
  0
LINE
  5
52A
330
2FC
100
AcDbEntity
  8
DIM
 62
     0
370
    -2
100
AcDbLine
 10
10.99999997613493
 20
9.814126646234187
 30
0.0
 11
10.99999997613493
 21
11.95702526953007
 31
0.0
  0
LINE
  5
52B
330
2FC
100
AcDbEntity
  8
DIM
 62
     0
370
    -2
100
AcDbLine
 10
14.69496643837942
 20
11.77702526953007
 30
0.0
 11
13.38748320725717
 21
11.77702526953007
 31
0.0
  0
LINE
  5
52C
330
2FC
100
AcDbEntity
  8
DIM
 62
     0
370
    -2
100
AcDbLine
 10
11.17999997613493
 20
11.77702526953007
 30
0.0
 11
12.48748320725717
 21
11.77702526953007
 31
0.0
  0
SOLID
  5
52D
330
2FC
100
AcDbEntity
  8
DIM
 62
     0
100
AcDbTrace
 10
14.69496643837942
 20
11.80702526953007
 30
0.0
 11
14.69496643837942
 21
11.74702526953007
 31
0.0
 12
14.87496643837942
 22
11.77702526953007
 32
0.0
 13
14.87496643837942
 23
11.77702526953007
 33
0.0
  0
SOLID
  5
52E
330
2FC
100
AcDbEntity
  8
DIM
 62
     0
100
AcDbTrace
 10
11.17999997613493
 20
11.80702526953007
 30
0.0
 11
11.17999997613493
 21
11.74702526953007
 31
0.0
 12
10.99999997613493
 22
11.77702526953007
 32
0.0
 13
10.99999997613493
 23
11.77702526953007
 33
0.0
  0
MTEXT
  5
52F
330
2FC
100
AcDbEntity
  8
DIM
 62
     0
100
AcDbMText
 10
12.93748320725717
 20
11.77702526953007
 30
0.0
 40
0.18
 41
0.0
 71
     5
 72
     1
  1
\A1;3.875
 73
     1
 44
1.0
  0
POINT
  5
530
330
2FC
100
AcDbEntity
  8
Defpoints
 62
     0
100
AcDbPoint
 10
14.87496643837942
 20
9.633567130493219
 30
0.0
  0
POINT
  5
531
330
2FC
100
AcDbEntity
  8
Defpoints
 62
     0
100
AcDbPoint
 10
10.99999997613493
 20
9.751626646234187
 30
0.0
  0
POINT
  5
532
330
2FC
100
AcDbEntity
  8
Defpoints
 62
     0
100
AcDbPoint
 10
10.99999997613493
 20
11.77702526953007
 30
0.0
  0
ENDBLK
  5
308
330
2FC
100
AcDbEntity
  8
0
100
AcDbBlockEnd
  0
BLOCK
  5
315
330
30A
100
AcDbEntity
  8
0
100
AcDbBlockBegin
  2
*D16
 70
     1
 10
0.0
 20
0.0
 30
0.0
  3
*D16
  1

  0
LINE
  5
51F
330
30A
100
AcDbEntity
  8
DIM
 62
     0
370
    -2
100
AcDbLine
 10
15.37496643837942
 20
9.635324735594814
 30
0.0
 11
15.37496643837942
 21
12.38152274880075
 31
0.0
  0
LINE
  5
520
330
30A
100
AcDbEntity
  8
DIM
 62
     0
370
    -2
100
AcDbLine
 10
10.99999997613493
 20
9.814126646234187
 30
0.0
 11
10.99999997613493
 21
12.38152274880075
 31
0.0
  0
LINE
  5
521
330
30A
100
AcDbEntity
  8
DIM
 62
     0
370
    -2
100
AcDbLine
 10
15.19496643837942
 20
12.20152274880075
 30
0.0
 11
13.63748320725717
 21
12.20152274880075
 31
0.0
  0
LINE
  5
522
330
30A
100
AcDbEntity
  8
DIM
 62
     0
370
    -2
100
AcDbLine
 10
11.17999997613493
 20
12.20152274880075
 30
0.0
 11
12.73748320725718
 21
12.20152274880075
 31
0.0
  0
SOLID
  5
523
330
30A
100
AcDbEntity
  8
DIM
 62
     0
100
AcDbTrace
 10
15.19496643837942
 20
12.23152274880075
 30
0.0
 11
15.19496643837942
 21
12.17152274880075
 31
0.0
 12
15.37496643837942
 22
12.20152274880075
 32
0.0
 13
15.37496643837942
 23
12.20152274880075
 33
0.0
  0
SOLID
  5
524
330
30A
100
AcDbEntity
  8
DIM
 62
     0
100
AcDbTrace
 10
11.17999997613493
 20
12.23152274880075
 30
0.0
 11
11.17999997613493
 21
12.17152274880075
 31
0.0
 12
10.99999997613493
 22
12.20152274880075
 32
0.0
 13
10.99999997613493
 23
12.20152274880075
 33
0.0
  0
MTEXT
  5
525
330
30A
100
AcDbEntity
  8
DIM
 62
     0
100
AcDbMText
 10
13.18748320725718
 20
12.20152274880075
 30
0.0
 40
0.18
 41
0.0
 71
     5
 72
     1
  1
\A1;4.375
 73
     1
 44
1.0
  0
POINT
  5
526
330
30A
100
AcDbEntity
  8
Defpoints
 62
     0
100
AcDbPoint
 10
15.37496643837942
 20
9.572824735594814
 30
0.0
  0
POINT
  5
527
330
30A
100
AcDbEntity
  8
Defpoints
 62
     0
100
AcDbPoint
 10
10.99999997613493
 20
9.751626646234187
 30
0.0
  0
POINT
  5
528
330
30A
100
AcDbEntity
  8
Defpoints
 62
     0
100
AcDbPoint
 10
10.99999997613493
 20
12.20152274880075
 30
0.0
  0
ENDBLK
  5
316
330
30A
100
AcDbEntity
  8
0
100
AcDbBlockEnd
  0
BLOCK
  5
323
330
318
100
AcDbEntity
  8
0
100
AcDbBlockBegin
  2
*D17
 70
     1
 10
0.0
 20
0.0
 30
0.0
  3
*D17
  1

  0
LINE
  5
515
330
318
100
AcDbEntity
  8
DIM
 62
     0
370
    -2
100
AcDbLine
 10
18.11471961837942
 20
9.627324735594815
 30
0.0
 11
18.11471961837942
 21
12.77336662238596
 31
0.0
  0
LINE
  5
516
330
318
100
AcDbEntity
  8
DIM
 62
     0
370
    -2
100
AcDbLine
 10
10.99999997613493
 20
9.814126646234187
 30
0.0
 11
10.99999997613493
 21
12.77336662238596
 31
0.0
  0
LINE
  5
517
330
318
100
AcDbEntity
  8
DIM
 62
     0
370
    -2
100
AcDbLine
 10
17.93471961837942
 20
12.59336662238596
 30
0.0
 11
14.94735979725717
 21
12.59336662238596
 31
0.0
  0
LINE
  5
518
330
318
100
AcDbEntity
  8
DIM
 62
     0
370
    -2
100
AcDbLine
 10
11.17999997613493
 20
12.59336662238596
 30
0.0
 11
14.16735979725717
 21
12.59336662238596
 31
0.0
  0
SOLID
  5
519
330
318
100
AcDbEntity
  8
DIM
 62
     0
100
AcDbTrace
 10
17.93471961837942
 20
12.62336662238596
 30
0.0
 11
17.93471961837942
 21
12.56336662238596
 31
0.0
 12
18.11471961837942
 22
12.59336662238596
 32
0.0
 13
18.11471961837942
 23
12.59336662238596
 33
0.0
  0
SOLID
  5
51A
330
318
100
AcDbEntity
  8
DIM
 62
     0
100
AcDbTrace
 10
11.17999997613493
 20
12.62336662238596
 30
0.0
 11
11.17999997613493
 21
12.56336662238596
 31
0.0
 12
10.99999997613493
 22
12.59336662238596
 32
0.0
 13
10.99999997613493
 23
12.59336662238596
 33
0.0
  0
MTEXT
  5
51B
330
318
100
AcDbEntity
  8
DIM
 62
     0
100
AcDbMText
 10
14.55735979725717
 20
12.59336662238596
 30
0.0
 40
0.18
 41
0.0
 71
     5
 72
     1
  1
\A1;7.115
 73
     1
 44
1.0
  0
POINT
  5
51C
330
318
100
AcDbEntity
  8
Defpoints
 62
     0
100
AcDbPoint
 10
18.11471961837942
 20
9.564824735594815
 30
0.0
  0
POINT
  5
51D
330
318
100
AcDbEntity
  8
Defpoints
 62
     0
100
AcDbPoint
 10
10.99999997613493
 20
9.751626646234187
 30
0.0
  0
POINT
  5
51E
330
318
100
AcDbEntity
  8
Defpoints
 62
     0
100
AcDbPoint
 10
10.99999997613493
 20
12.59336662238596
 30
0.0
  0
ENDBLK
  5
324
330
318
100
AcDbEntity
  8
0
100
AcDbBlockEnd
  0
BLOCK
  5
331
330
326
100
AcDbEntity
  8
0
100
AcDbBlockBegin
  2
*D18
 70
     1
 10
0.0
 20
0.0
 30
0.0
  3
*D18
  1

  0
LINE
  5
50B
330
326
100
AcDbEntity
  8
DIM
 62
     0
370
    -2
100
AcDbLine
 10
18.61471961837942
 20
9.696067130493219
 30
0.0
 11
18.61471961837942
 21
13.16521049597117
 31
0.0
  0
LINE
  5
50C
330
326
100
AcDbEntity
  8
DIM
 62
     0
370
    -2
100
AcDbLine
 10
10.99999997613493
 20
9.814126646234187
 30
0.0
 11
10.99999997613493
 21
13.16521049597117
 31
0.0
  0
LINE
  5
50D
330
326
100
AcDbEntity
  8
DIM
 62
     0
370
    -2
100
AcDbLine
 10
18.43471961837942
 20
12.98521049597117
 30
0.0
 11
15.22735979725717
 21
12.98521049597117
 31
0.0
  0
LINE
  5
50E
330
326
100
AcDbEntity
  8
DIM
 62
     0
370
    -2
100
AcDbLine
 10
11.17999997613493
 20
12.98521049597117
 30
0.0
 11
14.38735979725717
 21
12.98521049597117
 31
0.0
  0
SOLID
  5
50F
330
326
100
AcDbEntity
  8
DIM
 62
     0
100
AcDbTrace
 10
18.43471961837942
 20
13.01521049597117
 30
0.0
 11
18.43471961837942
 21
12.95521049597117
 31
0.0
 12
18.61471961837942
 22
12.98521049597117
 32
0.0
 13
18.61471961837942
 23
12.98521049597117
 33
0.0
  0
SOLID
  5
510
330
326
100
AcDbEntity
  8
DIM
 62
     0
100
AcDbTrace
 10
11.17999997613493
 20
13.01521049597117
 30
0.0
 11
11.17999997613493
 21
12.95521049597117
 31
0.0
 12
10.99999997613493
 22
12.98521049597117
 32
0.0
 13
10.99999997613493
 23
12.98521049597117
 33
0.0
  0
MTEXT
  5
511
330
326
100
AcDbEntity
  8
DIM
 62
     0
100
AcDbMText
 10
14.80735979725717
 20
12.98521049597117
 30
0.0
 40
0.18
 41
0.0
 71
     5
 72
     1
  1
\A1;7.615
 73
     1
 44
1.0
  0
POINT
  5
512
330
326
100
AcDbEntity
  8
Defpoints
 62
     0
100
AcDbPoint
 10
18.61471961837942
 20
9.633567130493219
 30
0.0
  0
POINT
  5
513
330
326
100
AcDbEntity
  8
Defpoints
 62
     0
100
AcDbPoint
 10
10.99999997613493
 20
9.751626646234187
 30
0.0
  0
POINT
  5
514
330
326
100
AcDbEntity
  8
Defpoints
 62
     0
100
AcDbPoint
 10
10.99999997613493
 20
12.98521049597117
 30
0.0
  0
ENDBLK
  5
332
330
326
100
AcDbEntity
  8
0
100
AcDbBlockEnd
  0
BLOCK
  5
33F
330
334
100
AcDbEntity
  8
0
100
AcDbBlockBegin
  2
*D19
 70
     1
 10
0.0
 20
0.0
 30
0.0
  3
*D19
  1

  0
LINE
  5
501
330
334
100
AcDbEntity
  8
DIM
 62
     0
370
    -2
100
AcDbLine
 10
19.11471961837942
 20
9.635324735594814
 30
0.0
 11
19.11471961837942
 21
13.54616981880585
 31
0.0
  0
LINE
  5
502
330
334
100
AcDbEntity
  8
DIM
 62
     0
370
    -2
100
AcDbLine
 10
10.99999997613493
 20
9.814126646234187
 30
0.0
 11
10.99999997613493
 21
13.54616981880585
 31
0.0
  0
LINE
  5
503
330
334
100
AcDbEntity
  8
DIM
 62
     0
370
    -2
100
AcDbLine
 10
18.93471961837942
 20
13.36616981880585
 30
0.0
 11
15.44735979725717
 21
13.36616981880585
 31
0.0
  0
LINE
  5
504
330
334
100
AcDbEntity
  8
DIM
 62
     0
370
    -2
100
AcDbLine
 10
11.17999997613493
 20
13.36616981880585
 30
0.0
 11
14.66735979725717
 21
13.36616981880585
 31
0.0
  0
SOLID
  5
505
330
334
100
AcDbEntity
  8
DIM
 62
     0
100
AcDbTrace
 10
18.93471961837942
 20
13.39616981880585
 30
0.0
 11
18.93471961837942
 21
13.33616981880585
 31
0.0
 12
19.11471961837942
 22
13.36616981880585
 32
0.0
 13
19.11471961837942
 23
13.36616981880585
 33
0.0
  0
SOLID
  5
506
330
334
100
AcDbEntity
  8
DIM
 62
     0
100
AcDbTrace
 10
11.17999997613493
 20
13.39616981880585
 30
0.0
 11
11.17999997613493
 21
13.33616981880585
 31
0.0
 12
10.99999997613493
 22
13.36616981880585
 32
0.0
 13
10.99999997613493
 23
13.36616981880585
 33
0.0
  0
MTEXT
  5
507
330
334
100
AcDbEntity
  8
DIM
 62
     0
100
AcDbMText
 10
15.05735979725717
 20
13.36616981880585
 30
0.0
 40
0.18
 41
0.0
 71
     5
 72
     1
  1
\A1;8.115
 73
     1
 44
1.0
  0
POINT
  5
508
330
334
100
AcDbEntity
  8
Defpoints
 62
     0
100
AcDbPoint
 10
19.11471961837942
 20
9.572824735594814
 30
0.0
  0
POINT
  5
509
330
334
100
AcDbEntity
  8
Defpoints
 62
     0
100
AcDbPoint
 10
10.99999997613493
 20
9.751626646234187
 30
0.0
  0
POINT
  5
50A
330
334
100
AcDbEntity
  8
Defpoints
 62
     0
100
AcDbPoint
 10
10.99999997613493
 20
13.36616981880585
 30
0.0
  0
ENDBLK
  5
340
330
334
100
AcDbEntity
  8
0
100
AcDbBlockEnd
  0
BLOCK
  5
34D
330
342
100
AcDbEntity
  8
0
100
AcDbBlockBegin
  2
*D20
 70
     1
 10
0.0
 20
0.0
 30
0.0
  3
*D20
  1

  0
LINE
  5
6CC
330
342
100
AcDbEntity
  8
DIM
 62
     0
370
    -2
100
AcDbLine
 10
19.99998008960264
 20
7.946056301379188
 30
0.0
 11
19.99998008960264
 21
13.9488982431416
 31
0.0
  0
LINE
  5
6CD
330
342
100
AcDbEntity
  8
DIM
 62
     0
370
    -2
100
AcDbLine
 10
10.99999997613493
 20
9.814126646234187
 30
0.0
 11
10.99999997613493
 21
13.9488982431416
 31
0.0
  0
LINE
  5
6CE
330
342
100
AcDbEntity
  8
DIM
 62
     0
370
    -2
100
AcDbLine
 10
19.81998008960264
 20
13.7688982431416
 30
0.0
 11
15.90499003286878
 21
13.7688982431416
 31
0.0
  0
LINE
  5
6CF
330
342
100
AcDbEntity
  8
DIM
 62
     0
370
    -2
100
AcDbLine
 10
11.17999997613493
 20
13.7688982431416
 30
0.0
 11
15.09499003286878
 21
13.7688982431416
 31
0.0
  0
SOLID
  5
6D0
330
342
100
AcDbEntity
  8
DIM
 62
     0
100
AcDbTrace
 10
19.81998008960264
 20
13.79889824314159
 30
0.0
 11
19.81998008960264
 21
13.7388982431416
 31
0.0
 12
19.99998008960264
 22
13.7688982431416
 32
0.0
 13
19.99998008960264
 23
13.7688982431416
 33
0.0
  0
SOLID
  5
6D1
330
342
100
AcDbEntity
  8
DIM
 62
     0
100
AcDbTrace
 10
11.17999997613493
 20
13.79889824314159
 30
0.0
 11
11.17999997613493
 21
13.7388982431416
 31
0.0
 12
10.99999997613493
 22
13.7688982431416
 32
0.0
 13
10.99999997613493
 23
13.7688982431416
 33
0.0
  0
MTEXT
  5
6D2
330
342
100
AcDbEntity
  8
DIM
 62
     0
100
AcDbMText
 10
15.49999003286878
 20
13.7688982431416
 30
0.0
 40
0.18
 41
0.0
 71
     5
 72
     1
  1
\A1;9.000
 73
     1
 44
1.0
  0
POINT
  5
6D3
330
342
100
AcDbEntity
  8
Defpoints
 62
     0
100
AcDbPoint
 10
19.99998008960264
 20
7.883556301379188
 30
0.0
  0
POINT
  5
6D4
330
342
100
AcDbEntity
  8
Defpoints
 62
     0
100
AcDbPoint
 10
10.99999997613493
 20
9.751626646234187
 30
0.0
  0
POINT
  5
6D5
330
342
100
AcDbEntity
  8
Defpoints
 62
     0
100
AcDbPoint
 10
10.99999997613493
 20
13.7688982431416
 30
0.0
  0
ENDBLK
  5
34E
330
342
100
AcDbEntity
  8
0
100
AcDbBlockEnd
  0
BLOCK
  5
478
330
46C
100
AcDbEntity
  8
0
100
AcDbBlockBegin
  2
*D21
 70
     1
 10
0.0
 20
0.0
 30
0.0
  3
*D21
  1

  0
LINE
  5
58E
330
46C
100
AcDbEntity
  8
DIM
 62
     0
370
    -2
100
AcDbLine
 10
11.34446302837944
 20
9.482921646234176
 30
0.0
 11
8.44294222575494
 21
9.482921646234176
 31
0.0
  0
LINE
  5
58F
330
46C
100
AcDbEntity
  8
DIM
 62
     0
370
    -2
100
AcDbLine
 10
10.93749997613493
 20
9.751626646234187
 30
0.0
 11
8.44294222575494
 21
9.751626646234187
 31
0.0
  0
LINE
  5
590
330
46C
100
AcDbEntity
  8
DIM
 62
     0
370
    -2
100
AcDbLine
 10
8.62294222575494
 20
9.302921646234176
 30
0.0
 11
8.62294222575494
 21
9.122921646234177
 31
0.0
  0
LINE
  5
591
330
46C
100
AcDbEntity
  8
DIM
 62
     0
370
    -2
100
AcDbLine
 10
8.62294222575494
 20
9.931626646234187
 30
0.0
 11
8.62294222575494
 21
10.11162664623418
 31
0.0
  0
LINE
  5
592
330
46C
100
AcDbEntity
  8
DIM
 62
     0
370
    -2
100
AcDbLine
 10
8.62294222575494
 20
10.11162664623418
 30
0.0
 11
8.802942225754939
 21
10.11162664623418
 31
0.0
  0
SOLID
  5
593
330
46C
100
AcDbEntity
  8
DIM
 62
     0
100
AcDbTrace
 10
8.59294222575494
 20
9.302921646234176
 30
0.0
 11
8.652942225754939
 21
9.302921646234176
 31
0.0
 12
8.62294222575494
 22
9.482921646234176
 32
0.0
 13
8.62294222575494
 23
9.482921646234176
 33
0.0
  0
SOLID
  5
594
330
46C
100
AcDbEntity
  8
DIM
 62
     0
100
AcDbTrace
 10
8.59294222575494
 20
9.931626646234187
 30
0.0
 11
8.652942225754939
 21
9.931626646234187
 31
0.0
 12
8.62294222575494
 22
9.751626646234187
 32
0.0
 13
8.62294222575494
 23
9.751626646234187
 33
0.0
  0
MTEXT
  5
595
330
46C
100
AcDbEntity
  8
DIM
 62
     0
100
AcDbMText
 10
9.237942225754938
 20
10.11162664623418
 30
0.0
 40
0.18
 41
0.0
 71
     5
 72
     1
  1
\A1;0.269
 73
     1
 44
1.0
  0
POINT
  5
596
330
46C
100
AcDbEntity
  8
Defpoints
 62
     0
100
AcDbPoint
 10
11.40696302837944
 20
9.482921646234176
 30
0.0
  0
POINT
  5
597
330
46C
100
AcDbEntity
  8
Defpoints
 62
     0
100
AcDbPoint
 10
10.99999997613493
 20
9.751626646234187
 30
0.0
  0
POINT
  5
598
330
46C
100
AcDbEntity
  8
Defpoints
 62
     0
100
AcDbPoint
 10
8.62294222575494
 20
9.751626646234187
 30
0.0
  0
ENDBLK
  5
479
330
46C
100
AcDbEntity
  8
0
100
AcDbBlockEnd
  0
BLOCK
  5
487
330
47B
100
AcDbEntity
  8
0
100
AcDbBlockBegin
  2
*D22
 70
     1
 10
0.0
 20
0.0
 30
0.0
  3
*D22
  1

  0
LINE
  5
583
330
47B
100
AcDbEntity
  8
DIM
 62
     0
370
    -2
100
AcDbLine
 10
14.18056889858108
 20
9.439137475348218
 30
0.0
 11
7.289322460614634
 21
9.43913747534822
 31
0.0
  0
LINE
  5
584
330
47B
100
AcDbEntity
  8
DIM
 62
     0
370
    -2
100
AcDbLine
 10
10.93749997613493
 20
9.751626646234187
 30
0.0
 11
7.289322460614634
 21
9.751626646234187
 31
0.0
  0
LINE
  5
585
330
47B
100
AcDbEntity
  8
DIM
 62
     0
370
    -2
100
AcDbLine
 10
7.469322460614634
 20
9.25913747534822
 30
0.0
 11
7.469322460614634
 21
9.07913747534822
 31
0.0
  0
LINE
  5
586
330
47B
100
AcDbEntity
  8
DIM
 62
     0
370
    -2
100
AcDbLine
 10
7.469322460614634
 20
9.931626646234187
 30
0.0
 11
7.469322460614635
 21
10.11162664623418
 31
0.0
  0
LINE
  5
587
330
47B
100
AcDbEntity
  8
DIM
 62
     0
370
    -2
100
AcDbLine
 10
7.469322460614635
 20
10.11162664623418
 30
0.0
 11
7.649322460614635
 21
10.11162664623418
 31
0.0
  0
SOLID
  5
588
330
47B
100
AcDbEntity
  8
DIM
 62
     0
100
AcDbTrace
 10
7.439322460614634
 20
9.25913747534822
 30
0.0
 11
7.499322460614634
 21
9.25913747534822
 31
0.0
 12
7.469322460614634
 22
9.43913747534822
 32
0.0
 13
7.469322460614634
 23
9.43913747534822
 33
0.0
  0
SOLID
  5
589
330
47B
100
AcDbEntity
  8
DIM
 62
     0
100
AcDbTrace
 10
7.439322460614634
 20
9.931626646234187
 30
0.0
 11
7.499322460614634
 21
9.931626646234187
 31
0.0
 12
7.469322460614634
 22
9.751626646234187
 32
0.0
 13
7.469322460614634
 23
9.751626646234187
 33
0.0
  0
MTEXT
  5
58A
330
47B
100
AcDbEntity
  8
DIM
 62
     0
100
AcDbMText
 10
8.054322460614631
 20
10.11162664623418
 30
0.0
 40
0.18
 41
0.0
 71
     5
 72
     1
  1
\A1;0.312
 73
     1
 44
1.0
  0
POINT
  5
58B
330
47B
100
AcDbEntity
  8
Defpoints
 62
     0
100
AcDbPoint
 10
14.24306889858108
 20
9.439137475348218
 30
0.0
  0
POINT
  5
58C
330
47B
100
AcDbEntity
  8
Defpoints
 62
     0
100
AcDbPoint
 10
10.99999997613493
 20
9.751626646234187
 30
0.0
  0
POINT
  5
58D
330
47B
100
AcDbEntity
  8
Defpoints
 62
     0
100
AcDbPoint
 10
7.469322460614634
 20
9.751626646234187
 30
0.0
  0
ENDBLK
  5
488
330
47B
100
AcDbEntity
  8
0
100
AcDbBlockEnd
  0
BLOCK
  5
495
330
48A
100
AcDbEntity
  8
0
100
AcDbBlockBegin
  2
*D23
 70
     1
 10
0.0
 20
0.0
 30
0.0
  3
*D23
  1

  0
LINE
  5
579
330
48A
100
AcDbEntity
  8
DIM
 62
     0
370
    -2
100
AcDbLine
 10
11.37883680320347
 20
8.751647493240184
 30
0.0
 11
6.641098041390613
 21
8.751647493240184
 31
0.0
  0
LINE
  5
57A
330
48A
100
AcDbEntity
  8
DIM
 62
     0
370
    -2
100
AcDbLine
 10
10.93749997613493
 20
9.751626646234187
 30
0.0
 11
6.641098041390613
 21
9.751626646234187
 31
0.0
  0
LINE
  5
57B
330
48A
100
AcDbEntity
  8
DIM
 62
     0
370
    -2
100
AcDbLine
 10
6.821098041390612
 20
8.931647493240184
 30
0.0
 11
6.821098041390612
 21
9.071637069737187
 31
0.0
  0
LINE
  5
57C
330
48A
100
AcDbEntity
  8
DIM
 62
     0
370
    -2
100
AcDbLine
 10
6.821098041390612
 20
9.571626646234188
 30
0.0
 11
6.821098041390612
 21
9.431637069737186
 31
0.0
  0
SOLID
  5
57D
330
48A
100
AcDbEntity
  8
DIM
 62
     0
100
AcDbTrace
 10
6.791098041390612
 20
8.931647493240184
 30
0.0
 11
6.851098041390613
 21
8.931647493240184
 31
0.0
 12
6.821098041390612
 22
8.751647493240184
 32
0.0
 13
6.821098041390612
 23
8.751647493240184
 33
0.0
  0
SOLID
  5
57E
330
48A
100
AcDbEntity
  8
DIM
 62
     0
100
AcDbTrace
 10
6.791098041390612
 20
9.571626646234188
 30
0.0
 11
6.851098041390613
 21
9.571626646234188
 31
0.0
 12
6.821098041390612
 22
9.751626646234187
 32
0.0
 13
6.821098041390612
 23
9.751626646234187
 33
0.0
  0
MTEXT
  5
57F
330
48A
100
AcDbEntity
  8
DIM
 62
     0
100
AcDbMText
 10
6.821098041390611
 20
9.251637069737189
 30
0.0
 40
0.18
 41
0.0
 71
     5
 72
     1
  1
\A1;1.000
 73
     1
 44
1.0
  0
POINT
  5
580
330
48A
100
AcDbEntity
  8
Defpoints
 62
     0
100
AcDbPoint
 10
11.44133680320347
 20
8.751647493240184
 30
0.0
  0
POINT
  5
581
330
48A
100
AcDbEntity
  8
Defpoints
 62
     0
100
AcDbPoint
 10
10.99999997613493
 20
9.751626646234187
 30
0.0
  0
POINT
  5
582
330
48A
100
AcDbEntity
  8
Defpoints
 62
     0
100
AcDbPoint
 10
6.821098041390612
 20
9.751626646234187
 30
0.0
  0
ENDBLK
  5
496
330
48A
100
AcDbEntity
  8
0
100
AcDbBlockEnd
  0
BLOCK
  5
4A3
330
498
100
AcDbEntity
  8
0
100
AcDbBlockBegin
  2
*D24
 70
     1
 10
0.0
 20
0.0
 30
0.0
  3
*D24
  1

  0
LINE
  5
6E0
330
498
100
AcDbEntity
  8
DIM
 62
     0
370
    -2
100
AcDbLine
 10
11.25383680320347
 20
7.689126646234187
 30
0.0
 11
6.00386049730843
 21
7.689126646234188
 31
0.0
  0
LINE
  5
6E1
330
498
100
AcDbEntity
  8
DIM
 62
     0
370
    -2
100
AcDbLine
 10
10.93749997613493
 20
9.751626646234187
 30
0.0
 11
6.00386049730843
 21
9.751626646234187
 31
0.0
  0
LINE
  5
6E2
330
498
100
AcDbEntity
  8
DIM
 62
     0
370
    -2
100
AcDbLine
 10
6.18386049730843
 20
7.869126646234188
 30
0.0
 11
6.18386049730843
 21
8.540376646234188
 31
0.0
  0
LINE
  5
6E3
330
498
100
AcDbEntity
  8
DIM
 62
     0
370
    -2
100
AcDbLine
 10
6.18386049730843
 20
9.571626646234188
 30
0.0
 11
6.18386049730843
 21
8.900376646234187
 31
0.0
  0
SOLID
  5
6E4
330
498
100
AcDbEntity
  8
DIM
 62
     0
100
AcDbTrace
 10
6.153860497308429
 20
7.869126646234188
 30
0.0
 11
6.21386049730843
 21
7.869126646234188
 31
0.0
 12
6.18386049730843
 22
7.689126646234188
 32
0.0
 13
6.18386049730843
 23
7.689126646234188
 33
0.0
  0
SOLID
  5
6E5
330
498
100
AcDbEntity
  8
DIM
 62
     0
100
AcDbTrace
 10
6.153860497308429
 20
9.571626646234188
 30
0.0
 11
6.21386049730843
 21
9.571626646234188
 31
0.0
 12
6.18386049730843
 22
9.751626646234187
 32
0.0
 13
6.18386049730843
 23
9.751626646234187
 33
0.0
  0
MTEXT
  5
6E6
330
498
100
AcDbEntity
  8
DIM
 62
     0
100
AcDbMText
 10
6.183860497308429
 20
8.720376646234189
 30
0.0
 40
0.18
 41
0.0
 71
     5
 72
     1
  1
\A1;2.063
 73
     1
 44
1.0
  0
POINT
  5
6E7
330
498
100
AcDbEntity
  8
Defpoints
 62
     0
100
AcDbPoint
 10
11.31633680320347
 20
7.689126646234187
 30
0.0
  0
POINT
  5
6E8
330
498
100
AcDbEntity
  8
Defpoints
 62
     0
100
AcDbPoint
 10
10.99999997613493
 20
9.751626646234187
 30
0.0
  0
POINT
  5
6E9
330
498
100
AcDbEntity
  8
Defpoints
 62
     0
100
AcDbPoint
 10
6.18386049730843
 20
9.751626646234187
 30
0.0
  0
ENDBLK
  5
4A4
330
498
100
AcDbEntity
  8
0
100
AcDbBlockEnd
  0
BLOCK
  5
4B1
330
4A6
100
AcDbEntity
  8
0
100
AcDbBlockBegin
  2
*D25
 70
     1
 10
0.0
 20
0.0
 30
0.0
  3
*D25
  1

  0
LINE
  5
565
330
4A6
100
AcDbEntity
  8
DIM
 62
     0
370
    -2
100
AcDbLine
 10
11.37883680320347
 20
6.00160579922819
 30
0.0
 11
5.267741228717731
 21
6.001605799228192
 31
0.0
  0
LINE
  5
566
330
4A6
100
AcDbEntity
  8
DIM
 62
     0
370
    -2
100
AcDbLine
 10
10.93749997613493
 20
9.751626646234187
 30
0.0
 11
5.267741228717731
 21
9.751626646234187
 31
0.0
  0
LINE
  5
567
330
4A6
100
AcDbEntity
  8
DIM
 62
     0
370
    -2
100
AcDbLine
 10
5.447741228717731
 20
6.181605799228192
 30
0.0
 11
5.447741228717731
 21
7.696616222731191
 31
0.0
  0
LINE
  5
568
330
4A6
100
AcDbEntity
  8
DIM
 62
     0
370
    -2
100
AcDbLine
 10
5.447741228717731
 20
9.571626646234188
 30
0.0
 11
5.447741228717731
 21
8.056616222731189
 31
0.0
  0
SOLID
  5
569
330
4A6
100
AcDbEntity
  8
DIM
 62
     0
100
AcDbTrace
 10
5.417741228717731
 20
6.181605799228192
 30
0.0
 11
5.477741228717731
 21
6.181605799228192
 31
0.0
 12
5.447741228717731
 22
6.001605799228192
 32
0.0
 13
5.447741228717731
 23
6.001605799228192
 33
0.0
  0
SOLID
  5
56A
330
4A6
100
AcDbEntity
  8
DIM
 62
     0
100
AcDbTrace
 10
5.417741228717731
 20
9.571626646234188
 30
0.0
 11
5.477741228717731
 21
9.571626646234188
 31
0.0
 12
5.447741228717731
 22
9.751626646234187
 32
0.0
 13
5.447741228717731
 23
9.751626646234187
 33
0.0
  0
MTEXT
  5
56B
330
4A6
100
AcDbEntity
  8
DIM
 62
     0
100
AcDbMText
 10
5.44774122871773
 20
7.876616222731191
 30
0.0
 40
0.18
 41
0.0
 71
     5
 72
     1
  1
\A1;3.750
 73
     1
 44
1.0
  0
POINT
  5
56C
330
4A6
100
AcDbEntity
  8
Defpoints
 62
     0
100
AcDbPoint
 10
11.44133680320347
 20
6.00160579922819
 30
0.0
  0
POINT
  5
56D
330
4A6
100
AcDbEntity
  8
Defpoints
 62
     0
100
AcDbPoint
 10
10.99999997613493
 20
9.751626646234187
 30
0.0
  0
POINT
  5
56E
330
4A6
100
AcDbEntity
  8
Defpoints
 62
     0
100
AcDbPoint
 10
5.447741228717731
 20
9.751626646234187
 30
0.0
  0
ENDBLK
  5
4B2
330
4A6
100
AcDbEntity
  8
0
100
AcDbBlockEnd
  0
BLOCK
  5
4BF
330
4B4
100
AcDbEntity
  8
0
100
AcDbBlockBegin
  2
*D26
 70
     1
 10
0.0
 20
0.0
 30
0.0
  3
*D26
  1

  0
LINE
  5
55B
330
4B4
100
AcDbEntity
  8
DIM
 62
     0
370
    -2
100
AcDbLine
 10
14.18056889858108
 20
5.314115817120157
 30
0.0
 11
4.542608835268885
 21
5.314115817120161
 31
0.0
  0
LINE
  5
55C
330
4B4
100
AcDbEntity
  8
DIM
 62
     0
370
    -2
100
AcDbLine
 10
10.93749997613493
 20
9.751626646234187
 30
0.0
 11
4.542608835268886
 21
9.751626646234187
 31
0.0
  0
LINE
  5
55D
330
4B4
100
AcDbEntity
  8
DIM
 62
     0
370
    -2
100
AcDbLine
 10
4.722608835268885
 20
5.49411581712016
 30
0.0
 11
4.722608835268886
 21
7.352871231677174
 31
0.0
  0
LINE
  5
55E
330
4B4
100
AcDbEntity
  8
DIM
 62
     0
370
    -2
100
AcDbLine
 10
4.722608835268886
 20
9.571626646234188
 30
0.0
 11
4.722608835268886
 21
7.712871231677174
 31
0.0
  0
SOLID
  5
55F
330
4B4
100
AcDbEntity
  8
DIM
 62
     0
100
AcDbTrace
 10
4.692608835268885
 20
5.49411581712016
 30
0.0
 11
4.752608835268885
 21
5.49411581712016
 31
0.0
 12
4.722608835268885
 22
5.314115817120161
 32
0.0
 13
4.722608835268885
 23
5.314115817120161
 33
0.0
  0
SOLID
  5
560
330
4B4
100
AcDbEntity
  8
DIM
 62
     0
100
AcDbTrace
 10
4.692608835268885
 20
9.571626646234188
 30
0.0
 11
4.752608835268886
 21
9.571626646234188
 31
0.0
 12
4.722608835268886
 22
9.751626646234187
 32
0.0
 13
4.722608835268886
 23
9.751626646234187
 33
0.0
  0
MTEXT
  5
561
330
4B4
100
AcDbEntity
  8
DIM
 62
     0
100
AcDbMText
 10
4.722608835268885
 20
7.532871231677175
 30
0.0
 40
0.18
 41
0.0
 71
     5
 72
     1
  1
\A1;4.438
 73
     1
 44
1.0
  0
POINT
  5
562
330
4B4
100
AcDbEntity
  8
Defpoints
 62
     0
100
AcDbPoint
 10
14.24306889858108
 20
5.314115817120157
 30
0.0
  0
POINT
  5
563
330
4B4
100
AcDbEntity
  8
Defpoints
 62
     0
100
AcDbPoint
 10
10.99999997613493
 20
9.751626646234187
 30
0.0
  0
POINT
  5
564
330
4B4
100
AcDbEntity
  8
Defpoints
 62
     0
100
AcDbPoint
 10
4.722608835268886
 20
9.751626646234187
 30
0.0
  0
ENDBLK
  5
4C0
330
4B4
100
AcDbEntity
  8
0
100
AcDbBlockEnd
  0
BLOCK
  5
4CD
330
4C2
100
AcDbEntity
  8
0
100
AcDbBlockBegin
  2
*D27
 70
     1
 10
0.0
 20
0.0
 30
0.0
  3
*D27
  1

  0
LINE
  5
551
330
4C2
100
AcDbEntity
  8
DIM
 62
     0
370
    -2
100
AcDbLine
 10
11.2815654885811
 20
5.270331646234188
 30
0.0
 11
3.718594717311524
 21
5.270331646234191
 31
0.0
  0
LINE
  5
552
330
4C2
100
AcDbEntity
  8
DIM
 62
     0
370
    -2
100
AcDbLine
 10
10.93749997613493
 20
9.751626646234187
 30
0.0
 11
3.718594717311525
 21
9.751626646234189
 31
0.0
  0
LINE
  5
553
330
4C2
100
AcDbEntity
  8
DIM
 62
     0
370
    -2
100
AcDbLine
 10
3.898594717311524
 20
5.45033164623419
 30
0.0
 11
3.898594717311525
 21
7.33097914623419
 31
0.0
  0
LINE
  5
554
330
4C2
100
AcDbEntity
  8
DIM
 62
     0
370
    -2
100
AcDbLine
 10
3.898594717311525
 20
9.571626646234189
 30
0.0
 11
3.898594717311525
 21
7.690979146234189
 31
0.0
  0
SOLID
  5
555
330
4C2
100
AcDbEntity
  8
DIM
 62
     0
100
AcDbTrace
 10
3.868594717311525
 20
5.45033164623419
 30
0.0
 11
3.928594717311524
 21
5.45033164623419
 31
0.0
 12
3.898594717311524
 22
5.270331646234191
 32
0.0
 13
3.898594717311524
 23
5.270331646234191
 33
0.0
  0
SOLID
  5
556
330
4C2
100
AcDbEntity
  8
DIM
 62
     0
100
AcDbTrace
 10
3.868594717311525
 20
9.571626646234189
 30
0.0
 11
3.928594717311525
 21
9.571626646234189
 31
0.0
 12
3.898594717311525
 22
9.751626646234189
 32
0.0
 13
3.898594717311525
 23
9.751626646234189
 33
0.0
  0
MTEXT
  5
557
330
4C2
100
AcDbEntity
  8
DIM
 62
     0
100
AcDbMText
 10
3.898594717311524
 20
7.51097914623419
 30
0.0
 40
0.18
 41
0.0
 71
     5
 72
     1
  1
\A1;4.481
 73
     1
 44
1.0
  0
POINT
  5
558
330
4C2
100
AcDbEntity
  8
Defpoints
 62
     0
100
AcDbPoint
 10
11.3440654885811
 20
5.270331646234188
 30
0.0
  0
POINT
  5
559
330
4C2
100
AcDbEntity
  8
Defpoints
 62
     0
100
AcDbPoint
 10
10.99999997613493
 20
9.751626646234187
 30
0.0
  0
POINT
  5
55A
330
4C2
100
AcDbEntity
  8
Defpoints
 62
     0
100
AcDbPoint
 10
3.898594717311525
 20
9.751626646234189
 30
0.0
  0
ENDBLK
  5
4CE
330
4C2
100
AcDbEntity
  8
0
100
AcDbBlockEnd
  0
BLOCK
  5
5E4
330
5D9
100
AcDbEntity
  8
0
100
AcDbBlockBegin
  2
*D28
 70
     1
 10
0.0
 20
0.0
 30
0.0
  3
*D28
  1

  0
LINE
  5
5DA
330
5D9
100
AcDbEntity
  8
DIM
 62
     0
370
    -2
100
AcDbLine
 10
10.93749997613493
 20
5.001626646234187
 30
0.0
 11
2.89430609983939
 21
5.00162664623419
 31
0.0
  0
LINE
  5
5DB
330
5D9
100
AcDbEntity
  8
DIM
 62
     0
370
    -2
100
AcDbLine
 10
10.93749997613493
 20
9.751626646234187
 30
0.0
 11
2.89430609983939
 21
9.751626646234189
 31
0.0
  0
LINE
  5
5DC
330
5D9
100
AcDbEntity
  8
DIM
 62
     0
370
    -2
100
AcDbLine
 10
3.07430609983939
 20
5.18162664623419
 30
0.0
 11
3.07430609983939
 21
7.196626646234189
 31
0.0
  0
LINE
  5
5DD
330
5D9
100
AcDbEntity
  8
DIM
 62
     0
370
    -2
100
AcDbLine
 10
3.07430609983939
 20
9.571626646234189
 30
0.0
 11
3.07430609983939
 21
7.556626646234189
 31
0.0
  0
SOLID
  5
5DE
330
5D9
100
AcDbEntity
  8
DIM
 62
     0
100
AcDbTrace
 10
3.04430609983939
 20
5.18162664623419
 30
0.0
 11
3.104306099839389
 21
5.18162664623419
 31
0.0
 12
3.07430609983939
 22
5.00162664623419
 32
0.0
 13
3.07430609983939
 23
5.00162664623419
 33
0.0
  0
SOLID
  5
5DF
330
5D9
100
AcDbEntity
  8
DIM
 62
     0
100
AcDbTrace
 10
3.044306099839391
 20
9.571626646234189
 30
0.0
 11
3.10430609983939
 21
9.571626646234189
 31
0.0
 12
3.07430609983939
 22
9.751626646234189
 32
0.0
 13
3.07430609983939
 23
9.751626646234189
 33
0.0
  0
MTEXT
  5
5E0
330
5D9
100
AcDbEntity
  8
DIM
 62
     0
100
AcDbMText
 10
3.074306099839389
 20
7.37662664623419
 30
0.0
 40
0.18
 41
0.0
 71
     5
 72
     1
  1
\A1;4.750
 73
     1
 44
1.0
  0
POINT
  5
5E1
330
5D9
100
AcDbEntity
  8
Defpoints
 62
     0
100
AcDbPoint
 10
10.99999997613493
 20
5.001626646234187
 30
0.0
  0
POINT
  5
5E2
330
5D9
100
AcDbEntity
  8
Defpoints
 62
     0
100
AcDbPoint
 10
10.99999997613493
 20
9.751626646234187
 30
0.0
  0
POINT
  5
5E3
330
5D9
100
AcDbEntity
  8
Defpoints
 62
     0
100
AcDbPoint
 10
3.07430609983939
 20
9.751626646234189
 30
0.0
  0
ENDBLK
  5
5E5
330
5D9
100
AcDbEntity
  8
0
100
AcDbBlockEnd
  0
BLOCK
  5
5F1
330
5E8
100
AcDbEntity
  8
0
100
AcDbBlockBegin
  2
*D29
 70
     1
 10
0.0
 20
0.0
 30
0.0
  3
*D29
  1

  0
LINE
  5
728
330
5E8
100
AcDbEntity
  8
DIM
 62
     0
370
    -2
100
AcDbLine
 10
12.25375835241317
 20
5.029574115453728
 30
0.0
 11
13.33297996898966
 21
3.641925409603884
 31
0.0
  0
LINE
  5
729
330
5E8
100
AcDbEntity
  8
DIM
 62
     0
370
    -2
100
AcDbLine
 10
13.33297996898966
 20
3.641925409603884
 30
0.0
 11
13.51297996898966
 21
3.641925409603882
 31
0.0
  0
SOLID
  5
72A
330
5E8
100
AcDbEntity
  8
DIM
 62
     0
100
AcDbTrace
 10
12.27743942101453
 20
5.047991688309506
 30
0.0
 11
12.23007728381181
 21
5.011156542597952
 31
0.0
 12
12.14325291527851
 22
5.171660527061867
 32
0.0
 13
12.14325291527851
 23
5.171660527061867
 33
0.0
  0
MTEXT
  5
72B
330
5E8
100
AcDbEntity
  8
DIM
 62
     0
100
AcDbMText
 10
17.20297996898965
 20
3.641925409603879
 30
0.0
 40
0.18
 41
0.0
 71
     5
 72
     1
  1
\A1;%%c0.251 REAM THRU\PSLIP FIT FOR PIN, DRAWING #: MOD-PICK-RP-05
 73
     1
 44
1.0
  0
LINE
  5
72C
330
5E8
100
AcDbEntity
  8
DIM
 62
     0
370
    -2
100
AcDbLine
 10
11.97651302837943
 20
5.270331646234182
 30
0.0
 11
12.15651302837943
 21
5.270331646234182
 31
0.0
  0
LINE
  5
72D
330
5E8
100
AcDbEntity
  8
DIM
 62
     0
370
    -2
100
AcDbLine
 10
12.06651302837943
 20
5.180331646234183
 30
0.0
 11
12.06651302837943
 21
5.360331646234183
 31
0.0
  0
POINT
  5
72E
330
5E8
100
AcDbEntity
  8
Defpoints
 62
     0
100
AcDbPoint
 10
12.14325291527851
 20
5.171660527061867
 30
0.0
  0
POINT
  5
72F
330
5E8
100
AcDbEntity
  8
Defpoints
 62
     0
100
AcDbPoint
 10
11.98977314148037
 20
5.369002765406497
 30
0.0
  0
ENDBLK
  5
5F2
330
5E8
100
AcDbEntity
  8
0
100
AcDbBlockEnd
  0
BLOCK
  5
60D
330
604
100
AcDbEntity
  8
0
100
AcDbBlockBegin
  2
*D30
 70
     1
 10
0.0
 20
0.0
 30
0.0
  3
*D30
  1

  0
LINE
  5
70A
330
604
100
AcDbEntity
  8
DIM
 62
     0
370
    -2
100
AcDbLine
 10
19.22519247311181
 20
9.662289325816189
 30
0.0
 11
20.63158403124605
 21
12.50315805723838
 31
0.0
  0
LINE
  5
70B
330
604
100
AcDbEntity
  8
DIM
 62
     0
370
    -2
100
AcDbLine
 10
20.63158403124605
 20
12.50315805723838
 30
0.0
 11
20.81158403124605
 21
12.50315805723838
 31
0.0
  0
SOLID
  5
70C
330
604
100
AcDbEntity
  8
DIM
 62
     0
100
AcDbTrace
 10
19.19830670799519
 20
9.675599308314067
 30
0.0
 11
19.25207823822843
 21
9.648979343318313
 31
0.0
 12
19.14533257812454
 22
9.500974735116457
 32
0.0
 13
19.14533257812454
 23
9.500974735116457
 33
0.0
  0
MTEXT
  5
70D
330
604
100
AcDbEntity
  8
DIM
 62
     0
100
AcDbMText
 10
22.49158403124602
 20
12.5031580572384
 30
0.0
 40
0.18
 41
0.0
 71
     5
 72
     1
  1
\A1;C-BORE FOR #6 SHCS\P10X
 73
     1
 44
1.0
  0
LINE
  5
70E
330
604
100
AcDbEntity
  8
DIM
 62
     0
370
    -2
100
AcDbLine
 10
19.02471961837942
 20
9.439137475348225
 30
0.0
 11
19.20471961837942
 21
9.439137475348225
 31
0.0
  0
LINE
  5
70F
330
604
100
AcDbEntity
  8
DIM
 62
     0
370
    -2
100
AcDbLine
 10
19.11471961837942
 20
9.349137475348225
 30
0.0
 11
19.11471961837942
 21
9.529137475348223
 31
0.0
  0
POINT
  5
710
330
604
100
AcDbEntity
  8
Defpoints
 62
     0
100
AcDbPoint
 10
19.14533257812454
 20
9.500974735116457
 30
0.0
  0
POINT
  5
711
330
604
100
AcDbEntity
  8
Defpoints
 62
     0
100
AcDbPoint
 10
19.0841066586343
 20
9.377300215579989
 30
0.0
  0
ENDBLK
  5
60E
330
604
100
AcDbEntity
  8
0
100
AcDbBlockEnd
  0
BLOCK
  5
619
330
610
100
AcDbEntity
  8
0
100
AcDbBlockBegin
  2
*D31
 70
     1
 10
0.0
 20
0.0
 30
0.0
  3
*D31
  1

  0
LINE
  5
63F
330
610
100
AcDbEntity
  8
DIM
 62
     0
370
    -2
100
AcDbLine
 10
18.72453636528054
 20
9.691259037496426
 30
0.0
 11
20.49043001572933
 21
13.74546641753876
 31
0.0
  0
LINE
  5
640
330
610
100
AcDbEntity
  8
DIM
 62
     0
370
    -2
100
AcDbLine
 10
20.49043001572933
 20
13.74546641753876
 30
0.0
 11
20.67043001572933
 21
13.74546641753876
 31
0.0
  0
SOLID
  5
641
330
610
100
AcDbEntity
  8
DIM
 62
     0
100
AcDbTrace
 10
18.69703219486437
 20
9.703239046249276
 30
0.0
 11
18.75204053569671
 21
9.679279028743577
 31
0.0
 12
18.65265631276344
 22
9.526234014999413
 32
0.0
 13
18.65265631276344
 23
9.526234014999413
 33
0.0
  0
MTEXT
  5
642
330
610
100
AcDbEntity
  8
DIM
 62
     0
100
AcDbMText
 10
21.94543001572932
 20
13.74546641753876
 30
0.0
 40
0.18
 41
0.0
 71
     5
 72
     1
  1
\A1;10-32 TAP THRU\P8X
 73
     1
 44
1.0
  0
LINE
  5
643
330
610
100
AcDbEntity
  8
DIM
 62
     0
370
    -2
100
AcDbLine
 10
18.52471961837942
 20
9.439137475348214
 30
0.0
 11
18.70471961837942
 21
9.439137475348214
 31
0.0
  0
LINE
  5
644
330
610
100
AcDbEntity
  8
DIM
 62
     0
370
    -2
100
AcDbLine
 10
18.61471961837942
 20
9.349137475348214
 30
0.0
 11
18.61471961837942
 21
9.529137475348216
 31
0.0
  0
POINT
  5
645
330
610
100
AcDbEntity
  8
Defpoints
 62
     0
100
AcDbPoint
 10
18.65265631276344
 20
9.526234014999413
 30
0.0
  0
POINT
  5
646
330
610
100
AcDbEntity
  8
Defpoints
 62
     0
100
AcDbPoint
 10
18.5767829239954
 20
9.352040935697015
 30
0.0
  0
ENDBLK
  5
61A
330
610
100
AcDbEntity
  8
0
100
AcDbBlockEnd
  0
BLOCK
  5
625
330
61C
100
AcDbEntity
  8
0
100
AcDbBlockBegin
  2
*D32
 70
     1
 10
0.0
 20
0.0
 30
0.0
  3
*D32
  1

  0
LINE
  5
667
330
61C
100
AcDbEntity
  8
DIM
 62
     0
370
    -2
100
AcDbLine
 10
19.90088950480642
 20
16.38557409223323
 30
0.0
 11
21.13058137161457
 21
17.99980192826216
 31
0.0
  0
LINE
  5
668
330
61C
100
AcDbEntity
  8
DIM
 62
     0
370
    -2
100
AcDbLine
 10
21.13058137161457
 20
17.99980192826216
 30
0.0
 11
21.31058137161457
 21
17.99980192826216
 31
0.0
  0
SOLID
  5
669
330
61C
100
AcDbEntity
  8
DIM
 62
     0
100
AcDbTrace
 10
19.87702515637489
 20
16.4037535552049
 30
0.0
 11
19.92475385323795
 21
16.36739462926156
 31
0.0
 12
19.79181272697638
 22
16.24238800164403
 32
0.0
 13
19.79181272697638
 23
16.24238800164403
 33
0.0
  0
MTEXT
  5
66A
330
61C
100
AcDbEntity
  8
DIM
 62
     0
100
AcDbMText
 10
22.93058137161462
 20
17.99980192826213
 30
0.0
 40
0.18
 41
0.0
 71
     5
 72
     1
  1
\A1;6-32 TAP .375 DEEP\P4X
 73
     1
 44
1.0
  0
LINE
  5
66B
330
61C
100
AcDbEntity
  8
DIM
 62
     0
370
    -2
100
AcDbLine
 10
19.65999996214153
 20
16.18750000025151
 30
0.0
 11
19.83999996214153
 21
16.18750000025151
 31
0.0
  0
LINE
  5
66C
330
61C
100
AcDbEntity
  8
DIM
 62
     0
370
    -2
100
AcDbLine
 10
19.74999996214153
 20
16.0975000002515
 30
0.0
 11
19.74999996214153
 21
16.27750000025151
 31
0.0
  0
POINT
  5
66D
330
61C
100
AcDbEntity
  8
Defpoints
 62
     0
100
AcDbPoint
 10
19.79181272697638
 20
16.24238800164403
 30
0.0
  0
POINT
  5
66E
330
61C
100
AcDbEntity
  8
Defpoints
 62
     0
100
AcDbPoint
 10
19.70818719730668
 20
16.13261199885897
 30
0.0
  0
ENDBLK
  5
626
330
61C
100
AcDbEntity
  8
0
100
AcDbBlockEnd
  0
BLOCK
  5
6F6
330
6F1
100
AcDbEntity
  8
0
100
AcDbBlockBegin
  2
C-BORE-#6
 70
     0
 10
0.0
 20
0.0
 30
0.0
  3
C-BORE-#6
  1

  0
LINE
  5
6F2
330
6F1
100
AcDbEntity
  8
CENTER
100
AcDbLine
 10
0.0
 20
-0.1988463639077764
 30
0.0
 11
0.0
 21
0.1910488070998077
 31
0.0
  0
CIRCLE
  5
6F3
330
6F1
100
AcDbEntity
  8
0
100
AcDbCircle
 10
0.0
 20
0.0
 30
0.0
 40
0.085
  0
CIRCLE
  5
6F4
330
6F1
100
AcDbEntity
  8
0
100
AcDbCircle
 10
0.0
 20
0.0
 30
0.0
 40
0.14065
  0
LINE
  5
6F5
330
6F1
100
AcDbEntity
  8
CENTER
100
AcDbLine
 10
-0.2055373679844124
 20
0.0
 30
0.0
 11
0.1955703475548418
 21
0.0
 31
0.0
  0
ENDBLK
  5
6F7
330
6F1
100
AcDbEntity
  8
0
100
AcDbBlockEnd
  0
ENDSEC
  0
SECTION
  2
ENTITIES
  0
INSERT
  5
156
330
1F
100
AcDbEntity
  8
0
100
AcDbBlockReference
 66
     1
  2
d-border
 10
0.0
 20
0.0
 30
0.0
  0
ATTRIB
  5
157
330
156
100
AcDbEntity
  8
TEXT
100
AcDbText
 10
26.4087
 20
0.8153
 30
0.0
 40
0.06
  1
07-11-03
100
AcDbAttribute
  2
DATE
 70
     0
  0
ATTRIB
  5
158
330
156
100
AcDbEntity
  8
TEXT
100
AcDbText
 10
25.4066
 20
0.8516999999999999
 30
0.0
 40
0.12
  1
S. KYRE
100
AcDbAttribute
  2
NAME
 70
     0
  0
ATTRIB
  5
159
330
156
100
AcDbEntity
  8
TEXT
100
AcDbText
 10
27.3318
 20
0.1839
 30
0.0
 40
0.12
  1
1=1
100
AcDbAttribute
  2
SCALE
 70
     0
  0
ATTRIB
  5
15A
330
156
100
AcDbEntity
  8
TEXT
100
AcDbText
 10
28.97149999999999
 20
0.4692000000000001
 30
0.0
 40
0.12
  1
mod-pick-rp-02
100
AcDbAttribute
  2
FILE
 70
     0
  0
ATTRIB
  5
15B
330
156
100
AcDbEntity
  8
TEXT
100
AcDbText
 10
27.3257
 20
0.4571
 30
0.0
 40
0.12
  1
ROD
100
AcDbAttribute
  2
DIRECTORY
 70
     0
  0
SEQEND
  5
15C
330
156
100
AcDbEntity
  8
0
  0
LWPOLYLINE
  5
1BE
330
1F
100
AcDbEntity
  8
handle
100
AcDbPolyline
 90
        4
 70
     1
 43
0.0
 10
10.99999996214154
 20
16.0000000002515
 10
20.49999996214154
 20
16.0000000002515
 10
20.49999996214154
 20
16.3750000002515
 10
10.99999996214154
 20
16.3750000002515
  0
INSERT
  5
1DF
330
1F
100
AcDbEntity
  8
0
100
AcDbBlockReference
  2
6-32-THREAD
 10
11.74999996214154
 20
16.1875000002515
 30
0.0
  0
INSERT
  5
1E1
330
1F
100
AcDbEntity
  8
0
100
AcDbBlockReference
  2
6-32-THREAD
 10
19.74999996214154
 20
16.1875000002515
 30
0.0
  0
LWPOLYLINE
  5
220
330
1F
100
AcDbEntity
  8
handle
100
AcDbPolyline
 90
        4
 70
     1
 43
0.0
 10
10.99999997613493
 20
9.751626646234187
 10
20.49999997613493
 20
9.751626646234187
 10
20.49999997613493
 20
5.001626646234187
 10
10.99999997613493
 20
5.001626646234187
  0
ARC
  5
223
330
1F
100
AcDbEntity
  8
downstop
100
AcDbCircle
 10
11.47596302837944
 20
5.270331646234188
 30
0.0
 40
0.1875
100
AcDbArc
 50
90.0
 51
270.0
  0
ARC
  5
224
330
1F
100
AcDbEntity
  8
downstop
100
AcDbCircle
 10
11.47596302837944
 20
5.270331646234188
 30
0.0
 40
0.09375
100
AcDbArc
 50
90.0
 51
270.0
  0
LINE
  5
227
330
1F
100
AcDbEntity
  8
CENTER
100
AcDbLine
 10
12.06651302837944
 20
5.072794029481711
 30
0.0
 11
12.06651302837944
 21
5.464761301379189
 31
0.0
  0
LINE
  5
228
330
1F
100
AcDbEntity
  8
downstop
100
AcDbLine
 10
11.47596302837944
 20
5.176581646234188
 30
0.0
 11
11.47596302837944
 21
5.082831646234188
 31
0.0
  0
CIRCLE
  5
229
330
1F
100
AcDbEntity
  8
downstop
100
AcDbCircle
 10
12.06651302837944
 20
5.270331646234188
 30
0.0
 40
0.125
  0
LINE
  5
22A
330
1F
100
AcDbEntity
  8
CENTER
100
AcDbLine
 10
11.88282996891569
 20
5.270331646234188
 30
0.0
 11
12.25647476401992
 21
5.270331646234188
 31
0.0
  0
LINE
  5
22B
330
1F
100
AcDbEntity
  8
downstop
100
AcDbLine
 10
11.47596302837944
 20
5.364081646234188
 30
0.0
 11
11.47596302837944
 21
5.457831646234188
 31
0.0
  0
CIRCLE
  5
22C
330
1F
100
AcDbEntity
  8
downstop
100
AcDbCircle
 10
12.06651302837944
 20
5.270331646234188
 30
0.0
 40
0.02345
  0
CIRCLE
  5
22E
330
1F
100
AcDbEntity
  8
downstop
100
AcDbCircle
 10
15.37496643837942
 20
5.314115817120157
 30
0.0
 40
0.125
  0
CIRCLE
  5
230
330
1F
100
AcDbEntity
  8
downstop
100
AcDbCircle
 10
14.37496643837942
 20
5.314115817120157
 30
0.0
 40
0.125
  0
CIRCLE
  5
234
330
1F
100
AcDbEntity
  8
downstop
100
AcDbCircle
 10
19.11471961837942
 20
5.314115817120157
 30
0.0
 40
0.125
  0
CIRCLE
  5
237
330
1F
100
AcDbEntity
  8
downstop
100
AcDbCircle
 10
18.11471961837942
 20
5.314115817120157
 30
0.0
 40
0.125
  0
ARC
  5
23C
330
1F
100
AcDbEntity
  8
downstop
100
AcDbCircle
 10
11.47596302837944
 20
9.482921646234176
 30
0.0
 40
0.09375
100
AcDbArc
 50
90.0
 51
270.0
  0
ARC
  5
23D
330
1F
100
AcDbEntity
  8
downstop
100
AcDbCircle
 10
11.47596302837944
 20
9.482921646234176
 30
0.0
 40
0.1875
100
AcDbArc
 50
90.0
 51
270.0
  0
LINE
  5
23F
330
1F
100
AcDbEntity
  8
downstop
100
AcDbLine
 10
11.47596302837944
 20
9.576671646234176
 30
0.0
 11
11.47596302837944
 21
9.670421646234176
 31
0.0
  0
LINE
  5
240
330
1F
100
AcDbEntity
  8
downstop
100
AcDbLine
 10
11.47596302837944
 20
9.389171646234176
 30
0.0
 11
11.47596302837944
 21
9.295421646234176
 31
0.0
  0
CIRCLE
  5
241
330
1F
100
AcDbEntity
  8
downstop
100
AcDbCircle
 10
15.37496643837942
 20
9.439137475348218
 30
0.0
 40
0.125
  0
CIRCLE
  5
246
330
1F
100
AcDbEntity
  8
downstop
100
AcDbCircle
 10
14.37496643837942
 20
9.439137475348218
 30
0.0
 40
0.125
  0
CIRCLE
  5
249
330
1F
100
AcDbEntity
  8
downstop
100
AcDbCircle
 10
19.11471961837942
 20
9.439137475348218
 30
0.0
 40
0.125
  0
CIRCLE
  5
24D
330
1F
100
AcDbEntity
  8
downstop
100
AcDbCircle
 10
18.11471961837942
 20
9.439137475348218
 30
0.0
 40
0.125
  0
CIRCLE
  5
250
330
1F
100
AcDbEntity
  8
downstop
100
AcDbCircle
 10
20.29484302837942
 20
9.482921646234178
 30
0.0
 40
0.125
  0
CIRCLE
  5
252
330
1F
100
AcDbEntity
  8
downstop
100
AcDbCircle
 10
20.29484302837942
 20
9.482921646234178
 30
0.0
 40
0.043
  0
INSERT
  5
253
330
1F
100
AcDbEntity
  8
handle
100
AcDbBlockReference
  2
10-32-THREAD
 10
11.62501986266722
 20
6.00160579922819
 30
0.0
  0
INSERT
  5
254
330
1F
100
AcDbEntity
  8
handle
100
AcDbBlockReference
  2
10-32-THREAD
 10
14.87496643837942
 20
5.314115817120157
 30
0.0
  0
INSERT
  5
255
330
1F
100
AcDbEntity
  8
handle
100
AcDbBlockReference
  2
10-32-THREAD
 10
18.61471961837942
 20
5.314115817120157
 30
0.0
  0
INSERT
  5
256
330
1F
100
AcDbEntity
  8
handle
100
AcDbBlockReference
  2
10-32-THREAD
 10
18.61471961837942
 20
9.439137475348218
 30
0.0
  0
INSERT
  5
257
330
1F
100
AcDbEntity
  8
handle
100
AcDbBlockReference
  2
10-32-THREAD
 10
14.87496643837942
 20
9.439137475348218
 30
0.0
  0
INSERT
  5
259
330
1F
100
AcDbEntity
  8
handle
100
AcDbBlockReference
  2
10-32-THREAD
 10
11.62501986266722
 20
8.751647493240184
 30
0.0
  0
CIRCLE
  5
266
330
1F
100
AcDbEntity
  8
handle
100
AcDbCircle
 10
12.06651302837944
 20
5.270331646234188
 30
0.0
 40
0.125
  0
INSERT
  5
269
330
1F
100
AcDbEntity
  8
handle
100
AcDbBlockReference
  2
10-32-THREAD
 10
11.50001986266721
 20
7.689126646234187
 30
0.0
  0
INSERT
  5
26A
330
1F
100
AcDbEntity
  8
handle
100
AcDbBlockReference
  2
10-32-THREAD
 10
19.99998008960264
 20
7.689126646234187
 30
0.0
 41
-1.0
  0
MTEXT
  5
26B
330
1F
100
AcDbEntity
  8
TEXT
100
AcDbMText
 10
29.01322061769021
 20
1.091500946102673
 30
0.0
 40
0.12
 41
4.271799999999999
 71
     5
 72
     5
  1
PICK UP TOOL FOR R-PHI MODULE, BACKSIDE
 73
     1
 44
1.0
  0
MTEXT
  5
26C
330
1F
100
AcDbEntity
  8
TEXT
100
AcDbMText
 10
5.875
 20
1.375
 30
0.0
 40
0.2
 41
10.375
 71
     1
 72
     5
  1
MATERIAL: 3/8" THICK STATIC DISSIPATIVE CAST ACRYLIC\P1 EA. REQUIRED
 73
     1
 44
1.0
  0
DIMENSION
  5
26D
330
1F
100
AcDbEntity
  8
DIM
100
AcDbDimension
  2
*D5
 10
10.99999996214154
 20
16.6923523782417
 30
0.0
 11
10.21999996214154
 21
16.6923523782417
 31
0.0
 70
    32
 71
     5
 42
0.75
  3
SU1
100
AcDbAlignedDimension
 13
11.74999996214154
 23
16.32118726049809
 33
0.0
 14
10.99999996214154
 24
16.3750000002515
 34
0.0
100
AcDbRotatedDimension
  0
DIMENSION
  5
27B
330
1F
100
AcDbEntity
  8
DIM
100
AcDbDimension
  2
*D6
 10
10.99999996214154
 20
17.20917049319086
 30
0.0
 11
15.37499996214154
 21
17.20917049319086
 31
0.0
 70
    32
 71
     5
 42
8.75
  3
SU1
100
AcDbAlignedDimension
 13
19.74999996214154
 23
16.32118726049809
 33
0.0
 14
10.99999996214154
 24
16.3750000002515
 34
0.0
100
AcDbRotatedDimension
  0
DIMENSION
  5
289
330
1F
100
AcDbEntity
  8
DIM
100
AcDbDimension
  2
*D7
 10
10.99999996214154
 20
17.56501247092201
 30
0.0
 11
15.74999996214154
 21
17.56501247092201
 31
0.0
 70
    32
 71
     5
 42
9.5
  3
SU1
100
AcDbAlignedDimension
 13
20.49999996214154
 23
16.3750000002515
 33
0.0
 14
10.99999996214154
 24
16.3750000002515
 34
0.0
100
AcDbRotatedDimension
  0
DIMENSION
  5
297
330
1F
100
AcDbEntity
  8
DIM
100
AcDbDimension
  2
*D8
 10
20.84031522716877
 20
16.3750000002515
 30
0.0
 11
21.42531522716877
 21
16.7350000002515
 31
0.0
 70
    32
 71
     5
 42
0.1875
  3
SU1
100
AcDbAlignedDimension
 13
19.87321599753896
 23
16.1875000002515
 33
0.0
 14
20.49999996214154
 24
16.3750000002515
 34
0.0
 50
90.0
100
AcDbRotatedDimension
  0
DIMENSION
  5
2A6
330
1F
100
AcDbEntity
  8
DIM
100
AcDbDimension
  2
*D9
 10
21.98455785949205
 20
16.3750000002515
 30
0.0
 11
22.59955785949205
 21
16.7350000002515
 31
0.0
 70
    32
 71
     5
 42
0.375
  3
SU1
100
AcDbAlignedDimension
 13
20.49999996214154
 23
16.0000000002515
 33
0.0
 14
20.49999996214154
 24
16.3750000002515
 34
0.0
 50
90.0
100
AcDbRotatedDimension
  0
DIMENSION
  5
2B5
330
1F
100
AcDbEntity
  8
DIM
100
AcDbDimension
  2
*D10
 10
10.99999997613493
 20
10.06815061543233
 30
0.0
 11
10.20499997613492
 21
10.06815061543233
 31
0.0
 70
    32
 71
     5
 42
0.4759630522445164
  3
SU1
100
AcDbAlignedDimension
 13
11.47596302837944
 23
9.616608906480772
 33
0.0
 14
10.99999997613493
 24
9.751626646234187
 34
0.0
100
AcDbRotatedDimension
  0
DIMENSION
  5
2C3
330
1F
100
AcDbEntity
  8
DIM
100
AcDbDimension
  2
*D11
 10
10.99999997613493
 20
10.51441724277019
 30
0.0
 11
10.23499997613493
 21
10.51441724277019
 31
0.0
 70
    32
 71
     5
 42
0.5000198865322894
  3
SU1
100
AcDbAlignedDimension
 13
11.50001986266721
 23
7.883556301379188
 33
0.0
 14
10.99999997613493
 24
9.751626646234187
 34
0.0
100
AcDbRotatedDimension
  0
DIMENSION
  5
2D1
330
1F
100
AcDbEntity
  8
DIM
100
AcDbDimension
  2
*D12
 10
10.99999997613493
 20
10.938914768607
 30
0.0
 11
10.20499997613492
 21
10.938914768607
 31
0.0
 70
    32
 71
     5
 42
0.6250198865322894
  3
SU1
100
AcDbAlignedDimension
 13
11.62501986266722
 23
8.946077148385185
 33
0.0
 14
10.99999997613493
 24
9.751626646234187
 34
0.0
100
AcDbRotatedDimension
  0
DIMENSION
  5
2DF
330
1F
100
AcDbEntity
  8
DIM
100
AcDbDimension
  2
*D13
 10
10.99999997613493
 20
4.506144576551804
 30
0.0
 11
10.23499997613493
 21
4.506144576551804
 31
0.0
 70
    32
 71
     5
 42
1.066513052244513
  3
SU1
100
AcDbAlignedDimension
 13
12.06651302837944
 23
5.072794029481711
 33
0.0
 14
10.99999997613493
 24
5.001626646234187
 34
0.0
100
AcDbRotatedDimension
  0
DIMENSION
  5
2ED
330
1F
100
AcDbEntity
  8
DIM
100
AcDbDimension
  2
*D14
 10
10.99999997613493
 20
11.3634122944438
 30
0.0
 11
12.68748320725717
 21
11.3634122944438
 31
0.0
 70
    32
 71
     5
 42
3.374966462244497
  3
SU1
100
AcDbAlignedDimension
 13
14.37496643837942
 23
9.572824735594814
 33
0.0
 14
10.99999997613493
 24
9.751626646234187
 34
0.0
100
AcDbRotatedDimension
  0
DIMENSION
  5
2FB
330
1F
100
AcDbEntity
  8
DIM
100
AcDbDimension
  2
*D15
 10
10.99999997613493
 20
11.77702526953007
 30
0.0
 11
12.93748320725717
 21
11.77702526953007
 31
0.0
 70
    32
 71
     5
 42
3.874966462244497
  3
SU1
100
AcDbAlignedDimension
 13
14.87496643837942
 23
9.633567130493219
 33
0.0
 14
10.99999997613493
 24
9.751626646234187
 34
0.0
100
AcDbRotatedDimension
  0
DIMENSION
  5
309
330
1F
100
AcDbEntity
  8
DIM
100
AcDbDimension
  2
*D16
 10
10.99999997613493
 20
12.20152274880075
 30
0.0
 11
13.18748320725718
 21
12.20152274880075
 31
0.0
 70
    32
 71
     5
 42
4.374966462244497
  3
SU1
100
AcDbAlignedDimension
 13
15.37496643837942
 23
9.572824735594814
 33
0.0
 14
10.99999997613493
 24
9.751626646234187
 34
0.0
100
AcDbRotatedDimension
  0
DIMENSION
  5
317
330
1F
100
AcDbEntity
  8
DIM
100
AcDbDimension
  2
*D17
 10
10.99999997613493
 20
12.59336662238596
 30
0.0
 11
14.55735979725717
 21
12.59336662238596
 31
0.0
 70
    32
 71
     5
 42
7.114719642244494
  3
SU1
100
AcDbAlignedDimension
 13
18.11471961837942
 23
9.564824735594815
 33
0.0
 14
10.99999997613493
 24
9.751626646234187
 34
0.0
100
AcDbRotatedDimension
  0
DIMENSION
  5
325
330
1F
100
AcDbEntity
  8
DIM
100
AcDbDimension
  2
*D18
 10
10.99999997613493
 20
12.98521049597117
 30
0.0
 11
14.80735979725717
 21
12.98521049597117
 31
0.0
 70
    32
 71
     5
 42
7.614719642244494
  3
SU1
100
AcDbAlignedDimension
 13
18.61471961837942
 23
9.633567130493219
 33
0.0
 14
10.99999997613493
 24
9.751626646234187
 34
0.0
100
AcDbRotatedDimension
  0
DIMENSION
  5
333
330
1F
100
AcDbEntity
  8
DIM
100
AcDbDimension
  2
*D19
 10
10.99999997613493
 20
13.36616981880585
 30
0.0
 11
15.05735979725717
 21
13.36616981880585
 31
0.0
 70
    32
 71
     5
 42
8.114719642244494
  3
SU1
100
AcDbAlignedDimension
 13
19.11471961837942
 23
9.572824735594814
 33
0.0
 14
10.99999997613493
 24
9.751626646234187
 34
0.0
100
AcDbRotatedDimension
  0
DIMENSION
  5
341
330
1F
100
AcDbEntity
  8
DIM
100
AcDbDimension
  2
*D20
 10
10.99999997613493
 20
13.7688982431416
 30
0.0
 11
15.49999003286878
 21
13.7688982431416
 31
0.0
 70
    32
 71
     5
 42
8.99998011346771
  3
SU1
100
AcDbAlignedDimension
 13
19.99998008960264
 23
7.883556301379188
 33
0.0
 14
10.99999997613493
 24
9.751626646234187
 34
0.0
100
AcDbRotatedDimension
  0
DIMENSION
  5
46B
330
1F
100
AcDbEntity
  8
DIM
100
AcDbDimension
  2
*D21
 10
8.62294222575494
 20
9.751626646234187
 30
0.0
 11
9.237942225754938
 21
10.11162664623418
 31
0.0
 70
    32
 71
     5
 42
0.2687050000000113
  3
SU1
100
AcDbAlignedDimension
 13
11.40696302837944
 23
9.482921646234176
 33
0.0
 14
10.99999997613493
 24
9.751626646234187
 34
0.0
 50
90.0
100
AcDbRotatedDimension
  0
DIMENSION
  5
47A
330
1F
100
AcDbEntity
  8
DIM
100
AcDbDimension
  2
*D22
 10
7.469322460614634
 20
9.751626646234187
 30
0.0
 11
8.054322460614631
 21
10.11162664623418
 31
0.0
 70
    32
 71
     5
 42
0.3124891708859678
  3
SU1
100
AcDbAlignedDimension
 13
14.24306889858108
 23
9.439137475348218
 33
0.0
 14
10.99999997613493
 24
9.751626646234187
 34
0.0
 50
90.0
100
AcDbRotatedDimension
  0
DIMENSION
  5
489
330
1F
100
AcDbEntity
  8
DIM
100
AcDbDimension
  2
*D23
 10
6.821098041390612
 20
9.751626646234187
 30
0.0
 11
6.821098041390611
 21
9.251637069737189
 31
0.0
 70
    32
 71
     5
 42
0.9999791529940029
  3
SU1
100
AcDbAlignedDimension
 13
11.44133680320347
 23
8.751647493240184
 33
0.0
 14
10.99999997613493
 24
9.751626646234187
 34
0.0
 50
90.0
100
AcDbRotatedDimension
  0
DIMENSION
  5
497
330
1F
100
AcDbEntity
  8
DIM
100
AcDbDimension
  2
*D24
 10
6.18386049730843
 20
9.751626646234187
 30
0.0
 11
6.183860497308429
 21
8.720376646234189
 31
0.0
 70
    32
 71
     5
 42
2.062499999999999
  3
SU1
100
AcDbAlignedDimension
 13
11.31633680320347
 23
7.689126646234187
 33
0.0
 14
10.99999997613493
 24
9.751626646234187
 34
0.0
 50
90.0
100
AcDbRotatedDimension
  0
DIMENSION
  5
4A5
330
1F
100
AcDbEntity
  8
DIM
100
AcDbDimension
  2
*D25
 10
5.447741228717731
 20
9.751626646234187
 30
0.0
 11
5.44774122871773
 21
7.876616222731191
 31
0.0
 70
    32
 71
     5
 42
3.750020847005996
  3
SU1
100
AcDbAlignedDimension
 13
11.44133680320347
 23
6.00160579922819
 33
0.0
 14
10.99999997613493
 24
9.751626646234187
 34
0.0
 50
90.0
100
AcDbRotatedDimension
  0
DIMENSION
  5
4B3
330
1F
100
AcDbEntity
  8
DIM
100
AcDbDimension
  2
*D26
 10
4.722608835268886
 20
9.751626646234187
 30
0.0
 11
4.722608835268885
 21
7.532871231677175
 31
0.0
 70
    32
 71
     5
 42
4.437510829114028
  3
SU1
100
AcDbAlignedDimension
 13
14.24306889858108
 23
5.314115817120157
 33
0.0
 14
10.99999997613493
 24
9.751626646234187
 34
0.0
 50
90.0
100
AcDbRotatedDimension
  0
DIMENSION
  5
4C1
330
1F
100
AcDbEntity
  8
DIM
100
AcDbDimension
  2
*D27
 10
3.898594717311525
 20
9.751626646234189
 30
0.0
 11
3.898594717311524
 21
7.51097914623419
 31
0.0
 70
    32
 71
     5
 42
4.481294999999998
  3
SU1
100
AcDbAlignedDimension
 13
11.3440654885811
 23
5.270331646234188
 33
0.0
 14
10.99999997613493
 24
9.751626646234187
 34
0.0
 50
90.0
100
AcDbRotatedDimension
  0
DIMENSION
  5
5D8
330
1F
100
AcDbEntity
  8
DIM
100
AcDbDimension
  2
*D28
 10
3.07430609983939
 20
9.751626646234189
 30
0.0
 11
3.074306099839389
 21
7.37662664623419
 31
0.0
 70
    32
 71
     5
 42
4.749999999999999
  3
SU1
100
AcDbAlignedDimension
 13
10.99999997613493
 23
5.001626646234187
 33
0.0
 14
10.99999997613493
 24
9.751626646234187
 34
0.0
 50
90.0
100
AcDbRotatedDimension
  0
DIMENSION
  5
5E7
330
1F
100
AcDbEntity
  8
DIM
100
AcDbDimension
  2
*D29
 10
11.98977314148037
 20
5.369002765406497
 30
0.0
 11
17.20297996898965
 21
3.641925409603879
 31
0.0
 70
   163
  1
%%c0.251 REAM THRU\PSLIP FIT FOR PIN, DRAWING #: MOD-PICK-RP-05
 71
     5
 42
0.2499999999999911
  3
SU1$3
100
AcDbDiametricDimension
 15
12.14325291527851
 25
5.171660527061867
 35
0.0
 40
0.0
  0
DIMENSION
  5
603
330
1F
100
AcDbEntity
  8
DIM
100
AcDbDimension
  2
*D30
 10
19.0841066586343
 20
9.377300215579989
 30
0.0
 11
22.49158403124602
 21
12.5031580572384
 31
0.0
 70
   163
  1
C-BORE FOR #6 SHCS\P10X
 71
     5
 42
0.1380000000000052
  3
SU1$3
100
AcDbDiametricDimension
 15
19.14533257812454
 25
9.500974735116457
 35
0.0
 40
0.0
  0
DIMENSION
  5
60F
330
1F
100
AcDbEntity
  8
DIM
100
AcDbDimension
  2
*D31
 10
18.5767829239954
 20
9.352040935697015
 30
0.0
 11
21.94543001572932
 21
13.74546641753876
 31
0.0
 70
   163
  1
10-32 TAP THRU\P8X
 71
     5
 42
0.1899999999999977
  3
SU1$3
100
AcDbDiametricDimension
 15
18.65265631276344
 25
9.526234014999413
 35
0.0
 40
0.0
  0
DIMENSION
  5
61B
330
1F
100
AcDbEntity
  8
DIM
100
AcDbDimension
  2
*D32
 10
19.70818719730668
 20
16.13261199885897
 30
0.0
 11
22.93058137161462
 21
17.99980192826213
 31
0.0
 70
   163
  1
6-32 TAP .375 DEEP\P4X
 71
     5
 42
0.1380000000000088
  3
SU1$3
100
AcDbDiametricDimension
 15
19.79181272697638
 25
16.24238800164403
 35
0.0
 40
0.0
  0
INSERT
  5
6F8
330
1F
100
AcDbEntity
  8
handle
100
AcDbBlockReference
  2
C-BORE-#6
 10
11.47596302837944
 20
9.482921646234176
 30
0.0
  0
INSERT
  5
6F9
330
1F
100
AcDbEntity
  8
handle
100
AcDbBlockReference
  2
C-BORE-#6
 10
14.37496643837942
 20
9.439137475348218
 30
0.0
  0
INSERT
  5
6FA
330
1F
100
AcDbEntity
  8
handle
100
AcDbBlockReference
  2
C-BORE-#6
 10
15.37496643837942
 20
9.439137475348218
 30
0.0
  0
INSERT
  5
6FB
330
1F
100
AcDbEntity
  8
handle
100
AcDbBlockReference
  2
C-BORE-#6
 10
18.11471961837942
 20
9.431137475348219
 30
0.0
  0
INSERT
  5
6FC
330
1F
100
AcDbEntity
  8
handle
100
AcDbBlockReference
  2
C-BORE-#6
 10
19.11471961837942
 20
9.43913747534822
 30
0.0
  0
INSERT
  5
6FD
330
1F
100
AcDbEntity
  8
handle
100
AcDbBlockReference
  2
C-BORE-#6
 10
19.11471961837942
 20
5.314115817120157
 30
0.0
  0
INSERT
  5
6FE
330
1F
100
AcDbEntity
  8
handle
100
AcDbBlockReference
  2
C-BORE-#6
 10
18.11471961837942
 20
5.322115817120156
 30
0.0
  0
INSERT
  5
6FF
330
1F
100
AcDbEntity
  8
handle
100
AcDbBlockReference
  2
C-BORE-#6
 10
15.37496643837942
 20
5.314115817120157
 30
0.0
  0
INSERT
  5
700
330
1F
100
AcDbEntity
  8
handle
100
AcDbBlockReference
  2
C-BORE-#6
 10
14.37496643837942
 20
5.314115817120157
 30
0.0
  0
INSERT
  5
701
330
1F
100
AcDbEntity
  8
handle
100
AcDbBlockReference
  2
C-BORE-#6
 10
11.47596302837944
 20
5.270331646234188
 30
0.0
  0
TEXT
  5
742
330
1F
100
AcDbEntity
  8
TEXT
100
AcDbText
 10
26.56823602614669
 20
19.09875343636488
 30
0.0
 40
0.125
  1
PIN HOLE
100
AcDbText
  0
TEXT
  5
743
330
1F
100
AcDbEntity
  8
TEXT
100
AcDbText
 10
26.56823602614669
 20
19.30708676969821
 30
0.0
 40
0.125
  1
REMOVE SECOND DOWEL
100
AcDbText
  0
LINE
  5
744
330
1F
100
AcDbEntity
  8
TEXT
100
AcDbLine
 10
26.49830190676567
 20
19.55229554512702
 30
0.0
 11
26.49830190676567
 21
18.54564610090719
 31
0.0
  0
LINE
  5
745
330
1F
100
AcDbEntity
  8
TEXT
100
AcDbLine
 10
26.1080494845343
 20
19.55229554512702
 30
0.0
 11
26.1080494845343
 21
18.54564610090719
 31
0.0
  0
TEXT
  5
746
330
1F
100
AcDbEntity
  8
TEXT
100
AcDbText
 10
26.20507614955917
 20
19.30708676969821
 30
0.0
 40
0.18
  1
A
100
AcDbText
  0
TEXT
  5
747
330
1F
100
AcDbEntity
  8
TEXT
100
AcDbText
 10
29.24764782570884
 20
19.29380584224119
 30
0.0
 40
0.125
  1
08-22-03
100
AcDbText
  0
LINE
  5
748
330
1F
100
AcDbEntity
  8
TEXT
100
AcDbLine
 10
29.23830190676567
 20
19.55229554512702
 30
0.0
 11
29.23830190676567
 21
18.54564610090719
 31
0.0
  0
LINE
  5
749
330
1F
100
AcDbEntity
  8
TEXT
100
AcDbLine
 10
30.11830190676567
 20
19.55229554512702
 30
0.0
 11
30.11830190676567
 21
18.54564610090719
 31
0.0
  0
TEXT
  5
74A
330
1F
100
AcDbEntity
  8
handle
100
AcDbText
 10
30.82227940348554
 20
0.4636599002732496
 30
0.0
 40
0.2
  1
A
100
AcDbText
  0
ENDSEC
  0
SECTION
  2
OBJECTS
  0
DICTIONARY
  5
C
330
0
100
AcDbDictionary
281
     1
  3
ACAD_GROUP
350
D
  3
ACAD_LAYOUT
350
1A
  3
ACAD_MLINESTYLE
350
17
  3
ACAD_PLOTSETTINGS
350
19
  3
ACAD_PLOTSTYLENAME
350
E
  3
AcadDim
350
EE
  0
DICTIONARY
  5
D
102
{ACAD_REACTORS
330
C
102
}
330
C
100
AcDbDictionary
281
     1
  0
DICTIONARY
  5
1A
102
{ACAD_REACTORS
330
C
102
}
330
C
100
AcDbDictionary
281
     1
  3
Layout1
350
1E
  3
Layout2
350
26
  3
Model
350
22
  0
DICTIONARY
  5
17
102
{ACAD_REACTORS
330
C
102
}
330
C
100
AcDbDictionary
281
     1
  3
Standard
350
18
  0
DICTIONARY
  5
19
102
{ACAD_REACTORS
330
C
102
}
330
C
100
AcDbDictionary
281
     1
  0
ACDBDICTIONARYWDFLT
  5
E
102
{ACAD_REACTORS
330
C
102
}
330
C
100
AcDbDictionary
281
     1
  3
Normal
350
F
100
AcDbDictionaryWithDefault
340
F
  0
XRECORD
  5
EE
102
{ACAD_REACTORS
330
C
102
}
330
C
100
AcDbXrecord
280
     1
 90
   990106
  3

 60
     0
 61
     0
 62
     2
 63
     2
 64
     0
 65
     0
 66
     0
 67
     3
 68
     1
 69
     0
 70
     0
 71
     0
 72
     0
 40
0.0
170
     2
340
0
  0
LAYOUT
  5
1E
102
{ACAD_REACTORS
330
1A
102
}
330
1A
100
AcDbPlotSettings
  1

  2

  4

  6

 40
0.0
 41
0.0
 42
0.0
 43
0.0
 44
0.0
 45
0.0
 46
0.0
 47
0.0
 48
0.0
 49
0.0
140
0.0
141
0.0
142
1.0
143
1.0
 70
   688
 72
     0
 73
     0
 74
     5
  7
style-1.ctb
 75
    16
147
1.0
148
0.0
149
0.0
100
AcDbLayout
  1
Layout1
 70
     1
 71
     1
 10
0.0
 20
0.0
 11
12.0
 21
9.0
 12
0.0
 22
0.0
 32
0.0
 14
1.000000000000000E+20
 24
1.000000000000000E+20
 34
1.000000000000000E+20
 15
-1.000000000000000E+20
 25
-1.000000000000000E+20
 35
-1.000000000000000E+20
146
0.0
 13
0.0
 23
0.0
 33
0.0
 16
1.0
 26
0.0
 36
0.0
 17
0.0
 27
1.0
 37
0.0
 76
     0
330
1B
  0
LAYOUT
  5
26
102
{ACAD_REACTORS
330
1A
102
}
330
1A
100
AcDbPlotSettings
  1

  2

  4

  6

 40
0.0
 41
0.0
 42
0.0
 43
0.0
 44
0.0
 45
0.0
 46
0.0
 47
0.0
 48
0.0
 49
0.0
140
0.0
141
0.0
142
1.0
143
1.0
 70
   688
 72
     0
 73
     0
 74
     5
  7
style-1.ctb
 75
    16
147
1.0
148
0.0
149
0.0
100
AcDbLayout
  1
Layout2
 70
     1
 71
     2
 10
0.0
 20
0.0
 11
12.0
 21
9.0
 12
0.0
 22
0.0
 32
0.0
 14
0.0
 24
0.0
 34
0.0
 15
0.0
 25
0.0
 35
0.0
146
0.0
 13
0.0
 23
0.0
 33
0.0
 16
1.0
 26
0.0
 36
0.0
 17
0.0
 27
1.0
 37
0.0
 76
     0
330
23
  0
LAYOUT
  5
22
102
{ACAD_REACTORS
330
1A
102
}
330
1A
100
AcDbPlotSettings
  1

  2
HP DesignJet 488CA (E_A0) by HP.pc3
  4
User265
  6

 40
4.995333194732666
 41
16.93336677551269
 42
4.99530029296875
 43
16.933349609375
 44
558.7153320312499
 45
863.4306640625
 46
20.32
 47
27.43199999999999
 48
0.0
 49
0.0
140
0.0
141
0.0
142
1.0
143
1.0
 70
 11956
 72
     0
 73
     1
 74
     1
  7
style-1.ctb
 75
    16
147
1.0
148
-17.0489613220199
149
-3.157948022938736
100
AcDbLayout
  1
Model
 70
     1
 71
     0
 10
0.0
 20
0.0
 11
12.0
 21
9.0
 12
0.0
 22
0.0
 32
0.0
 14
0.0
 24
0.0
 34
0.0
 15
0.0
 25
0.0
 35
0.0
146
0.0
 13
0.0
 23
0.0
 33
0.0
 16
1.0
 26
0.0
 36
0.0
 17
0.0
 27
1.0
 37
0.0
 76
     0
330
1F
  0
MLINESTYLE
  5
18
102
{ACAD_REACTORS
330
17
102
}
330
17
100
AcDbMlineStyle
  2
STANDARD
 70
     0
  3

 62
   256
 51
90.0
 52
90.0
 71
     2
 49
0.5
 62
   256
  6
BYLAYER
 49
-0.5
 62
   256
  6
BYLAYER
  0
ACDBPLACEHOLDER
  5
F
102
{ACAD_REACTORS
330
E
102
}
330
E
  0
ENDSEC
  0
EOF
