  0
SECTION
  2
HEADER
  9
$ACADVER
  1
AC1015
  9
$ACADMAINTVER
 70
     6
  9
$DWGCODEPAGE
  3
ANSI_1252
  9
$INSBASE
 10
0.0
 20
0.0
 30
0.0
  9
$EXTMIN
 10
0.25
 20
0.0625
 30
0.0
  9
$EXTMAX
 10
10.25043121410005
 20
7.3025
 30
0.0
  9
$LIMMIN
 10
0.0
 20
0.0
  9
$LIMMAX
 10
12.0
 20
9.0
  9
$ORTHOMODE
 70
     1
  9
$REGENMODE
 70
     1
  9
$FILLMODE
 70
     1
  9
$QTEXTMODE
 70
     0
  9
$MIRRTEXT
 70
     1
  9
$LTSCALE
 40
1.0
  9
$ATTMODE
 70
     1
  9
$TEXTSIZE
 40
0.06
  9
$TRACEWID
 40
0.05
  9
$TEXTSTYLE
  7
Standard
  9
$CLAYER
  8
TEXT
  9
$CELTYPE
  6
ByLayer
  9
$CECOLOR
 62
   256
  9
$CELTSCALE
 40
1.0
  9
$DISPSILH
 70
     0
  9
$DIMSCALE
 40
0.5
  9
$DIMASZ
 40
0.18
  9
$DIMEXO
 40
0.0625
  9
$DIMDLI
 40
0.38
  9
$DIMRND
 40
0.0
  9
$DIMDLE
 40
0.0
  9
$DIMEXE
 40
0.18
  9
$DIMTP
 40
0.001
  9
$DIMTM
 40
0.001
  9
$DIMTXT
 40
0.18
  9
$DIMCEN
 40
0.09
  9
$DIMTSZ
 40
0.0
  9
$DIMTOL
 70
     0
  9
$DIMLIM
 70
     0
  9
$DIMTIH
 70
     1
  9
$DIMTOH
 70
     1
  9
$DIMSE1
 70
     0
  9
$DIMSE2
 70
     0
  9
$DIMTAD
 70
     0
  9
$DIMZIN
 70
     0
  9
$DIMBLK
  1

  9
$DIMASO
 70
     1
  9
$DIMSHO
 70
     1
  9
$DIMPOST
  1

  9
$DIMAPOST
  1
mm
  9
$DIMALT
 70
     0
  9
$DIMALTD
 70
     2
  9
$DIMALTF
 40
25.4
  9
$DIMLFAC
 40
1.0
  9
$DIMTOFL
 70
     0
  9
$DIMTVP
 40
0.0
  9
$DIMTIX
 70
     0
  9
$DIMSOXD
 70
     0
  9
$DIMSAH
 70
     0
  9
$DIMBLK1
  1

  9
$DIMBLK2
  1

  9
$DIMSTYLE
  2
SU1
  9
$DIMCLRD
 70
     0
  9
$DIMCLRE
 70
     0
  9
$DIMCLRT
 70
     0
  9
$DIMTFAC
 40
1.0
  9
$DIMGAP
 40
0.09
  9
$DIMJUST
 70
     0
  9
$DIMSD1
 70
     0
  9
$DIMSD2
 70
     0
  9
$DIMTOLJ
 70
     1
  9
$DIMTZIN
 70
     0
  9
$DIMALTZ
 70
     0
  9
$DIMALTTZ
 70
     0
  9
$DIMUPT
 70
     0
  9
$DIMDEC
 70
     3
  9
$DIMTDEC
 70
     3
  9
$DIMALTU
 70
     2
  9
$DIMALTTD
 70
     2
  9
$DIMTXSTY
  7
Standard
  9
$DIMAUNIT
 70
     0
  9
$DIMADEC
 70
     0
  9
$DIMALTRND
 40
0.0
  9
$DIMAZIN
 70
     0
  9
$DIMDSEP
 70
    46
  9
$DIMATFIT
 70
     0
  9
$DIMFRAC
 70
     0
  9
$DIMLDRBLK
  1

  9
$DIMLUNIT
 70
     2
  9
$DIMLWD
 70
    -2
  9
$DIMLWE
 70
    -2
  9
$DIMTMOVE
 70
     0
  9
$LUNITS
 70
     2
  9
$LUPREC
 70
     4
  9
$SKETCHINC
 40
0.1
  9
$FILLETRAD
 40
0.5
  9
$AUNITS
 70
     0
  9
$AUPREC
 70
     0
  9
$MENU
  1
.
  9
$ELEVATION
 40
0.0
  9
$PELEVATION
 40
0.0
  9
$THICKNESS
 40
0.0
  9
$LIMCHECK
 70
     0
  9
$CHAMFERA
 40
0.5
  9
$CHAMFERB
 40
0.5
  9
$CHAMFERC
 40
1.0
  9
$CHAMFERD
 40
0.0
  9
$SKPOLY
 70
     0
  9
$TDCREATE
 40
2452832.493214328
  9
$TDUCREATE
 40
2452832.826547662
  9
$TDUPDATE
 40
2452951.377679398
  9
$TDUUPDATE
 40
2452951.711012731
  9
$TDINDWG
 40
0.1223998264
  9
$TDUSRTIMER
 40
0.1223998264
  9
$USRTIMER
 70
     1
  9
$ANGBASE
 50
0.0
  9
$ANGDIR
 70
     0
  9
$PDMODE
 70
     0
  9
$PDSIZE
 40
0.0
  9
$PLINEWID
 40
0.0
  9
$SPLFRAME
 70
     0
  9
$SPLINETYPE
 70
     6
  9
$SPLINESEGS
 70
     8
  9
$HANDSEED
  5
4D5
  9
$SURFTAB1
 70
     6
  9
$SURFTAB2
 70
     6
  9
$SURFTYPE
 70
     6
  9
$SURFU
 70
     6
  9
$SURFV
 70
     6
  9
$UCSBASE
  2

  9
$UCSNAME
  2

  9
$UCSORG
 10
0.0
 20
0.0
 30
0.0
  9
$UCSXDIR
 10
1.0
 20
0.0
 30
0.0
  9
$UCSYDIR
 10
0.0
 20
1.0
 30
0.0
  9
$UCSORTHOREF
  2

  9
$UCSORTHOVIEW
 70
     0
  9
$UCSORGTOP
 10
0.0
 20
0.0
 30
0.0
  9
$UCSORGBOTTOM
 10
0.0
 20
0.0
 30
0.0
  9
$UCSORGLEFT
 10
0.0
 20
0.0
 30
0.0
  9
$UCSORGRIGHT
 10
0.0
 20
0.0
 30
0.0
  9
$UCSORGFRONT
 10
0.0
 20
0.0
 30
0.0
  9
$UCSORGBACK
 10
0.0
 20
0.0
 30
0.0
  9
$PUCSBASE
  2

  9
$PUCSNAME
  2

  9
$PUCSORG
 10
0.0
 20
0.0
 30
0.0
  9
$PUCSXDIR
 10
1.0
 20
0.0
 30
0.0
  9
$PUCSYDIR
 10
0.0
 20
1.0
 30
0.0
  9
$PUCSORTHOREF
  2

  9
$PUCSORTHOVIEW
 70
     0
  9
$PUCSORGTOP
 10
0.0
 20
0.0
 30
0.0
  9
$PUCSORGBOTTOM
 10
0.0
 20
0.0
 30
0.0
  9
$PUCSORGLEFT
 10
0.0
 20
0.0
 30
0.0
  9
$PUCSORGRIGHT
 10
0.0
 20
0.0
 30
0.0
  9
$PUCSORGFRONT
 10
0.0
 20
0.0
 30
0.0
  9
$PUCSORGBACK
 10
0.0
 20
0.0
 30
0.0
  9
$USERI1
 70
     0
  9
$USERI2
 70
     0
  9
$USERI3
 70
     0
  9
$USERI4
 70
     0
  9
$USERI5
 70
     0
  9
$USERR1
 40
0.0
  9
$USERR2
 40
0.0
  9
$USERR3
 40
0.0
  9
$USERR4
 40
0.0
  9
$USERR5
 40
0.0
  9
$WORLDVIEW
 70
     1
  9
$SHADEDGE
 70
     3
  9
$SHADEDIF
 70
    70
  9
$TILEMODE
 70
     1
  9
$MAXACTVP
 70
    64
  9
$PINSBASE
 10
0.0
 20
0.0
 30
0.0
  9
$PLIMCHECK
 70
     0
  9
$PEXTMIN
 10
1.000000000000000E+20
 20
1.000000000000000E+20
 30
1.000000000000000E+20
  9
$PEXTMAX
 10
-1.000000000000000E+20
 20
-1.000000000000000E+20
 30
-1.000000000000000E+20
  9
$PLIMMIN
 10
0.0
 20
0.0
  9
$PLIMMAX
 10
12.0
 20
9.0
  9
$UNITMODE
 70
     0
  9
$VISRETAIN
 70
     1
  9
$PLINEGEN
 70
     0
  9
$PSLTSCALE
 70
     1
  9
$TREEDEPTH
 70
  3020
  9
$CMLSTYLE
  2
Standard
  9
$CMLJUST
 70
     0
  9
$CMLSCALE
 40
1.0
  9
$PROXYGRAPHICS
 70
     1
  9
$MEASUREMENT
 70
     0
  9
$CELWEIGHT
370
    -1
  9
$ENDCAPS
280
     0
  9
$JOINSTYLE
280
     0
  9
$LWDISPLAY
290
     0
  9
$INSUNITS
 70
     1
  9
$HYPERLINKBASE
  1

  9
$STYLESHEET
  1
style-1.ctb
  9
$XEDIT
290
     1
  9
$CEPSNTYPE
380
     0
  9
$PSTYLEMODE
290
     1
  9
$FINGERPRINTGUID
  2
{FDEAD576-A652-11D2-9A35-0060089B3A3F}
  9
$VERSIONGUID
  2
{F4E6A57B-96CA-4F1B-84F8-C29EE01F1AAE}
  9
$EXTNAMES
290
     1
  9
$PSVPSCALE
 40
0.0
  9
$OLESTARTUP
290
     0
  0
ENDSEC
  0
SECTION
  2
CLASSES
  0
CLASS
  1
ACDBDICTIONARYWDFLT
  2
AcDbDictionaryWithDefault
  3
AutoCAD 2000
 90
        0
280
     0
281
     0
  0
CLASS
  1
ACDBPLACEHOLDER
  2
AcDbPlaceHolder
  3
AutoCAD 2000
 90
        0
280
     0
281
     0
  0
CLASS
  1
LAYOUT
  2
AcDbLayout
  3
AutoCAD 2000
 90
        0
280
     0
281
     0
  0
ENDSEC
  0
SECTION
  2
TABLES
  0
TABLE
  2
VPORT
  5
8
330
0
100
AcDbSymbolTable
 70
     2
  0
VPORT
  5
4D4
330
8
100
AcDbSymbolTableRecord
100
AcDbViewportTableRecord
  2
*Active
 70
     0
 10
0.0
 20
0.0
 11
1.0
 21
1.0
 12
5.250183132535526
 22
3.682548542952337
 13
0.0
 23
0.0
 14
0.125
 24
0.125
 15
1.0
 25
1.0
 16
0.0
 26
0.0
 36
1.0
 17
0.0
 27
0.0
 37
0.0
 40
7.287148972721348
 41
1.629473684210526
 42
50.0
 43
0.0
 44
0.0
 50
0.0
 51
0.0
 71
     0
 72
   100
 73
     1
 74
     3
 75
     0
 76
     1
 77
     0
 78
     0
281
     0
 65
     1
110
0.0
120
0.0
130
0.0
111
1.0
121
0.0
131
0.0
112
0.0
122
1.0
132
0.0
 79
     0
146
0.0
  0
ENDTAB
  0
TABLE
  2
LTYPE
  5
5
330
0
100
AcDbSymbolTable
 70
     3
  0
LTYPE
  5
14
330
5
100
AcDbSymbolTableRecord
100
AcDbLinetypeTableRecord
  2
ByBlock
 70
     0
  3

 72
    65
 73
     0
 40
0.0
  0
LTYPE
  5
15
330
5
100
AcDbSymbolTableRecord
100
AcDbLinetypeTableRecord
  2
ByLayer
 70
     0
  3

 72
    65
 73
     0
 40
0.0
  0
LTYPE
  5
16
330
5
100
AcDbSymbolTableRecord
100
AcDbLinetypeTableRecord
  2
Continuous
 70
     0
  3
Solid line
 72
    65
 73
     0
 40
0.0
  0
LTYPE
  5
48
330
5
100
AcDbSymbolTableRecord
100
AcDbLinetypeTableRecord
  2
CENTER
 70
     0
  3
____ _ ____ _ ____ _ ____ _ ____ _ ____ _ ____ 
 72
    65
 73
     4
 40
2.0
 49
1.25
 74
     0
 49
-0.25
 74
     0
 49
0.25
 74
     0
 49
-0.25
 74
     0
  0
LTYPE
  5
F9
330
5
100
AcDbSymbolTableRecord
100
AcDbLinetypeTableRecord
  2
HIDDEN
 70
     0
  3
Hidden __ __ __ __ __ __ __ __ __ __ __ __ __ _
 72
    65
 73
     2
 40
0.375
 49
0.25
 74
     0
 49
-0.125
 74
     0
  0
ENDTAB
  0
TABLE
  2
LAYER
  5
2
330
0
100
AcDbSymbolTable
 70
    10
  0
LAYER
  5
10
330
2
100
AcDbSymbolTableRecord
100
AcDbLayerTableRecord
  2
0
 70
     0
 62
     7
  6
Continuous
370
    -3
390
F
  0
LAYER
  5
49
330
2
100
AcDbSymbolTableRecord
100
AcDbLayerTableRecord
  2
TEXT
 70
     0
 62
     7
  6
Continuous
370
    -3
390
F
  0
LAYER
  5
4A
330
2
100
AcDbSymbolTableRecord
100
AcDbLayerTableRecord
  2
BORDER
 70
     0
 62
     8
  6
Continuous
370
    -3
390
F
  0
LAYER
  5
A1
330
2
100
AcDbSymbolTableRecord
100
AcDbLayerTableRecord
  2
Defpoints
 70
     0
 62
     7
  6
Continuous
290
     0
370
    -3
390
F
  0
LAYER
  5
D8
330
2
100
AcDbSymbolTableRecord
100
AcDbLayerTableRecord
  2
DIM
 70
     0
 62
     3
  6
Continuous
370
    -3
390
F
  0
LAYER
  5
D9
330
2
100
AcDbSymbolTableRecord
100
AcDbLayerTableRecord
  2
CENTER
 70
     0
 62
     1
  6
CENTER
370
    -3
390
F
  0
LAYER
  5
108
330
2
100
AcDbSymbolTableRecord
100
AcDbLayerTableRecord
  2
handle
 70
     0
 62
     7
  6
Continuous
370
    -3
390
F
  0
LAYER
  5
2D7
330
2
100
AcDbSymbolTableRecord
100
AcDbLayerTableRecord
  2
LT
 70
     0
 62
     7
  6
Continuous
370
    -3
390
F
  0
LAYER
  5
3FF
330
2
100
AcDbSymbolTableRecord
100
AcDbLayerTableRecord
  2
redline
 70
     0
 62
     1
  6
Continuous
370
    -3
390
F
  0
LAYER
  5
40C
330
2
100
AcDbSymbolTableRecord
100
AcDbLayerTableRecord
  2
side-stop
 70
     0
 62
     7
  6
Continuous
370
    -3
390
F
  0
ENDTAB
  0
TABLE
  2
STYLE
  5
3
330
0
100
AcDbSymbolTable
 70
     3
  0
STYLE
  5
11
330
3
100
AcDbSymbolTableRecord
100
AcDbTextStyleTableRecord
  2
Standard
 70
     0
 40
0.0
 41
1.0
 50
0.0
 71
     0
 42
0.06
  3
txt
  4

  0
STYLE
  5
4B
330
3
100
AcDbSymbolTableRecord
100
AcDbTextStyleTableRecord
  2
ADESK2
 70
     0
 40
0.0
 41
1.0
 50
0.0
 71
     0
 42
0.065
  3
romans
  4

  0
STYLE
  5
F8
330
3
100
AcDbSymbolTableRecord
100
AcDbTextStyleTableRecord
  2

 70
     1
 40
0.0
 41
1.0
 50
0.0
 71
     0
 42
0.2
  3
ltypeshp.shx
  4

  0
ENDTAB
  0
TABLE
  2
VIEW
  5
6
330
0
100
AcDbSymbolTable
 70
     0
  0
ENDTAB
  0
TABLE
  2
UCS
  5
7
330
0
100
AcDbSymbolTable
 70
     0
  0
ENDTAB
  0
TABLE
  2
APPID
  5
9
330
0
100
AcDbSymbolTable
 70
     1
  0
APPID
  5
12
330
9
100
AcDbSymbolTableRecord
100
AcDbRegAppTableRecord
  2
ACAD
 70
     0
  0
ENDTAB
  0
TABLE
  2
DIMSTYLE
  5
A
330
0
100
AcDbSymbolTable
 70
     4
100
AcDbDimStyleTable
 71
     4
340
4C
340
E0
340
DF
340
27
  0
DIMSTYLE
105
27
330
A
100
AcDbSymbolTableRecord
100
AcDbDimStyleTableRecord
  2
Standard
 70
     0
340
11
  0
DIMSTYLE
105
4C
102
{ACAD_REACTORS
330
1EF
330
1FD
330
20B
330
466
330
474
330
482
330
490
330
49E
330
4AC
102
}
330
A
100
AcDbSymbolTableRecord
100
AcDbDimStyleTableRecord
  2
SU1
 70
     0
  4
mm
 40
0.5
 47
0.001
 48
0.001
271
     3
272
     3
289
     0
340
11
  0
DIMSTYLE
105
DF
330
A
100
AcDbSymbolTableRecord
100
AcDbDimStyleTableRecord
  2
SU1$4
 70
     0
  4
mm
 40
0.5
 47
0.001
 48
0.001
271
     3
272
     3
288
     1
289
     0
340
11
  0
DIMSTYLE
105
E0
102
{ACAD_REACTORS
330
39F
102
}
330
A
100
AcDbSymbolTableRecord
100
AcDbDimStyleTableRecord
  2
SU1$3
 70
     0
  4
mm
 40
0.5
 47
0.001
 48
0.001
271
     3
272
     3
288
     1
289
     0
340
11
  0
ENDTAB
  0
TABLE
  2
BLOCK_RECORD
  5
1
330
0
100
AcDbSymbolTable
 70
    17
  0
BLOCK_RECORD
  5
1F
330
1
100
AcDbSymbolTableRecord
100
AcDbBlockTableRecord
  2
*Model_Space
340
22
  0
BLOCK_RECORD
  5
1B
330
1
100
AcDbSymbolTableRecord
100
AcDbBlockTableRecord
  2
*Paper_Space
340
1E
  0
BLOCK_RECORD
  5
23
330
1
100
AcDbSymbolTableRecord
100
AcDbBlockTableRecord
  2
*Paper_Space0
340
26
  0
BLOCK_RECORD
  5
11D
330
1
100
AcDbSymbolTableRecord
100
AcDbBlockTableRecord
  2
a-border
340
0
102
{BLKREFS
331
167
102
}
  0
BLOCK_RECORD
  5
1E5
330
1
100
AcDbSymbolTableRecord
100
AcDbBlockTableRecord
  2
C-BORE-#6
340
0
310
2800000020000000200000000100080000000000000400000000000000000000000000000000000000000000000080000080000000808000800000008000800080800000C0C0C000C0DCC000F0CAA6000020400000206000002080000020A0000020C0000020E00000400000004020000040400000406000004080000040A0
310
000040C0000040E00000600000006020000060400000606000006080000060A0000060C0000060E00000800000008020000080400000806000008080000080A0000080C0000080E00000A0000000A0200000A0400000A0600000A0800000A0A00000A0C00000A0E00000C0000000C0200000C0400000C0600000C0800000C0
310
A00000C0C00000C0E00000E0000000E0200000E0400000E0600000E0800000E0A00000E0C00000E0E00040000000400020004000400040006000400080004000A0004000C0004000E00040200000402020004020400040206000402080004020A0004020C0004020E000404000004040200040404000404060004040800040
310
40A0004040C0004040E00040600000406020004060400040606000406080004060A0004060C0004060E00040800000408020004080400040806000408080004080A0004080C0004080E00040A0000040A0200040A0400040A0600040A0800040A0A00040A0C00040A0E00040C0000040C0200040C0400040C0600040C08000
310
40C0A00040C0C00040C0E00040E0000040E0200040E0400040E0600040E0800040E0A00040E0C00040E0E00080000000800020008000400080006000800080008000A0008000C0008000E00080200000802020008020400080206000802080008020A0008020C0008020E00080400000804020008040400080406000804080
310
008040A0008040C0008040E00080600000806020008060400080606000806080008060A0008060C0008060E00080800000808020008080400080806000808080008080A0008080C0008080E00080A0000080A0200080A0400080A0600080A0800080A0A00080A0C00080A0E00080C0000080C0200080C0400080C0600080C0
310
800080C0A00080C0C00080C0E00080E0000080E0200080E0400080E0600080E0800080E0A00080E0C00080E0E000C0000000C0002000C0004000C0006000C0008000C000A000C000C000C000E000C0200000C0202000C0204000C0206000C0208000C020A000C020C000C020E000C0400000C0402000C0404000C0406000C0
310
408000C040A000C040C000C040E000C0600000C0602000C0604000C0606000C0608000C060A000C060C000C060E000C0800000C0802000C0804000C0806000C0808000C080A000C080C000C080E000C0A00000C0A02000C0A04000C0A06000C0A08000C0A0A000C0A0C000C0A0E000C0C00000C0C02000C0C04000C0C06000
310
C0C08000C0C0A000F0FBFF00A4A0A000808080000000FF0000FF000000FFFF00FF000000FF00FF00FFFF0000FFFFFF0000000000000000000000000000000000000000000000000000000000000000000000000000000000000000000000000000000000000000000000000000000000000000000000000000000000000000
310
00F900000000000000000000000000000000000000000000000000000000000000F900000000000000000000000000000000000000000000000000000000000000F900000000000000000000000000000000000000000000000000000000000000F900000000000000000000000000000000000000000000000000000000FF
310
FFFFFFFFFF000000000000000000000000000000000000000000000000FFFF000000F90000FFFF0000000000000000000000000000000000000000FFFF0000000000F900000000FFFF000000000000000000000000000000000000FF000000000000F9000000000000FF00000000000000000000000000000000FF00000000
310
00FFFFFFFFFF0000000000FF0000000000000000000000000000FF00000000FFFF0000F90000FF0000000000FF00000000000000000000000000FF000000FF00000000F9000000FF00000000FF000000000000000000000000FF00000000FF00000000F900000000FF00000000FF0000000000000000000000FF000000FF00
310
00000000F900000000FF00000000FF0000000000000000000000FF000000FF0000000000F90000000000FF000000FF000000000000F9F9F9F9F9F9F9F9F9F9F9F9F9F9F9F9F9F9F9F9F9F9F9F9F9F9F9F9F9F900000000000000FF000000FF0000000000F90000000000FF000000FF0000000000000000000000FF00000000
310
FF00000000F900000000FF00000000FF0000000000000000000000FF00000000FF00000000F900000000FF000000FF00000000000000000000000000FF00000000FF000000F9000000FF00000000FF0000000000000000000000000000FF00000000FFFF00F900FFFF00000000FF000000000000000000000000000000FF00
310
0000000000FFFFFF000000000000FF00000000000000000000000000000000FF000000000000F9000000000000FF000000000000000000000000000000000000FFFF00000000F90000000000FF000000000000000000000000000000000000000000FFFF0000F900FFFFFFFF00000000000000000000000000000000000000
310
0000000000FFFFFFFF000000000000000000000000000000000000000000000000000000000000F900000000000000000000000000000000000000000000000000000000000000F900000000000000000000000000000000000000000000000000000000000000F90000000000000000000000000000000000000000000000
310
0000000000000000000000000000000000000000000000000000000000000000000000000000000000000000000000000000000000000000
1001
ACAD
1000
DesignCenter Data
1002
{
1070
     1
1070
     1
1002
}
  0
BLOCK_RECORD
  5
1F0
330
1
100
AcDbSymbolTableRecord
100
AcDbBlockTableRecord
  2
*D3
340
0
  0
BLOCK_RECORD
  5
1FE
330
1
100
AcDbSymbolTableRecord
100
AcDbBlockTableRecord
  2
*D4
340
0
  0
BLOCK_RECORD
  5
20C
330
1
100
AcDbSymbolTableRecord
100
AcDbBlockTableRecord
  2
*D5
340
0
  0
BLOCK_RECORD
  5
3A0
330
1
100
AcDbSymbolTableRecord
100
AcDbBlockTableRecord
  2
*D6
340
0
  0
BLOCK_RECORD
  5
467
330
1
100
AcDbSymbolTableRecord
100
AcDbBlockTableRecord
  2
*D11
340
0
  0
BLOCK_RECORD
  5
475
330
1
100
AcDbSymbolTableRecord
100
AcDbBlockTableRecord
  2
*D12
340
0
  0
BLOCK_RECORD
  5
483
330
1
100
AcDbSymbolTableRecord
100
AcDbBlockTableRecord
  2
*D13
340
0
  0
BLOCK_RECORD
  5
491
330
1
100
AcDbSymbolTableRecord
100
AcDbBlockTableRecord
  2
*D14
340
0
  0
BLOCK_RECORD
  5
49F
330
1
100
AcDbSymbolTableRecord
100
AcDbBlockTableRecord
  2
*D15
340
0
  0
BLOCK_RECORD
  5
4AD
330
1
100
AcDbSymbolTableRecord
100
AcDbBlockTableRecord
  2
*D16
340
0
  0
ENDTAB
  0
ENDSEC
  0
SECTION
  2
BLOCKS
  0
BLOCK
  5
20
330
1F
100
AcDbEntity
  8
0
100
AcDbBlockBegin
  2
*Model_Space
 70
     0
 10
0.0
 20
0.0
 30
0.0
  3
*Model_Space
  1

  0
ENDBLK
  5
21
330
1F
100
AcDbEntity
  8
0
100
AcDbBlockEnd
  0
BLOCK
  5
1C
330
1B
100
AcDbEntity
 67
     1
  8
0
100
AcDbBlockBegin
  2
*Paper_Space
 70
     0
 10
0.0
 20
0.0
 30
0.0
  3
*Paper_Space
  1

  0
ENDBLK
  5
1D
330
1B
100
AcDbEntity
 67
     1
  8
0
100
AcDbBlockEnd
  0
BLOCK
  5
24
330
23
100
AcDbEntity
  8
0
100
AcDbBlockBegin
  2
*Paper_Space0
 70
     0
 10
0.0
 20
0.0
 30
0.0
  3
*Paper_Space0
  1

  0
ENDBLK
  5
25
330
23
100
AcDbEntity
  8
0
100
AcDbBlockEnd
  0
BLOCK
  5
165
330
11D
100
AcDbEntity
  8
0
100
AcDbBlockBegin
  2
a-border
 70
     2
 10
0.0
 20
0.0
 30
0.0
  3
a-border
  1

  0
ATTDEF
  5
11E
330
11D
100
AcDbEntity
  8
TEXT
100
AcDbText
 10
9.166299999999999
 20
0.2313
 30
0.0
 40
0.06
  1

100
AcDbAttributeDefinition
  3
Enter File Name
  2
FILE
 70
     0
  0
ATTDEF
  5
11F
330
11D
100
AcDbEntity
  8
TEXT
100
AcDbText
 10
7.8768
 20
0.4075
 30
0.0
 40
0.03
  1

100
AcDbAttributeDefinition
  3
Enter the Date
  2
DATE
 70
     0
  0
ATTDEF
  5
120
330
11D
100
AcDbEntity
  8
TEXT
100
AcDbText
 10
7.381999999999999
 20
0.4188
 30
0.0
 40
0.06
  1
S. KYRE
100
AcDbAttributeDefinition
  3
Enter Your Name
  2
NAME
 70
     0
  0
ATTDEF
  5
121
330
11D
100
AcDbEntity
  8
TEXT
100
AcDbText
 10
8.3488
 20
0.0891
 30
0.0
 40
0.06
  1

100
AcDbAttributeDefinition
  3
Enter Drawing Scale
  2
SCALE
 70
     0
  0
ATTDEF
  5
122
330
11D
100
AcDbEntity
  8
TEXT
100
AcDbText
 10
8.3602
 20
0.2256
 30
0.0
 40
0.06
  1

100
AcDbAttributeDefinition
  3
Enter Drawing Directory
  2
DIRECTORY
 70
     0
  0
TEXT
  5
123
330
11D
100
AcDbEntity
  8
TEXT
100
AcDbText
 10
9.806017901868278
 20
0.1221884730513363
 30
0.0
 40
0.0325
  1
OF
  7
ADESK2
100
AcDbText
  0
TEXT
  5
124
330
11D
100
AcDbEntity
  8
TEXT
100
AcDbText
 10
7.926233901868277
 20
0.4874754730513367
 30
0.0
 40
0.0325
  1
DATE
  7
ADESK2
100
AcDbText
  0
LINE
  5
125
330
11D
100
AcDbEntity
  8
TEXT
100
AcDbLine
 10
7.864524401868278
 20
0.5457504730513368
 30
0.0
 11
7.864524401868278
 21
0.0625
 31
0.0
  0
TEXT
  5
126
330
11D
100
AcDbEntity
  8
TEXT
100
AcDbText
 10
7.154532401868278
 20
0.1782504730513361
 30
0.0
 40
0.0325
  1
DESIGN
  7
ADESK2
100
AcDbText
  0
TEXT
  5
127
330
11D
100
AcDbEntity
  8
TEXT
100
AcDbText
 10
7.154532401868278
 20
0.3357504730513368
 30
0.0
 40
0.0325
  1
CHECKED
  7
ADESK2
100
AcDbText
  0
LINE
  5
128
330
11D
100
AcDbEntity
  8
TEXT
100
AcDbLine
 10
7.114532401868278
 20
0.5457504730513368
 30
0.0
 11
8.114532401868279
 21
0.5457504730513368
 31
0.0
  0
TEXT
  5
129
330
11D
100
AcDbEntity
  8
TEXT
100
AcDbText
 10
9.848673055561846
 20
7.044547729948104
 30
0.0
 40
0.0325
  1
APPROVED
  7
ADESK2
100
AcDbText
  0
TEXT
  5
12A
330
11D
100
AcDbEntity
  8
TEXT
100
AcDbText
 10
9.451823055561847
 20
7.044547729948104
 30
0.0
 40
0.0325
  1
DATE
  7
ADESK2
100
AcDbText
  0
TEXT
  5
12B
330
11D
100
AcDbEntity
  8
TEXT
100
AcDbText
 10
8.418973055561847
 20
7.044547729948104
 30
0.0
 40
0.0325
  1
DESCRIPTION
  7
ADESK2
100
AcDbText
  0
TEXT
  5
12C
330
11D
100
AcDbEntity
  8
TEXT
100
AcDbText
 10
7.768023055561846
 20
7.044547729948104
 30
0.0
 40
0.0325
  1
REV
  7
ADESK2
100
AcDbText
  0
TEXT
  5
12D
330
11D
100
AcDbEntity
  8
TEXT
100
AcDbText
 10
8.833073055561845
 20
7.165647729948104
 30
0.0
 40
0.0325
  1
REVISIONS
  7
ADESK2
100
AcDbText
  0
LINE
  5
12E
330
11D
100
AcDbEntity
  8
TEXT
100
AcDbLine
 10
9.727973055561847
 20
6.999397729948103
 30
0.0
 11
9.727973055561847
 21
7.124397729948103
 31
0.0
  0
LINE
  5
12F
330
11D
100
AcDbEntity
  8
TEXT
100
AcDbLine
 10
9.287973055561847
 20
6.999397729948103
 30
0.0
 11
9.287973055561847
 21
7.124397729948103
 31
0.0
  0
LINE
  5
130
330
11D
100
AcDbEntity
  8
TEXT
100
AcDbLine
 10
7.917973055561846
 20
6.999397729948103
 30
0.0
 11
7.917973055561846
 21
7.124397729948103
 31
0.0
  0
LINE
  5
131
330
11D
100
AcDbEntity
  8
TEXT
100
AcDbLine
 10
7.722846844446165
 20
7.279429703003084
 30
0.0
 11
7.722846844446165
 21
6.999397729948103
 31
0.0
  0
LINE
  5
132
330
11D
100
AcDbEntity
  8
TEXT
100
AcDbLine
 10
7.722846844446165
 20
6.999397729948103
 30
0.0
 11
10.25
 21
6.999397729948104
 31
0.0
  0
LINE
  5
133
330
11D
100
AcDbEntity
  8
TEXT
100
AcDbLine
 10
7.722846844446165
 20
7.124397729948103
 30
0.0
 11
10.25
 21
7.124397729948104
 31
0.0
  0
TEXT
  5
134
330
11D
100
AcDbEntity
  8
TEXT
100
AcDbText
 10
10.08978240186827
 20
0.3337004730513362
 30
0.0
 40
0.0325
  1
REV
  7
ADESK2
100
AcDbText
  0
TEXT
  5
135
330
11D
100
AcDbEntity
  8
TEXT
100
AcDbText
 10
8.900032401868278
 20
0.3337004730513362
 30
0.0
 40
0.0325
  1
DWG NO.
  7
ADESK2
100
AcDbText
  0
TEXT
  5
136
330
11D
100
AcDbEntity
  8
TEXT
100
AcDbText
 10
8.158482401868278
 20
0.3337004730513362
 30
0.0
 40
0.0325
  1
SIZE
  7
ADESK2
100
AcDbText
  0
TEXT
  5
137
330
11D
100
AcDbEntity
  8
TEXT
100
AcDbText
 10
9.390932401868278
 20
0.1220004730513366
 30
0.0
 40
0.0325
  1
SHEET
  7
ADESK2
100
AcDbText
  0
TEXT
  5
138
330
11D
100
AcDbEntity
  8
TEXT
100
AcDbText
 10
8.140682401868277
 20
0.1220004730513366
 30
0.0
 40
0.0325
  1
SCALE
  7
ADESK2
100
AcDbText
  0
LINE
  5
139
330
11D
100
AcDbEntity
  8
TEXT
100
AcDbLine
 10
10.04953240186827
 20
0.200750473051337
 30
0.0
 11
10.04953240186827
 21
0.3907504730513365
 31
0.0
  0
LINE
  5
13A
330
11D
100
AcDbEntity
  8
TEXT
100
AcDbLine
 10
8.864532401868279
 20
0.200750473051337
 30
0.0
 11
8.864532401868279
 21
0.3907504730513365
 31
0.0
  0
LINE
  5
13B
330
11D
100
AcDbEntity
  8
TEXT
100
AcDbLine
 10
8.304532401868277
 20
0.200750473051337
 30
0.0
 11
8.304532401868277
 21
0.3907504730513365
 31
0.0
  0
LINE
  5
13C
330
11D
100
AcDbEntity
  8
TEXT
100
AcDbLine
 10
9.364532401868279
 20
0.0625
 30
0.0
 11
9.364532401868279
 21
0.200750473051337
 31
0.0
  0
LINE
  5
13D
330
11D
100
AcDbEntity
  8
TEXT
100
AcDbLine
 10
8.614532401868279
 20
0.0625
 30
0.0
 11
8.614532401868279
 21
0.200750473051337
 31
0.0
  0
LINE
  5
13E
330
11D
100
AcDbEntity
  8
BORDER
100
AcDbLine
 10
8.114532401868279
 20
0.0625
 30
0.0
 11
8.114532401868279
 21
0.9507504730513369
 31
0.0
  0
LINE
  5
13F
330
11D
100
AcDbEntity
  8
BORDER
100
AcDbLine
 10
8.114532401868279
 20
0.700750473051337
 30
0.0
 11
10.25043121410005
 21
0.700750473051337
 31
0.0
  0
LINE
  5
140
330
11D
100
AcDbEntity
  8
TEXT
100
AcDbLine
 10
8.114532401868279
 20
0.200750473051337
 30
0.0
 11
10.25043121410005
 21
0.200750473051337
 31
0.0
  0
LINE
  5
141
330
11D
100
AcDbEntity
  8
TEXT
100
AcDbLine
 10
7.114532401868278
 20
0.3907504730513365
 30
0.0
 11
10.25043121410005
 21
0.3907504730513365
 31
0.0
  0
LINE
  5
142
330
11D
100
AcDbEntity
  8
TEXT
100
AcDbLine
 10
7.114532401868278
 20
0.2332504730513367
 30
0.0
 11
8.114532401868279
 21
0.2332504730513367
 31
0.0
  0
LINE
  5
143
330
11D
100
AcDbEntity
  8
BORDER
100
AcDbLine
 10
7.114532401868278
 20
0.9507504730513369
 30
0.0
 11
10.25043121410005
 21
0.9507504730513369
 31
0.0
  0
LINE
  5
144
330
11D
100
AcDbEntity
  8
BORDER
100
AcDbLine
 10
7.114532401868278
 20
0.0625
 30
0.0
 11
7.114532401868278
 21
1.162073490813602
 31
0.0
  0
TEXT
  5
145
330
11D
100
AcDbEntity
  8
TEXT
100
AcDbText
 10
7.148687401868278
 20
0.4899819730513367
 30
0.0
 40
0.0325
  1
DRAWN
  7
ADESK2
100
AcDbText
  0
TEXT
  5
146
330
11D
100
AcDbEntity
  8
BORDER
100
AcDbText
 10
7.203514652868109
 20
1.024613929072771
 30
0.0
 40
0.075
  1
UNIVERSITY OF CALIFORNIA @ SANTA BARBARA
100
AcDbText
  0
LINE
  5
147
330
11D
100
AcDbEntity
  8
BORDER
100
AcDbLine
 10
7.114012285752607
 20
1.162073490813602
 30
0.0
 11
10.25043121410005
 21
1.162073490813602
 31
0.0
  0
LINE
  5
148
330
11D
100
AcDbEntity
  8
BORDER
100
AcDbLine
 10
10.25
 20
0.0625
 30
0.0
 11
10.25
 21
7.3025
 31
0.0
  0
LINE
  5
149
330
11D
100
AcDbEntity
  8
BORDER
100
AcDbLine
 10
0.25
 20
7.3025
 30
0.0
 11
0.25
 21
0.0625
 31
0.0
  0
LINE
  5
14A
330
11D
100
AcDbEntity
  8
BORDER
100
AcDbLine
 10
0.25
 20
0.0625
 30
0.0
 11
10.25
 21
0.0625
 31
0.0
  0
TEXT
  5
14B
330
11D
100
AcDbEntity
  8
BORDER
100
AcDbText
 10
8.183852051433854
 20
0.2259812000243528
 30
0.0
 40
0.075
  1
A
100
AcDbText
  0
TEXT
  5
14C
330
11D
100
AcDbEntity
  8
TEXT
100
AcDbText
 10
8.340068360089324
 20
0.3326771653542698
 30
0.0
 40
0.0375
  1
DIRECTORY
100
AcDbText
  0
LINE
  5
14D
330
11D
100
AcDbEntity
  8
BORDER
100
AcDbLine
 10
0.25
 20
7.3025
 30
0.0
 11
10.25
 21
7.3025
 31
0.0
  0
TEXT
  5
14E
330
11D
100
AcDbEntity
  8
BORDER
100
AcDbText
 10
8.458303959452241
 20
0.7877830678141449
 30
0.0
 40
0.075
  1
HIGH ENERGY PHYSICS
100
AcDbText
  0
TEXT
  5
14F
330
11D
100
AcDbEntity
  8
TEXT
100
AcDbText
 10
7.229175259011135
 20
0.8925444730513369
 30
0.0
 40
0.0325
  1
UNLESS OTHERWISE SPECIFIED:
  7
ADESK2
 72
     1
 11
7.614532401868278
 21
0.8925444730513369
 31
0.0
100
AcDbText
  0
TEXT
  5
150
330
11D
100
AcDbEntity
  8
TEXT
100
AcDbText
 10
7.266318116153993
 20
0.8399254730513369
 30
0.0
 40
0.0325
  1
DIMENSIONS ARE IN INCHES
  7
ADESK2
 72
     1
 11
7.614532401868278
 21
0.8399254730513369
 31
0.0
100
AcDbText
  0
TEXT
  5
151
330
11D
100
AcDbEntity
  8
TEXT
100
AcDbText
 10
7.46518716377304
 20
0.787306473051337
 30
0.0
 40
0.0325
  1
TOLERANCES
  7
ADESK2
 72
     1
 11
7.614532401868278
 21
0.787306473051337
 31
0.0
100
AcDbText
  0
TEXT
  5
152
330
11D
100
AcDbEntity
  8
TEXT
100
AcDbText
 10
7.272011401868279
 20
0.733371473051337
 30
0.0
 40
0.0325
  1
DECIMALS
  7
ADESK2
100
AcDbText
  0
TEXT
  5
153
330
11D
100
AcDbEntity
  8
TEXT
100
AcDbText
 10
7.272011401868279
 20
0.680752473051337
 30
0.0
 40
0.0325
  1
.XX  %%P .05
  7
ADESK2
100
AcDbText
  0
TEXT
  5
154
330
11D
100
AcDbEntity
  8
TEXT
100
AcDbText
 10
7.272011401868279
 20
0.628133473051337
 30
0.0
 40
0.0325
  1
.XXX %%P .005
  7
ADESK2
100
AcDbText
  0
TEXT
  5
155
330
11D
100
AcDbEntity
  8
TEXT
100
AcDbText
 10
7.307330020915897
 20
0.576871973051337
 30
0.0
 40
0.0325
  1
DO NOT SCALE DRAWING
  7
ADESK2
 72
     1
 11
7.614532401868278
 21
0.576871973051337
 31
0.0
100
AcDbText
  0
TEXT
  5
156
330
11D
100
AcDbEntity
  8
TEXT
100
AcDbText
 10
7.703959901868278
 20
0.733371473051337
 30
0.0
 40
0.0325
  1
ANGULAR
  7
ADESK2
100
AcDbText
  0
TEXT
  5
157
330
11D
100
AcDbEntity
  8
TEXT
100
AcDbText
 10
7.703959901868278
 20
0.680752473051337
 30
0.0
 40
0.0325
  1
  %%P 0.5%%D
  7
ADESK2
100
AcDbText
  0
LINE
  5
158
330
11D
100
AcDbEntity
  8
TEXT
100
AcDbLine
 10
1.53125
 20
6.9275
 30
0.0
 11
0.25
 21
6.9275
 31
0.0
  0
LINE
  5
159
330
11D
100
AcDbEntity
  8
TEXT
100
AcDbLine
 10
1.53125
 20
7.0525
 30
0.0
 11
1.53125
 21
6.9275
 31
0.0
  0
TEXT
  5
15A
330
11D
100
AcDbEntity
  8
TEXT
100
AcDbText
 10
0.34375
 20
6.959913795125819
 30
0.0
 40
0.05
  1
THIRD ANGLE PROJECTION
100
AcDbText
  0
LINE
  5
15B
330
11D
100
AcDbEntity
  8
TEXT
100
AcDbLine
 10
1.065631518781287
 20
7.26448044872969
 30
0.0
 11
1.065631518781287
 21
7.07698044872969
 31
0.0
  0
LINE
  5
15C
330
11D
100
AcDbEntity
  8
TEXT
100
AcDbLine
 10
0.8233106911879986
 20
7.12385544872969
 30
0.0
 11
0.8233106911879986
 21
7.21760544872969
 31
0.0
  0
LINE
  5
15D
330
11D
100
AcDbEntity
  8
TEXT
100
AcDbLine
 10
0.8233106911879986
 20
7.12385544872969
 30
0.0
 11
1.065631518781287
 21
7.07698044872969
 31
0.0
  0
LINE
  5
15E
330
11D
100
AcDbEntity
  8
TEXT
100
AcDbLine
 10
0.8233106911879986
 20
7.21760544872969
 30
0.0
 11
1.065631518781287
 21
7.26448044872969
 31
0.0
  0
LINE
  5
15F
330
11D
100
AcDbEntity
  8
TEXT
  6
CENTER
100
AcDbLine
 10
0.5889356911879986
 20
7.056389515976311
 30
0.0
 11
0.5889356911879986
 21
7.290327922590398
 31
0.0
  0
LINE
  5
160
330
11D
100
AcDbEntity
  8
TEXT
  6
CENTER
100
AcDbLine
 10
0.4719755965241177
 20
7.17073044872969
 30
0.0
 11
1.198310691187998
 21
7.17073044872969
 31
0.0
  0
CIRCLE
  5
161
330
11D
100
AcDbEntity
  8
TEXT
100
AcDbCircle
 10
0.5889356911879986
 20
7.17073044872969
 30
0.0
 40
0.046875
  0
CIRCLE
  5
162
330
11D
100
AcDbEntity
  8
TEXT
100
AcDbCircle
 10
0.5889356911879986
 20
7.17073044872969
 30
0.0
 40
0.09375
  0
LINE
  5
163
330
11D
100
AcDbEntity
  8
TEXT
100
AcDbLine
 10
1.53125
 20
7.0525
 30
0.0
 11
1.53125
 21
7.3025
 31
0.0
  0
LINE
  5
164
330
11D
100
AcDbEntity
  8
TEXT
100
AcDbLine
 10
0.25
 20
7.0525
 30
0.0
 11
1.53125
 21
7.0525
 31
0.0
  0
ENDBLK
  5
166
330
11D
100
AcDbEntity
  8
0
100
AcDbBlockEnd
  0
BLOCK
  5
1E6
330
1E5
100
AcDbEntity
  8
0
100
AcDbBlockBegin
  2
C-BORE-#6
 70
     0
 10
0.0
 20
0.0
 30
0.0
  3
C-BORE-#6
  1

  0
LINE
  5
1E8
330
1E5
100
AcDbEntity
  8
CENTER
100
AcDbLine
 10
0.0
 20
-0.1988463639077764
 30
0.0
 11
0.0
 21
0.1910488070998077
 31
0.0
  0
CIRCLE
  5
1E9
330
1E5
100
AcDbEntity
  8
0
100
AcDbCircle
 10
0.0
 20
0.0
 30
0.0
 40
0.085
  0
CIRCLE
  5
1EA
330
1E5
100
AcDbEntity
  8
0
100
AcDbCircle
 10
0.0
 20
0.0
 30
0.0
 40
0.14065
  0
LINE
  5
1EB
330
1E5
100
AcDbEntity
  8
CENTER
100
AcDbLine
 10
-0.2055373679844124
 20
0.0
 30
0.0
 11
0.1955703475548418
 21
0.0
 31
0.0
  0
ENDBLK
  5
1E7
330
1E5
100
AcDbEntity
  8
0
100
AcDbBlockEnd
  0
BLOCK
  5
1FB
330
1F0
100
AcDbEntity
  8
0
100
AcDbBlockBegin
  2
*D3
 70
     1
 10
0.0
 20
0.0
 30
0.0
  3
*D3
  1

  0
LINE
  5
350
330
1F0
100
AcDbEntity
  8
DIM
 62
     0
370
    -2
100
AcDbLine
 10
6.25
 20
4.06325
 30
0.0
 11
6.25
 21
4.310647682976721
 31
0.0
  0
LINE
  5
351
330
1F0
100
AcDbEntity
  8
DIM
 62
     0
370
    -2
100
AcDbLine
 10
6.0
 20
4.06325
 30
0.0
 11
6.0
 21
4.310647682976721
 31
0.0
  0
LINE
  5
352
330
1F0
100
AcDbEntity
  8
DIM
 62
     0
370
    -2
100
AcDbLine
 10
6.339999999999999
 20
4.220647682976721
 30
0.0
 11
6.429999999999999
 21
4.220647682976721
 31
0.0
  0
LINE
  5
353
330
1F0
100
AcDbEntity
  8
DIM
 62
     0
370
    -2
100
AcDbLine
 10
5.91
 20
4.220647682976721
 30
0.0
 11
5.82
 21
4.220647682976721
 31
0.0
  0
SOLID
  5
354
330
1F0
100
AcDbEntity
  8
DIM
 62
     0
100
AcDbTrace
 10
6.339999999999999
 20
4.235647682976721
 30
0.0
 11
6.339999999999999
 21
4.205647682976722
 31
0.0
 12
6.25
 22
4.220647682976721
 32
0.0
 13
6.25
 23
4.220647682976721
 33
0.0
  0
SOLID
  5
355
330
1F0
100
AcDbEntity
  8
DIM
 62
     0
100
AcDbTrace
 10
5.91
 20
4.235647682976721
 30
0.0
 11
5.91
 21
4.205647682976722
 31
0.0
 12
6.0
 22
4.220647682976721
 32
0.0
 13
6.0
 23
4.220647682976721
 33
0.0
  0
MTEXT
  5
356
330
1F0
100
AcDbEntity
  8
DIM
 62
     0
100
AcDbMText
 10
5.61
 20
4.220647682976721
 30
0.0
 40
0.09
 41
0.0
 71
     5
 72
     1
  1
\A1;0.250
 73
     1
 44
1.0
  0
POINT
  5
357
330
1F0
100
AcDbEntity
  8
Defpoints
 62
     0
100
AcDbPoint
 10
6.25
 20
4.032
 30
0.0
  0
POINT
  5
358
330
1F0
100
AcDbEntity
  8
Defpoints
 62
     0
100
AcDbPoint
 10
6.0
 20
4.032
 30
0.0
  0
POINT
  5
359
330
1F0
100
AcDbEntity
  8
Defpoints
 62
     0
100
AcDbPoint
 10
6.0
 20
4.220647682976721
 30
0.0
  0
ENDBLK
  5
1FC
330
1F0
100
AcDbEntity
  8
0
100
AcDbBlockEnd
  0
BLOCK
  5
209
330
1FE
100
AcDbEntity
  8
0
100
AcDbBlockBegin
  2
*D4
 70
     1
 10
0.0
 20
0.0
 30
0.0
  3
*D4
  1

  0
LINE
  5
346
330
1FE
100
AcDbEntity
  8
DIM
 62
     0
370
    -2
100
AcDbLine
 10
6.5
 20
4.06325
 30
0.0
 11
6.5
 21
4.566318754584862
 31
0.0
  0
LINE
  5
347
330
1FE
100
AcDbEntity
  8
DIM
 62
     0
370
    -2
100
AcDbLine
 10
6.0
 20
4.06325
 30
0.0
 11
6.0
 21
4.566318754584862
 31
0.0
  0
LINE
  5
348
330
1FE
100
AcDbEntity
  8
DIM
 62
     0
370
    -2
100
AcDbLine
 10
6.589999999999999
 20
4.476318754584863
 30
0.0
 11
6.679999999999999
 21
4.476318754584863
 31
0.0
  0
LINE
  5
349
330
1FE
100
AcDbEntity
  8
DIM
 62
     0
370
    -2
100
AcDbLine
 10
5.91
 20
4.476318754584863
 30
0.0
 11
5.819999999999999
 21
4.476318754584863
 31
0.0
  0
SOLID
  5
34A
330
1FE
100
AcDbEntity
  8
DIM
 62
     0
100
AcDbTrace
 10
6.589999999999999
 20
4.491318754584862
 30
0.0
 11
6.589999999999999
 21
4.461318754584863
 31
0.0
 12
6.5
 22
4.476318754584863
 32
0.0
 13
6.5
 23
4.476318754584863
 33
0.0
  0
SOLID
  5
34B
330
1FE
100
AcDbEntity
  8
DIM
 62
     0
100
AcDbTrace
 10
5.91
 20
4.491318754584862
 30
0.0
 11
5.91
 21
4.461318754584863
 31
0.0
 12
6.0
 22
4.476318754584863
 32
0.0
 13
6.0
 23
4.476318754584863
 33
0.0
  0
MTEXT
  5
34C
330
1FE
100
AcDbEntity
  8
DIM
 62
     0
100
AcDbMText
 10
5.617499999999999
 20
4.476318754584863
 30
0.0
 40
0.09
 41
0.0
 71
     5
 72
     1
  1
\A1;0.500
 73
     1
 44
1.0
  0
POINT
  5
34D
330
1FE
100
AcDbEntity
  8
Defpoints
 62
     0
100
AcDbPoint
 10
6.5
 20
4.032
 30
0.0
  0
POINT
  5
34E
330
1FE
100
AcDbEntity
  8
Defpoints
 62
     0
100
AcDbPoint
 10
6.0
 20
4.032
 30
0.0
  0
POINT
  5
34F
330
1FE
100
AcDbEntity
  8
Defpoints
 62
     0
100
AcDbPoint
 10
6.0
 20
4.476318754584863
 30
0.0
  0
ENDBLK
  5
20A
330
1FE
100
AcDbEntity
  8
0
100
AcDbBlockEnd
  0
BLOCK
  5
218
330
20C
100
AcDbEntity
  8
0
100
AcDbBlockBegin
  2
*D5
 70
     1
 10
0.0
 20
0.0
 30
0.0
  3
*D5
  1

  0
LINE
  5
36D
330
20C
100
AcDbEntity
  8
DIM
 62
     0
370
    -2
100
AcDbLine
 10
6.476820347554841
 20
3.7825
 30
0.0
 11
6.845864748628233
 21
3.7825
 31
0.0
  0
LINE
  5
36E
330
20C
100
AcDbEntity
  8
DIM
 62
     0
370
    -2
100
AcDbLine
 10
6.53125
 20
4.032
 30
0.0
 11
6.845864748628233
 21
4.032
 31
0.0
  0
LINE
  5
36F
330
20C
100
AcDbEntity
  8
DIM
 62
     0
370
    -2
100
AcDbLine
 10
6.755864748628233
 20
3.6925
 30
0.0
 11
6.755864748628233
 21
3.6025
 31
0.0
  0
LINE
  5
370
330
20C
100
AcDbEntity
  8
DIM
 62
     0
370
    -2
100
AcDbLine
 10
6.755864748628233
 20
4.121999999999999
 30
0.0
 11
6.755864748628233
 21
4.211999999999999
 31
0.0
  0
LINE
  5
371
330
20C
100
AcDbEntity
  8
DIM
 62
     0
370
    -2
100
AcDbLine
 10
6.755864748628233
 20
4.211999999999999
 30
0.0
 11
6.845864748628233
 21
4.211999999999999
 31
0.0
  0
SOLID
  5
372
330
20C
100
AcDbEntity
  8
DIM
 62
     0
100
AcDbTrace
 10
6.740864748628234
 20
3.6925
 30
0.0
 11
6.770864748628233
 21
3.6925
 31
0.0
 12
6.755864748628233
 22
3.7825
 32
0.0
 13
6.755864748628233
 23
3.7825
 33
0.0
  0
SOLID
  5
373
330
20C
100
AcDbEntity
  8
DIM
 62
     0
100
AcDbTrace
 10
6.740864748628234
 20
4.121999999999999
 30
0.0
 11
6.770864748628233
 21
4.121999999999999
 31
0.0
 12
6.755864748628233
 22
4.032
 32
0.0
 13
6.755864748628233
 23
4.032
 33
0.0
  0
MTEXT
  5
374
330
20C
100
AcDbEntity
  8
DIM
 62
     0
100
AcDbMText
 10
7.055864748628232
 20
4.212000000000001
 30
0.0
 40
0.09
 41
0.0
 71
     5
 72
     1
  1
\A1;0.250
 73
     1
 44
1.0
  0
POINT
  5
375
330
20C
100
AcDbEntity
  8
Defpoints
 62
     0
100
AcDbPoint
 10
6.445570347554841
 20
3.7825
 30
0.0
  0
POINT
  5
376
330
20C
100
AcDbEntity
  8
Defpoints
 62
     0
100
AcDbPoint
 10
6.5
 20
4.032
 30
0.0
  0
POINT
  5
377
330
20C
100
AcDbEntity
  8
Defpoints
 62
     0
100
AcDbPoint
 10
6.755864748628233
 20
4.032
 30
0.0
  0
ENDBLK
  5
219
330
20C
100
AcDbEntity
  8
0
100
AcDbBlockEnd
  0
BLOCK
  5
3A9
330
3A0
100
AcDbEntity
  8
0
100
AcDbBlockBegin
  2
*D6
 70
     1
 10
0.0
 20
0.0
 30
0.0
  3
*D6
  1

  0
LINE
  5
3C3
330
3A0
100
AcDbEntity
  8
DIM
 62
     0
370
    -2
100
AcDbLine
 10
6.412560686919903
 20
3.618944556592789
 30
0.0
 11
6.870820818465455
 21
3.157880196993293
 31
0.0
  0
LINE
  5
3C4
330
3A0
100
AcDbEntity
  8
DIM
 62
     0
370
    -2
100
AcDbLine
 10
6.870820818465455
 20
3.157880196993293
 30
0.0
 11
6.960820818465455
 21
3.157880196993293
 31
0.0
  0
SOLID
  5
3C5
330
3A0
100
AcDbEntity
  8
DIM
 62
     0
100
AcDbTrace
 10
6.42319959260554
 20
3.629518755655228
 30
0.0
 11
6.401921781234264
 21
3.60837035753035
 31
0.0
 12
6.349115492545266
 22
3.682777990706618
 32
0.0
 13
6.349115492545266
 23
3.682777990706618
 33
0.0
  0
MTEXT
  5
3C6
330
3A0
100
AcDbEntity
  8
DIM
 62
     0
100
AcDbMText
 10
7.928320818465455
 20
3.157880196993294
 30
0.0
 40
0.09
 41
0.0
 71
     5
 72
     1
  1
\A1;%%c.170 THRU\P\U+22050.281 C'BORE, .156 DEEP \PC'BORE FOR #6 SHCS
 73
     1
 44
1.0
  0
LINE
  5
3C7
330
3A0
100
AcDbEntity
  8
DIM
 62
     0
370
    -2
100
AcDbLine
 10
6.205
 20
3.782499999999999
 30
0.0
 11
6.294999999999999
 21
3.782499999999999
 31
0.0
  0
LINE
  5
3C8
330
3A0
100
AcDbEntity
  8
DIM
 62
     0
370
    -2
100
AcDbLine
 10
6.249999999999999
 20
3.7375
 30
0.0
 11
6.249999999999999
 21
3.8275
 31
0.0
  0
POINT
  5
3C9
330
3A0
100
AcDbEntity
  8
Defpoints
 62
     0
100
AcDbPoint
 10
6.349115492545266
 20
3.682777990706618
 30
0.0
  0
POINT
  5
3CA
330
3A0
100
AcDbEntity
  8
Defpoints
 62
     0
100
AcDbPoint
 10
6.150884507454733
 20
3.882222009293381
 30
0.0
  0
ENDBLK
  5
3AA
330
3A0
100
AcDbEntity
  8
0
100
AcDbBlockEnd
  0
BLOCK
  5
472
330
467
100
AcDbEntity
  8
0
100
AcDbBlockBegin
  2
*D11
 70
     1
 10
0.0
 20
0.0
 30
0.0
  3
*D11
  1

  0
LINE
  5
468
330
467
100
AcDbEntity
  8
DIM
 62
     0
370
    -2
100
AcDbLine
 10
2.423484364811354
 20
4.06325
 30
0.0
 11
2.423484364811354
 21
4.310265305658175
 31
0.0
  0
LINE
  5
469
330
467
100
AcDbEntity
  8
DIM
 62
     0
370
    -2
100
AcDbLine
 10
2.360984364811354
 20
3.56325
 30
0.0
 11
2.360984364811354
 21
4.310265305658175
 31
0.0
  0
LINE
  5
46A
330
467
100
AcDbEntity
  8
DIM
 62
     0
370
    -2
100
AcDbLine
 10
2.513484364811354
 20
4.220265305658175
 30
0.0
 11
2.603484364811354
 21
4.220265305658175
 31
0.0
  0
LINE
  5
46B
330
467
100
AcDbEntity
  8
DIM
 62
     0
370
    -2
100
AcDbLine
 10
2.270984364811354
 20
4.220265305658175
 30
0.0
 11
2.180984364811354
 21
4.220265305658175
 31
0.0
  0
SOLID
  5
46C
330
467
100
AcDbEntity
  8
DIM
 62
     0
100
AcDbTrace
 10
2.513484364811354
 20
4.235265305658175
 30
0.0
 11
2.513484364811354
 21
4.205265305658175
 31
0.0
 12
2.423484364811354
 22
4.220265305658175
 32
0.0
 13
2.423484364811354
 23
4.220265305658175
 33
0.0
  0
SOLID
  5
46D
330
467
100
AcDbEntity
  8
DIM
 62
     0
100
AcDbTrace
 10
2.270984364811354
 20
4.235265305658175
 30
0.0
 11
2.270984364811354
 21
4.205265305658175
 31
0.0
 12
2.360984364811354
 22
4.220265305658175
 32
0.0
 13
2.360984364811354
 23
4.220265305658175
 33
0.0
  0
MTEXT
  5
46E
330
467
100
AcDbEntity
  8
DIM
 62
     0
100
AcDbMText
 10
1.970984364811354
 20
4.220265305658175
 30
0.0
 40
0.09
 41
0.0
 71
     5
 72
     1
  1
\A1;0.063
 73
     1
 44
1.0
  0
POINT
  5
46F
330
467
100
AcDbEntity
  8
Defpoints
 62
     0
100
AcDbPoint
 10
2.423484364811354
 20
4.032
 30
0.0
  0
POINT
  5
470
330
467
100
AcDbEntity
  8
Defpoints
 62
     0
100
AcDbPoint
 10
2.360984364811354
 20
3.532
 30
0.0
  0
POINT
  5
471
330
467
100
AcDbEntity
  8
Defpoints
 62
     0
100
AcDbPoint
 10
2.360984364811354
 20
4.220265305658175
 30
0.0
  0
ENDBLK
  5
473
330
467
100
AcDbEntity
  8
0
100
AcDbBlockEnd
  0
BLOCK
  5
480
330
475
100
AcDbEntity
  8
0
100
AcDbBlockBegin
  2
*D12
 70
     1
 10
0.0
 20
0.0
 30
0.0
  3
*D12
  1

  0
LINE
  5
476
330
475
100
AcDbEntity
  8
DIM
 62
     0
370
    -2
100
AcDbLine
 10
2.610984364811354
 20
3.167249999999999
 30
0.0
 11
2.610984364811354
 21
4.570101285918292
 31
0.0
  0
LINE
  5
477
330
475
100
AcDbEntity
  8
DIM
 62
     0
370
    -2
100
AcDbLine
 10
2.360984364811354
 20
3.56325
 30
0.0
 11
2.360984364811354
 21
4.570101285918292
 31
0.0
  0
LINE
  5
478
330
475
100
AcDbEntity
  8
DIM
 62
     0
370
    -2
100
AcDbLine
 10
2.700984364811354
 20
4.480101285918292
 30
0.0
 11
2.790984364811354
 21
4.480101285918292
 31
0.0
  0
LINE
  5
479
330
475
100
AcDbEntity
  8
DIM
 62
     0
370
    -2
100
AcDbLine
 10
2.270984364811354
 20
4.480101285918292
 30
0.0
 11
2.180984364811354
 21
4.480101285918292
 31
0.0
  0
SOLID
  5
47A
330
475
100
AcDbEntity
  8
DIM
 62
     0
100
AcDbTrace
 10
2.700984364811354
 20
4.495101285918292
 30
0.0
 11
2.700984364811354
 21
4.465101285918293
 31
0.0
 12
2.610984364811354
 22
4.480101285918292
 32
0.0
 13
2.610984364811354
 23
4.480101285918292
 33
0.0
  0
SOLID
  5
47B
330
475
100
AcDbEntity
  8
DIM
 62
     0
100
AcDbTrace
 10
2.270984364811354
 20
4.495101285918292
 30
0.0
 11
2.270984364811354
 21
4.465101285918293
 31
0.0
 12
2.360984364811354
 22
4.480101285918292
 32
0.0
 13
2.360984364811354
 23
4.480101285918292
 33
0.0
  0
MTEXT
  5
47C
330
475
100
AcDbEntity
  8
DIM
 62
     0
100
AcDbMText
 10
1.970984364811354
 20
4.480101285918292
 30
0.0
 40
0.09
 41
0.0
 71
     5
 72
     1
  1
\A1;0.250
 73
     1
 44
1.0
  0
POINT
  5
47D
330
475
100
AcDbEntity
  8
Defpoints
 62
     0
100
AcDbPoint
 10
2.610984364811354
 20
3.135999999999999
 30
0.0
  0
POINT
  5
47E
330
475
100
AcDbEntity
  8
Defpoints
 62
     0
100
AcDbPoint
 10
2.360984364811354
 20
3.532
 30
0.0
  0
POINT
  5
47F
330
475
100
AcDbEntity
  8
Defpoints
 62
     0
100
AcDbPoint
 10
2.360984364811354
 20
4.480101285918292
 30
0.0
  0
ENDBLK
  5
481
330
475
100
AcDbEntity
  8
0
100
AcDbBlockEnd
  0
BLOCK
  5
48E
330
483
100
AcDbEntity
  8
0
100
AcDbBlockBegin
  2
*D13
 70
     1
 10
0.0
 20
0.0
 30
0.0
  3
*D13
  1

  0
LINE
  5
484
330
483
100
AcDbEntity
  8
DIM
 62
     0
370
    -2
100
AcDbLine
 10
2.735984364811354
 20
4.06325
 30
0.0
 11
2.735984364811354
 21
4.793560225888311
 31
0.0
  0
LINE
  5
485
330
483
100
AcDbEntity
  8
DIM
 62
     0
370
    -2
100
AcDbLine
 10
2.360984364811354
 20
3.56325
 30
0.0
 11
2.360984364811354
 21
4.793560225888311
 31
0.0
  0
LINE
  5
486
330
483
100
AcDbEntity
  8
DIM
 62
     0
370
    -2
100
AcDbLine
 10
2.825984364811354
 20
4.703560225888312
 30
0.0
 11
2.915984364811354
 21
4.703560225888312
 31
0.0
  0
LINE
  5
487
330
483
100
AcDbEntity
  8
DIM
 62
     0
370
    -2
100
AcDbLine
 10
2.270984364811354
 20
4.703560225888312
 30
0.0
 11
2.180984364811354
 21
4.703560225888312
 31
0.0
  0
SOLID
  5
488
330
483
100
AcDbEntity
  8
DIM
 62
     0
100
AcDbTrace
 10
2.825984364811354
 20
4.718560225888311
 30
0.0
 11
2.825984364811354
 21
4.688560225888312
 31
0.0
 12
2.735984364811354
 22
4.703560225888312
 32
0.0
 13
2.735984364811354
 23
4.703560225888312
 33
0.0
  0
SOLID
  5
489
330
483
100
AcDbEntity
  8
DIM
 62
     0
100
AcDbTrace
 10
2.270984364811354
 20
4.718560225888311
 30
0.0
 11
2.270984364811354
 21
4.688560225888312
 31
0.0
 12
2.360984364811354
 22
4.703560225888312
 32
0.0
 13
2.360984364811354
 23
4.703560225888312
 33
0.0
  0
MTEXT
  5
48A
330
483
100
AcDbEntity
  8
DIM
 62
     0
100
AcDbMText
 10
1.963484364811354
 20
4.703560225888312
 30
0.0
 40
0.09
 41
0.0
 71
     5
 72
     1
  1
\A1;0.375
 73
     1
 44
1.0
  0
POINT
  5
48B
330
483
100
AcDbEntity
  8
Defpoints
 62
     0
100
AcDbPoint
 10
2.735984364811354
 20
4.032
 30
0.0
  0
POINT
  5
48C
330
483
100
AcDbEntity
  8
Defpoints
 62
     0
100
AcDbPoint
 10
2.360984364811354
 20
3.532
 30
0.0
  0
POINT
  5
48D
330
483
100
AcDbEntity
  8
Defpoints
 62
     0
100
AcDbPoint
 10
2.360984364811354
 20
4.703560225888312
 30
0.0
  0
ENDBLK
  5
48F
330
483
100
AcDbEntity
  8
0
100
AcDbBlockEnd
  0
BLOCK
  5
49C
330
491
100
AcDbEntity
  8
0
100
AcDbBlockBegin
  2
*D14
 70
     1
 10
0.0
 20
0.0
 30
0.0
  3
*D14
  1

  0
LINE
  5
492
330
491
100
AcDbEntity
  8
DIM
 62
     0
370
    -2
100
AcDbLine
 10
2.329734364811354
 20
3.532
 30
0.0
 11
1.879588525479356
 21
3.532
 31
0.0
  0
LINE
  5
493
330
491
100
AcDbEntity
  8
DIM
 62
     0
370
    -2
100
AcDbLine
 10
2.392234364811354
 20
4.032
 30
0.0
 11
1.879588525479356
 21
4.032
 31
0.0
  0
LINE
  5
494
330
491
100
AcDbEntity
  8
DIM
 62
     0
370
    -2
100
AcDbLine
 10
1.969588525479355
 20
3.621999999999999
 30
0.0
 11
1.969588525479355
 21
3.692
 31
0.0
  0
LINE
  5
495
330
491
100
AcDbEntity
  8
DIM
 62
     0
370
    -2
100
AcDbLine
 10
1.969588525479355
 20
3.942
 30
0.0
 11
1.969588525479355
 21
3.872
 31
0.0
  0
SOLID
  5
496
330
491
100
AcDbEntity
  8
DIM
 62
     0
100
AcDbTrace
 10
1.954588525479356
 20
3.621999999999999
 30
0.0
 11
1.984588525479355
 21
3.621999999999999
 31
0.0
 12
1.969588525479355
 22
3.532
 32
0.0
 13
1.969588525479355
 23
3.532
 33
0.0
  0
SOLID
  5
497
330
491
100
AcDbEntity
  8
DIM
 62
     0
100
AcDbTrace
 10
1.954588525479356
 20
3.942
 30
0.0
 11
1.984588525479355
 21
3.942
 31
0.0
 12
1.969588525479355
 22
4.032
 32
0.0
 13
1.969588525479355
 23
4.032
 33
0.0
  0
MTEXT
  5
498
330
491
100
AcDbEntity
  8
DIM
 62
     0
100
AcDbMText
 10
1.969588525479355
 20
3.782
 30
0.0
 40
0.09
 41
0.0
 71
     5
 72
     1
  1
\A1;0.500
 73
     1
 44
1.0
  0
POINT
  5
499
330
491
100
AcDbEntity
  8
Defpoints
 62
     0
100
AcDbPoint
 10
2.360984364811354
 20
3.532
 30
0.0
  0
POINT
  5
49A
330
491
100
AcDbEntity
  8
Defpoints
 62
     0
100
AcDbPoint
 10
2.423484364811354
 20
4.032
 30
0.0
  0
POINT
  5
49B
330
491
100
AcDbEntity
  8
Defpoints
 62
     0
100
AcDbPoint
 10
1.969588525479355
 20
4.032
 30
0.0
  0
ENDBLK
  5
49D
330
491
100
AcDbEntity
  8
0
100
AcDbBlockEnd
  0
BLOCK
  5
4AA
330
49F
100
AcDbEntity
  8
0
100
AcDbBlockBegin
  2
*D15
 70
     1
 10
0.0
 20
0.0
 30
0.0
  3
*D15
  1

  0
LINE
  5
4A0
330
49F
100
AcDbEntity
  8
DIM
 62
     0
370
    -2
100
AcDbLine
 10
2.329734364811354
 20
3.136000000000002
 30
0.0
 11
1.494874992064545
 21
3.136000000000002
 31
0.0
  0
LINE
  5
4A1
330
49F
100
AcDbEntity
  8
DIM
 62
     0
370
    -2
100
AcDbLine
 10
2.392234364811354
 20
4.032
 30
0.0
 11
1.494874992064545
 21
4.032
 31
0.0
  0
LINE
  5
4A2
330
49F
100
AcDbEntity
  8
DIM
 62
     0
370
    -2
100
AcDbLine
 10
1.584874992064545
 20
3.226000000000002
 30
0.0
 11
1.584874992064545
 21
3.494000000000001
 31
0.0
  0
LINE
  5
4A3
330
49F
100
AcDbEntity
  8
DIM
 62
     0
370
    -2
100
AcDbLine
 10
1.584874992064545
 20
3.942
 30
0.0
 11
1.584874992064545
 21
3.674000000000001
 31
0.0
  0
SOLID
  5
4A4
330
49F
100
AcDbEntity
  8
DIM
 62
     0
100
AcDbTrace
 10
1.569874992064545
 20
3.226000000000002
 30
0.0
 11
1.599874992064544
 21
3.226000000000002
 31
0.0
 12
1.584874992064545
 22
3.136000000000002
 32
0.0
 13
1.584874992064545
 23
3.136000000000002
 33
0.0
  0
SOLID
  5
4A5
330
49F
100
AcDbEntity
  8
DIM
 62
     0
100
AcDbTrace
 10
1.569874992064545
 20
3.942
 30
0.0
 11
1.599874992064545
 21
3.942
 31
0.0
 12
1.584874992064545
 22
4.032
 32
0.0
 13
1.584874992064545
 23
4.032
 33
0.0
  0
MTEXT
  5
4A6
330
49F
100
AcDbEntity
  8
DIM
 62
     0
100
AcDbMText
 10
1.584874992064544
 20
3.584000000000002
 30
0.0
 40
0.09
 41
0.0
 71
     5
 72
     1
  1
\A1;0.896
 73
     1
 44
1.0
  0
POINT
  5
4A7
330
49F
100
AcDbEntity
  8
Defpoints
 62
     0
100
AcDbPoint
 10
2.360984364811354
 20
3.136000000000002
 30
0.0
  0
POINT
  5
4A8
330
49F
100
AcDbEntity
  8
Defpoints
 62
     0
100
AcDbPoint
 10
2.423484364811354
 20
4.032
 30
0.0
  0
POINT
  5
4A9
330
49F
100
AcDbEntity
  8
Defpoints
 62
     0
100
AcDbPoint
 10
1.584874992064545
 20
4.032
 30
0.0
  0
ENDBLK
  5
4AB
330
49F
100
AcDbEntity
  8
0
100
AcDbBlockEnd
  0
BLOCK
  5
4B8
330
4AD
100
AcDbEntity
  8
0
100
AcDbBlockBegin
  2
*D16
 70
     1
 10
0.0
 20
0.0
 30
0.0
  3
*D16
  1

  0
LINE
  5
4AE
330
4AD
100
AcDbEntity
  8
DIM
 62
     0
370
    -2
100
AcDbLine
 10
2.767234364811354
 20
2.885999999999999
 30
0.0
 11
3.161740800684764
 21
2.885999999999998
 31
0.0
  0
LINE
  5
4AF
330
4AD
100
AcDbEntity
  8
DIM
 62
     0
370
    -2
100
AcDbLine
 10
2.767234364811354
 20
4.032
 30
0.0
 11
3.161740800684764
 21
4.032
 31
0.0
  0
LINE
  5
4B0
330
4AD
100
AcDbEntity
  8
DIM
 62
     0
370
    -2
100
AcDbLine
 10
3.071740800684764
 20
2.975999999999998
 30
0.0
 11
3.071740800684764
 21
3.368999999999999
 31
0.0
  0
LINE
  5
4B1
330
4AD
100
AcDbEntity
  8
DIM
 62
     0
370
    -2
100
AcDbLine
 10
3.071740800684764
 20
3.942
 30
0.0
 11
3.071740800684764
 21
3.548999999999999
 31
0.0
  0
SOLID
  5
4B2
330
4AD
100
AcDbEntity
  8
DIM
 62
     0
100
AcDbTrace
 10
3.056740800684764
 20
2.975999999999998
 30
0.0
 11
3.086740800684764
 21
2.975999999999998
 31
0.0
 12
3.071740800684764
 22
2.885999999999998
 32
0.0
 13
3.071740800684764
 23
2.885999999999998
 33
0.0
  0
SOLID
  5
4B3
330
4AD
100
AcDbEntity
  8
DIM
 62
     0
100
AcDbTrace
 10
3.056740800684764
 20
3.942
 30
0.0
 11
3.086740800684764
 21
3.942
 31
0.0
 12
3.071740800684764
 22
4.032
 32
0.0
 13
3.071740800684764
 23
4.032
 33
0.0
  0
MTEXT
  5
4B4
330
4AD
100
AcDbEntity
  8
DIM
 62
     0
100
AcDbMText
 10
3.071740800684763
 20
3.459
 30
0.0
 40
0.09
 41
0.0
 71
     5
 72
     1
  1
\A1;1.146
 73
     1
 44
1.0
  0
POINT
  5
4B5
330
4AD
100
AcDbEntity
  8
Defpoints
 62
     0
100
AcDbPoint
 10
2.735984364811354
 20
2.885999999999999
 30
0.0
  0
POINT
  5
4B6
330
4AD
100
AcDbEntity
  8
Defpoints
 62
     0
100
AcDbPoint
 10
2.735984364811354
 20
4.032
 30
0.0
  0
POINT
  5
4B7
330
4AD
100
AcDbEntity
  8
Defpoints
 62
     0
100
AcDbPoint
 10
3.071740800684764
 20
4.032
 30
0.0
  0
ENDBLK
  5
4B9
330
4AD
100
AcDbEntity
  8
0
100
AcDbBlockEnd
  0
ENDSEC
  0
SECTION
  2
ENTITIES
  0
INSERT
  5
167
330
1F
100
AcDbEntity
  8
0
100
AcDbBlockReference
 66
     1
  2
a-border
 10
0.0
 20
0.0
 30
0.0
  0
ATTRIB
  5
168
330
167
100
AcDbEntity
  8
TEXT
100
AcDbText
 10
9.166299999999999
 20
0.2313
 30
0.0
 40
0.06
  1
MOD-FLIP-RP-04
100
AcDbAttribute
  2
FILE
 70
     0
  0
ATTRIB
  5
169
330
167
100
AcDbEntity
  8
TEXT
100
AcDbText
 10
7.8768
 20
0.4075
 30
0.0
 40
0.03
  1
08-19-03
100
AcDbAttribute
  2
DATE
 70
     0
  0
ATTRIB
  5
16A
330
167
100
AcDbEntity
  8
TEXT
100
AcDbText
 10
7.381999999999999
 20
0.4188
 30
0.0
 40
0.06
  1
S. KYRE
100
AcDbAttribute
  2
NAME
 70
     0
  0
ATTRIB
  5
16B
330
167
100
AcDbEntity
  8
TEXT
100
AcDbText
 10
8.3488
 20
0.0891
 30
0.0
 40
0.06
  1
1=1
100
AcDbAttribute
  2
SCALE
 70
     0
  0
ATTRIB
  5
16C
330
167
100
AcDbEntity
  8
TEXT
100
AcDbText
 10
8.3602
 20
0.2256
 30
0.0
 40
0.06
  1
ROD
100
AcDbAttribute
  2
DIRECTORY
 70
     0
  0
SEQEND
  5
16D
330
167
100
AcDbEntity
  8
0
  0
LWPOLYLINE
  5
1E0
330
1F
100
AcDbEntity
  8
handle
100
AcDbPolyline
 90
        4
 70
     1
 43
0.0
 10
6.0
 20
4.032
 10
6.5
 20
4.032
 10
6.5
 20
2.909999999999999
 10
6.0
 20
2.909999999999999
  0
DIMENSION
  5
1EF
330
1F
100
AcDbEntity
  8
DIM
100
AcDbDimension
  2
*D3
 10
6.0
 20
4.220647682976721
 30
0.0
 11
5.61
 21
4.220647682976721
 31
0.0
 70
    32
 71
     5
 42
0.25
  3
SU1
100
AcDbAlignedDimension
 13
6.25
 23
4.032
 33
0.0
 14
6.0
 24
4.032
 34
0.0
100
AcDbRotatedDimension
  0
DIMENSION
  5
1FD
330
1F
100
AcDbEntity
  8
DIM
100
AcDbDimension
  2
*D4
 10
6.0
 20
4.476318754584863
 30
0.0
 11
5.617499999999999
 21
4.476318754584863
 31
0.0
 70
    32
 71
     5
 42
0.5
  3
SU1
100
AcDbAlignedDimension
 13
6.5
 23
4.032
 33
0.0
 14
6.0
 24
4.032
 34
0.0
100
AcDbRotatedDimension
  0
DIMENSION
  5
20B
330
1F
100
AcDbEntity
  8
DIM
100
AcDbDimension
  2
*D5
 10
6.755864748628233
 20
4.032
 30
0.0
 11
7.055864748628232
 21
4.212000000000001
 31
0.0
 70
    32
 71
     5
 42
0.2495000000000003
  3
SU1
100
AcDbAlignedDimension
 13
6.445570347554841
 23
3.7825
 33
0.0
 14
6.5
 24
4.032
 34
0.0
 50
90.0
100
AcDbRotatedDimension
  0
MTEXT
  5
2A7
330
1F
100
AcDbEntity
  8
TEXT
100
AcDbMText
 10
9.182282401868279
 20
0.5457504730513368
 30
0.0
 40
0.06
 41
2.135499999999999
 71
     5
 72
     5
  1
SIDE STOP FOR R-PHI MODULE FLIP TOOL
 73
     1
 44
1.0
  0
MTEXT
  5
2A8
330
1F
100
AcDbEntity
  8
TEXT
100
AcDbMText
 10
1.5
 20
1.5
 30
0.0
 40
0.25
 41
4.5
 71
     1
 72
     5
  1
MATERIAL: AL\P4 EA. REQUIRED
 73
     1
 44
1.0
  0
LINE
  5
2B0
330
1F
100
AcDbEntity
  8
CENTER
100
AcDbLine
 10
6.25
 20
3.583653636092223
 30
0.0
 11
6.25
 21
4.035548807099807
 31
0.0
  0
CIRCLE
  5
2B1
330
1F
100
AcDbEntity
  8
0
100
AcDbCircle
 10
6.25
 20
3.7825
 30
0.0
 40
0.085
  0
LINE
  5
2B3
330
1F
100
AcDbEntity
  8
CENTER
100
AcDbLine
 10
6.044462632015587
 20
3.7825
 30
0.0
 11
6.445570347554841
 21
3.7825
 31
0.0
  0
CIRCLE
  5
39E
330
1F
100
AcDbEntity
  8
handle
100
AcDbCircle
 10
6.25
 20
3.7825
 30
0.0
 40
0.1406
  0
DIMENSION
  5
39F
330
1F
100
AcDbEntity
  8
DIM
100
AcDbDimension
  2
*D6
 10
6.150884507454733
 20
3.882222009293381
 30
0.0
 11
7.928320818465455
 21
3.157880196993294
 31
0.0
 70
   163
  1
%%c.170 THRU\P<> C'BORE, .156 DEEP \PC'BORE FOR #6 SHCS
 71
     5
 42
0.2812000000000001
  3
SU1$3
100
AcDbDiametricDimension
 15
6.349115492545266
 25
3.682777990706618
 35
0.0
 40
0.0
  0
TEXT
  5
3F7
330
1F
100
AcDbEntity
  8
TEXT
100
AcDbText
 10
10.08511479059373
 20
0.2212484907215728
 30
0.0
 40
0.06
  1
A
100
AcDbText
  0
LWPOLYLINE
  5
460
330
1F
100
AcDbEntity
  8
side-stop
100
AcDbPolyline
 90
        2
 70
     0
 43
0.0
 10
2.360984364811354
 20
3.532
 10
2.360984364811354
 20
3.136000000000002
  0
LINE
  5
461
330
1F
100
AcDbEntity
  8
side-stop
100
AcDbLine
 10
2.423484364811354
 20
3.532
 30
0.0
 11
2.423484364811354
 21
4.032
 31
0.0
  0
LINE
  5
462
330
1F
100
AcDbEntity
  8
side-stop
100
AcDbLine
 10
2.360984364811354
 20
3.532
 30
0.0
 11
2.423484364811354
 21
3.532
 31
0.0
  0
LINE
  5
463
330
1F
100
AcDbEntity
  8
side-stop
100
AcDbLine
 10
2.610984364811354
 20
3.135999999999999
 30
0.0
 11
2.360984364811354
 21
3.136000000000002
 31
0.0
  0
LWPOLYLINE
  5
464
330
1F
100
AcDbEntity
  8
side-stop
100
AcDbPolyline
 90
        4
 70
     0
 43
0.0
 10
2.610984364811354
 20
2.885999999999999
 10
2.735984364811354
 20
2.885999999999999
 10
2.735984364811354
 20
4.032
 10
2.423484364811354
 20
4.032
  0
LINE
  5
465
330
1F
100
AcDbEntity
  8
side-stop
100
AcDbLine
 10
2.610984364811354
 20
2.885999999999999
 30
0.0
 11
2.610984364811354
 21
3.135999999999999
 31
0.0
  0
DIMENSION
  5
466
330
1F
100
AcDbEntity
  8
DIM
100
AcDbDimension
  2
*D11
 10
2.360984364811354
 20
4.220265305658175
 30
0.0
 11
1.970984364811354
 21
4.220265305658175
 31
0.0
 70
    32
 71
     5
 42
0.0625
  3
SU1
100
AcDbAlignedDimension
 13
2.423484364811354
 23
4.032
 33
0.0
 14
2.360984364811354
 24
3.532
 34
0.0
100
AcDbRotatedDimension
  0
DIMENSION
  5
474
330
1F
100
AcDbEntity
  8
DIM
100
AcDbDimension
  2
*D12
 10
2.360984364811354
 20
4.480101285918292
 30
0.0
 11
1.970984364811354
 21
4.480101285918292
 31
0.0
 70
    32
 71
     5
 42
0.25
  3
SU1
100
AcDbAlignedDimension
 13
2.610984364811354
 23
3.135999999999999
 33
0.0
 14
2.360984364811354
 24
3.532
 34
0.0
100
AcDbRotatedDimension
  0
DIMENSION
  5
482
330
1F
100
AcDbEntity
  8
DIM
100
AcDbDimension
  2
*D13
 10
2.360984364811354
 20
4.703560225888312
 30
0.0
 11
1.963484364811354
 21
4.703560225888312
 31
0.0
 70
    32
 71
     5
 42
0.375
  3
SU1
100
AcDbAlignedDimension
 13
2.735984364811354
 23
4.032
 33
0.0
 14
2.360984364811354
 24
3.532
 34
0.0
100
AcDbRotatedDimension
  0
DIMENSION
  5
490
330
1F
100
AcDbEntity
  8
DIM
100
AcDbDimension
  2
*D14
 10
1.969588525479355
 20
4.032
 30
0.0
 11
1.969588525479355
 21
3.782
 31
0.0
 70
    32
 71
     5
 42
0.5000000000000005
  3
SU1
100
AcDbAlignedDimension
 13
2.360984364811354
 23
3.532
 33
0.0
 14
2.423484364811354
 24
4.032
 34
0.0
 50
90.0
100
AcDbRotatedDimension
  0
DIMENSION
  5
49E
330
1F
100
AcDbEntity
  8
DIM
100
AcDbDimension
  2
*D15
 10
1.584874992064545
 20
4.032
 30
0.0
 11
1.584874992064544
 21
3.584000000000002
 31
0.0
 70
    32
 71
     5
 42
0.8959999999999975
  3
SU1
100
AcDbAlignedDimension
 13
2.360984364811354
 23
3.136000000000002
 33
0.0
 14
2.423484364811354
 24
4.032
 34
0.0
 50
90.0
100
AcDbRotatedDimension
  0
DIMENSION
  5
4AC
330
1F
100
AcDbEntity
  8
DIM
100
AcDbDimension
  2
*D16
 10
3.071740800684764
 20
4.032
 30
0.0
 11
3.071740800684763
 21
3.459
 31
0.0
 70
    32
 71
     5
 42
1.146000000000001
  3
SU1
100
AcDbAlignedDimension
 13
2.735984364811354
 23
2.885999999999999
 33
0.0
 14
2.735984364811354
 24
4.032
 34
0.0
 50
90.0
100
AcDbRotatedDimension
  0
LINE
  5
4C5
330
1F
100
AcDbEntity
  8
TEXT
100
AcDbLine
 10
7.722846844446165
 20
6.999397729948103
 30
0.0
 11
7.722846844446165
 21
6.534321228109869
 31
0.0
  0
TEXT
  5
4C6
330
1F
100
AcDbEntity
  8
TEXT
100
AcDbText
 10
7.781536550505204
 20
6.871901134428716
 30
0.0
 40
0.06
  1
A
100
AcDbText
  0
TEXT
  5
4C7
330
1F
100
AcDbEntity
  8
TEXT
100
AcDbText
 10
7.961870908718108
 20
6.868623655821812
 30
0.0
 40
0.06
  1
add ledge
100
AcDbText
  0
LINE
  5
4C8
330
1F
100
AcDbEntity
  8
TEXT
100
AcDbLine
 10
7.917973055561846
 20
6.999397729948103
 30
0.0
 11
7.917973055561846
 21
6.534321228109869
 31
0.0
  0
LINE
  5
4C9
330
1F
100
AcDbEntity
  8
TEXT
100
AcDbLine
 10
9.727973055561847
 20
6.999397729948103
 30
0.0
 11
9.727973055561847
 21
6.534321228109869
 31
0.0
  0
LINE
  5
4CA
330
1F
100
AcDbEntity
  8
TEXT
100
AcDbLine
 10
9.287973055561847
 20
6.999397729948103
 30
0.0
 11
9.287973055561847
 21
6.534321228109869
 31
0.0
  0
TEXT
  5
4CB
330
1F
100
AcDbEntity
  8
TEXT
100
AcDbText
 10
9.299623982090256
 20
6.858791236965979
 30
0.0
 40
0.06
  1
08-21-03
100
AcDbText
  0
ENDSEC
  0
SECTION
  2
OBJECTS
  0
DICTIONARY
  5
C
330
0
100
AcDbDictionary
281
     1
  3
ACAD_GROUP
350
D
  3
ACAD_LAYOUT
350
1A
  3
ACAD_MLINESTYLE
350
17
  3
ACAD_PLOTSETTINGS
350
19
  3
ACAD_PLOTSTYLENAME
350
E
  3
AcadDim
350
28A
  0
DICTIONARY
  5
D
102
{ACAD_REACTORS
330
C
102
}
330
C
100
AcDbDictionary
281
     1
  0
DICTIONARY
  5
1A
102
{ACAD_REACTORS
330
C
102
}
330
C
100
AcDbDictionary
281
     1
  3
Layout1
350
1E
  3
Layout2
350
26
  3
Model
350
22
  0
DICTIONARY
  5
17
102
{ACAD_REACTORS
330
C
102
}
330
C
100
AcDbDictionary
281
     1
  3
Standard
350
18
  0
DICTIONARY
  5
19
102
{ACAD_REACTORS
330
C
102
}
330
C
100
AcDbDictionary
281
     1
  0
ACDBDICTIONARYWDFLT
  5
E
102
{ACAD_REACTORS
330
C
102
}
330
C
100
AcDbDictionary
281
     1
  3
Normal
350
F
100
AcDbDictionaryWithDefault
340
F
  0
XRECORD
  5
28A
102
{ACAD_REACTORS
330
C
102
}
330
C
100
AcDbXrecord
280
     1
 90
   990106
  3

 60
     0
 61
     0
 62
     2
 63
     2
 64
     0
 65
     0
 66
     0
 67
     3
 68
     1
 69
     0
 70
     0
 71
     0
 72
     0
 40
0.0
170
     2
340
0
  0
LAYOUT
  5
1E
102
{ACAD_REACTORS
330
1A
102
}
330
1A
100
AcDbPlotSettings
  1

  2

  4

  6

 40
0.0
 41
0.0
 42
0.0
 43
0.0
 44
0.0
 45
0.0
 46
0.0
 47
0.0
 48
0.0
 49
0.0
140
0.0
141
0.0
142
1.0
143
1.0
 70
   688
 72
     0
 73
     0
 74
     5
  7
style-1.ctb
 75
    16
147
1.0
148
0.0
149
0.0
100
AcDbLayout
  1
Layout1
 70
     1
 71
     1
 10
0.0
 20
0.0
 11
12.0
 21
9.0
 12
0.0
 22
0.0
 32
0.0
 14
1.000000000000000E+20
 24
1.000000000000000E+20
 34
1.000000000000000E+20
 15
-1.000000000000000E+20
 25
-1.000000000000000E+20
 35
-1.000000000000000E+20
146
0.0
 13
0.0
 23
0.0
 33
0.0
 16
1.0
 26
0.0
 36
0.0
 17
0.0
 27
1.0
 37
0.0
 76
     0
330
1B
  0
LAYOUT
  5
26
102
{ACAD_REACTORS
330
1A
102
}
330
1A
100
AcDbPlotSettings
  1

  2

  4

  6

 40
0.0
 41
0.0
 42
0.0
 43
0.0
 44
0.0
 45
0.0
 46
0.0
 47
0.0
 48
0.0
 49
0.0
140
0.0
141
0.0
142
1.0
143
1.0
 70
   688
 72
     0
 73
     0
 74
     5
  7
style-1.ctb
 75
    16
147
1.0
148
0.0
149
0.0
100
AcDbLayout
  1
Layout2
 70
     1
 71
     2
 10
0.0
 20
0.0
 11
12.0
 21
9.0
 12
0.0
 22
0.0
 32
0.0
 14
0.0
 24
0.0
 34
0.0
 15
0.0
 25
0.0
 35
0.0
146
0.0
 13
0.0
 23
0.0
 33
0.0
 16
1.0
 26
0.0
 36
0.0
 17
0.0
 27
1.0
 37
0.0
 76
     0
330
23
  0
LAYOUT
  5
22
102
{ACAD_REACTORS
330
1A
102
}
330
1A
100
AcDbPlotSettings
  1

  2
HP OfficeJet G Series
  4
Letter
  6

 40
7.143749713897705
 41
12.47774982452392
 42
7.14373779296875
 43
3.17498779296875
 44
215.8999938964843
 45
279.3999938964843
 46
8.889999999999998
 47
4.825999999999999
 48
0.0
 49
0.0
140
0.0
141
0.0
142
1.0
143
1.0
 70
 11956
 72
     0
 73
     1
 74
     1
  7
style-1.ctb
 75
    16
147
1.0
148
-6.33914866626629
149
-1.580136642488809
100
AcDbLayout
  1
Model
 70
     1
 71
     0
 10
0.0
 20
0.0
 11
12.0
 21
9.0
 12
0.0
 22
0.0
 32
0.0
 14
0.0
 24
0.0
 34
0.0
 15
0.0
 25
0.0
 35
0.0
146
0.0
 13
0.0
 23
0.0
 33
0.0
 16
1.0
 26
0.0
 36
0.0
 17
0.0
 27
1.0
 37
0.0
 76
     0
330
1F
  0
MLINESTYLE
  5
18
102
{ACAD_REACTORS
330
17
102
}
330
17
100
AcDbMlineStyle
  2
STANDARD
 70
     0
  3

 62
   256
 51
90.0
 52
90.0
 71
     2
 49
0.5
 62
   256
  6
BYLAYER
 49
-0.5
 62
   256
  6
BYLAYER
  0
ACDBPLACEHOLDER
  5
F
102
{ACAD_REACTORS
330
E
102
}
330
E
  0
ENDSEC
  0
EOF
