  0
SECTION
  2
HEADER
  9
$ACADVER
  1
AC1015
  9
$ACADMAINTVER
 70
     6
  9
$DWGCODEPAGE
  3
ANSI_1252
  9
$INSBASE
 10
0.0
 20
0.0
 30
0.0
  9
$EXTMIN
 10
0.6713999999999999
 20
0.125
 30
0.0
  9
$EXTMAX
 10
31.17142006958448
 20
20.12499549149571
 30
0.0
  9
$LIMMIN
 10
0.0
 20
0.0
  9
$LIMMAX
 10
33.0
 20
21.0
  9
$ORTHOMODE
 70
     1
  9
$REGENMODE
 70
     1
  9
$FILLMODE
 70
     1
  9
$QTEXTMODE
 70
     0
  9
$MIRRTEXT
 70
     1
  9
$LTSCALE
 40
0.125
  9
$ATTMODE
 70
     1
  9
$TEXTSIZE
 40
0.18
  9
$TRACEWID
 40
0.05
  9
$TEXTSTYLE
  7
Standard
  9
$CLAYER
  8
DIM
  9
$CELTYPE
  6
ByLayer
  9
$CECOLOR
 62
   256
  9
$CELTSCALE
 40
1.0
  9
$DISPSILH
 70
     0
  9
$DIMSCALE
 40
1.0
  9
$DIMASZ
 40
0.18
  9
$DIMEXO
 40
0.0625
  9
$DIMDLI
 40
0.38
  9
$DIMRND
 40
0.0
  9
$DIMDLE
 40
0.0
  9
$DIMEXE
 40
0.18
  9
$DIMTP
 40
0.001
  9
$DIMTM
 40
0.001
  9
$DIMTXT
 40
0.18
  9
$DIMCEN
 40
0.09
  9
$DIMTSZ
 40
0.0
  9
$DIMTOL
 70
     0
  9
$DIMLIM
 70
     0
  9
$DIMTIH
 70
     1
  9
$DIMTOH
 70
     1
  9
$DIMSE1
 70
     0
  9
$DIMSE2
 70
     0
  9
$DIMTAD
 70
     0
  9
$DIMZIN
 70
     0
  9
$DIMBLK
  1

  9
$DIMASO
 70
     1
  9
$DIMSHO
 70
     1
  9
$DIMPOST
  1

  9
$DIMAPOST
  1
mm
  9
$DIMALT
 70
     0
  9
$DIMALTD
 70
     2
  9
$DIMALTF
 40
25.4
  9
$DIMLFAC
 40
1.0
  9
$DIMTOFL
 70
     0
  9
$DIMTVP
 40
0.0
  9
$DIMTIX
 70
     0
  9
$DIMSOXD
 70
     0
  9
$DIMSAH
 70
     0
  9
$DIMBLK1
  1

  9
$DIMBLK2
  1

  9
$DIMSTYLE
  2
SU1
  9
$DIMCLRD
 70
     0
  9
$DIMCLRE
 70
     0
  9
$DIMCLRT
 70
     0
  9
$DIMTFAC
 40
1.0
  9
$DIMGAP
 40
0.09
  9
$DIMJUST
 70
     0
  9
$DIMSD1
 70
     0
  9
$DIMSD2
 70
     0
  9
$DIMTOLJ
 70
     1
  9
$DIMTZIN
 70
     0
  9
$DIMALTZ
 70
     0
  9
$DIMALTTZ
 70
     0
  9
$DIMUPT
 70
     0
  9
$DIMDEC
 70
     3
  9
$DIMTDEC
 70
     3
  9
$DIMALTU
 70
     2
  9
$DIMALTTD
 70
     2
  9
$DIMTXSTY
  7
Standard
  9
$DIMAUNIT
 70
     0
  9
$DIMADEC
 70
     0
  9
$DIMALTRND
 40
0.0
  9
$DIMAZIN
 70
     0
  9
$DIMDSEP
 70
    46
  9
$DIMATFIT
 70
     0
  9
$DIMFRAC
 70
     0
  9
$DIMLDRBLK
  1

  9
$DIMLUNIT
 70
     2
  9
$DIMLWD
 70
    -2
  9
$DIMLWE
 70
    -2
  9
$DIMTMOVE
 70
     0
  9
$LUNITS
 70
     2
  9
$LUPREC
 70
     4
  9
$SKETCHINC
 40
0.1
  9
$FILLETRAD
 40
0.5
  9
$AUNITS
 70
     0
  9
$AUPREC
 70
     0
  9
$MENU
  1
.
  9
$ELEVATION
 40
0.0
  9
$PELEVATION
 40
0.0
  9
$THICKNESS
 40
0.0
  9
$LIMCHECK
 70
     0
  9
$CHAMFERA
 40
0.5
  9
$CHAMFERB
 40
0.5
  9
$CHAMFERC
 40
1.0
  9
$CHAMFERD
 40
0.0
  9
$SKPOLY
 70
     0
  9
$TDCREATE
 40
2452832.354201562
  9
$TDUCREATE
 40
2452832.687534896
  9
$TDUPDATE
 40
2452951.377911053
  9
$TDUUPDATE
 40
2452951.711244386
  9
$TDINDWG
 40
0.3620905671
  9
$TDUSRTIMER
 40
0.3620905671
  9
$USRTIMER
 70
     1
  9
$ANGBASE
 50
0.0
  9
$ANGDIR
 70
     0
  9
$PDMODE
 70
     0
  9
$PDSIZE
 40
0.0
  9
$PLINEWID
 40
0.0
  9
$SPLFRAME
 70
     0
  9
$SPLINETYPE
 70
     6
  9
$SPLINESEGS
 70
     8
  9
$HANDSEED
  5
142B
  9
$SURFTAB1
 70
     6
  9
$SURFTAB2
 70
     6
  9
$SURFTYPE
 70
     6
  9
$SURFU
 70
     6
  9
$SURFV
 70
     6
  9
$UCSBASE
  2

  9
$UCSNAME
  2

  9
$UCSORG
 10
0.0
 20
0.0
 30
0.0
  9
$UCSXDIR
 10
1.0
 20
0.0
 30
0.0
  9
$UCSYDIR
 10
0.0
 20
1.0
 30
0.0
  9
$UCSORTHOREF
  2

  9
$UCSORTHOVIEW
 70
     0
  9
$UCSORGTOP
 10
0.0
 20
0.0
 30
0.0
  9
$UCSORGBOTTOM
 10
0.0
 20
0.0
 30
0.0
  9
$UCSORGLEFT
 10
0.0
 20
0.0
 30
0.0
  9
$UCSORGRIGHT
 10
0.0
 20
0.0
 30
0.0
  9
$UCSORGFRONT
 10
0.0
 20
0.0
 30
0.0
  9
$UCSORGBACK
 10
0.0
 20
0.0
 30
0.0
  9
$PUCSBASE
  2

  9
$PUCSNAME
  2

  9
$PUCSORG
 10
0.0
 20
0.0
 30
0.0
  9
$PUCSXDIR
 10
1.0
 20
0.0
 30
0.0
  9
$PUCSYDIR
 10
0.0
 20
1.0
 30
0.0
  9
$PUCSORTHOREF
  2

  9
$PUCSORTHOVIEW
 70
     0
  9
$PUCSORGTOP
 10
0.0
 20
0.0
 30
0.0
  9
$PUCSORGBOTTOM
 10
0.0
 20
0.0
 30
0.0
  9
$PUCSORGLEFT
 10
0.0
 20
0.0
 30
0.0
  9
$PUCSORGRIGHT
 10
0.0
 20
0.0
 30
0.0
  9
$PUCSORGFRONT
 10
0.0
 20
0.0
 30
0.0
  9
$PUCSORGBACK
 10
0.0
 20
0.0
 30
0.0
  9
$USERI1
 70
     0
  9
$USERI2
 70
     0
  9
$USERI3
 70
     0
  9
$USERI4
 70
     0
  9
$USERI5
 70
     0
  9
$USERR1
 40
0.0
  9
$USERR2
 40
0.0
  9
$USERR3
 40
0.0
  9
$USERR4
 40
0.0
  9
$USERR5
 40
0.0
  9
$WORLDVIEW
 70
     1
  9
$SHADEDGE
 70
     3
  9
$SHADEDIF
 70
    70
  9
$TILEMODE
 70
     1
  9
$MAXACTVP
 70
    64
  9
$PINSBASE
 10
0.0
 20
0.0
 30
0.0
  9
$PLIMCHECK
 70
     0
  9
$PEXTMIN
 10
1.000000000000000E+20
 20
1.000000000000000E+20
 30
1.000000000000000E+20
  9
$PEXTMAX
 10
-1.000000000000000E+20
 20
-1.000000000000000E+20
 30
-1.000000000000000E+20
  9
$PLIMMIN
 10
0.0
 20
0.0
  9
$PLIMMAX
 10
12.0
 20
9.0
  9
$UNITMODE
 70
     0
  9
$VISRETAIN
 70
     1
  9
$PLINEGEN
 70
     0
  9
$PSLTSCALE
 70
     1
  9
$TREEDEPTH
 70
  3020
  9
$CMLSTYLE
  2
Standard
  9
$CMLJUST
 70
     0
  9
$CMLSCALE
 40
1.0
  9
$PROXYGRAPHICS
 70
     1
  9
$MEASUREMENT
 70
     0
  9
$CELWEIGHT
370
    -1
  9
$ENDCAPS
280
     0
  9
$JOINSTYLE
280
     0
  9
$LWDISPLAY
290
     0
  9
$INSUNITS
 70
     1
  9
$HYPERLINKBASE
  1

  9
$STYLESHEET
  1
style-1.ctb
  9
$XEDIT
290
     1
  9
$CEPSNTYPE
380
     0
  9
$PSTYLEMODE
290
     1
  9
$FINGERPRINTGUID
  2
{FDEAD576-A652-11D2-9A35-0060089B3A3F}
  9
$VERSIONGUID
  2
{19F5E37A-E635-46A5-985A-771F57FDA94F}
  9
$EXTNAMES
290
     1
  9
$PSVPSCALE
 40
0.0
  9
$OLESTARTUP
290
     0
  0
ENDSEC
  0
SECTION
  2
CLASSES
  0
CLASS
  1
ACDBDICTIONARYWDFLT
  2
AcDbDictionaryWithDefault
  3
AutoCAD 2000
 90
        0
280
     0
281
     0
  0
CLASS
  1
ACDBPLACEHOLDER
  2
AcDbPlaceHolder
  3
AutoCAD 2000
 90
        0
280
     0
281
     0
  0
CLASS
  1
LAYOUT
  2
AcDbLayout
  3
AutoCAD 2000
 90
        0
280
     0
281
     0
  0
ENDSEC
  0
SECTION
  2
TABLES
  0
TABLE
  2
VPORT
  5
8
330
0
100
AcDbSymbolTable
 70
     2
  0
VPORT
  5
142A
330
8
100
AcDbSymbolTableRecord
100
AcDbViewportTableRecord
  2
*Active
 70
     0
 10
0.0
 20
0.0
 11
1.0
 21
1.0
 12
15.92218788133723
 22
10.12509160119235
 13
0.0
 23
0.0
 14
0.125
 24
0.125
 15
1.0
 25
1.0
 16
0.0
 26
0.0
 36
1.0
 17
0.0
 27
0.0
 37
0.0
 40
20.1289194054924
 41
1.629473684210526
 42
50.0
 43
0.0
 44
0.0
 50
0.0
 51
0.0
 71
     0
 72
   100
 73
     1
 74
     3
 75
     0
 76
     1
 77
     0
 78
     0
281
     0
 65
     1
110
0.0
120
0.0
130
0.0
111
1.0
121
0.0
131
0.0
112
0.0
122
1.0
132
0.0
 79
     0
146
0.0
  0
ENDTAB
  0
TABLE
  2
LTYPE
  5
5
330
0
100
AcDbSymbolTable
 70
     3
  0
LTYPE
  5
14
330
5
100
AcDbSymbolTableRecord
100
AcDbLinetypeTableRecord
  2
ByBlock
 70
     0
  3

 72
    65
 73
     0
 40
0.0
  0
LTYPE
  5
15
330
5
100
AcDbSymbolTableRecord
100
AcDbLinetypeTableRecord
  2
ByLayer
 70
     0
  3

 72
    65
 73
     0
 40
0.0
  0
LTYPE
  5
16
330
5
100
AcDbSymbolTableRecord
100
AcDbLinetypeTableRecord
  2
Continuous
 70
     0
  3
Solid line
 72
    65
 73
     0
 40
0.0
  0
LTYPE
  5
48
330
5
100
AcDbSymbolTableRecord
100
AcDbLinetypeTableRecord
  2
CENTER
 70
     0
  3
____ _ ____ _ ____ _ ____ _ ____ _ ____ _ ____ 
 72
    65
 73
     4
 40
2.0
 49
1.25
 74
     0
 49
-0.25
 74
     0
 49
0.25
 74
     0
 49
-0.25
 74
     0
  0
LTYPE
  5
F9
330
5
100
AcDbSymbolTableRecord
100
AcDbLinetypeTableRecord
  2
HIDDEN
 70
     0
  3
Hidden __ __ __ __ __ __ __ __ __ __ __ __ __ _
 72
    65
 73
     2
 40
0.375
 49
0.25
 74
     0
 49
-0.125
 74
     0
  0
ENDTAB
  0
TABLE
  2
LAYER
  5
2
330
0
100
AcDbSymbolTable
 70
    12
  0
LAYER
  5
10
330
2
100
AcDbSymbolTableRecord
100
AcDbLayerTableRecord
  2
0
 70
     0
 62
     7
  6
Continuous
370
    -3
390
F
  0
LAYER
  5
49
330
2
100
AcDbSymbolTableRecord
100
AcDbLayerTableRecord
  2
TEXT
 70
     0
 62
     7
  6
Continuous
370
    -3
390
F
  0
LAYER
  5
4A
330
2
100
AcDbSymbolTableRecord
100
AcDbLayerTableRecord
  2
BORDER
 70
     0
 62
     8
  6
Continuous
370
    -3
390
F
  0
LAYER
  5
A1
330
2
100
AcDbSymbolTableRecord
100
AcDbLayerTableRecord
  2
Defpoints
 70
     0
 62
     7
  6
Continuous
290
     0
370
    -3
390
F
  0
LAYER
  5
D8
330
2
100
AcDbSymbolTableRecord
100
AcDbLayerTableRecord
  2
DIM
 70
     0
 62
     3
  6
Continuous
370
    -3
390
F
  0
LAYER
  5
D9
330
2
100
AcDbSymbolTableRecord
100
AcDbLayerTableRecord
  2
CENTER
 70
     0
 62
     1
  6
CENTER
370
    -3
390
F
  0
LAYER
  5
166
330
2
100
AcDbSymbolTableRecord
100
AcDbLayerTableRecord
  2
VAC-CUP
 70
     1
 62
     5
  6
Continuous
370
    -3
390
F
  0
LAYER
  5
167
330
2
100
AcDbSymbolTableRecord
100
AcDbLayerTableRecord
  2
downstop
 70
     1
 62
     2
  6
Continuous
370
    -3
390
F
  0
LAYER
  5
168
330
2
100
AcDbSymbolTableRecord
100
AcDbLayerTableRecord
  2
handle
 70
     0
 62
     7
  6
Continuous
370
    -3
390
F
  0
LAYER
  5
6F9
330
2
100
AcDbSymbolTableRecord
100
AcDbLayerTableRecord
  2
vacuum-cup
 70
     1
 62
     5
  6
Continuous
370
    -3
390
F
  0
LAYER
  5
6FA
330
2
100
AcDbSymbolTableRecord
100
AcDbLayerTableRecord
  2
POST
 70
     0
 62
     7
  6
Continuous
370
    -3
390
F
  0
LAYER
  5
D5F
330
2
100
AcDbSymbolTableRecord
100
AcDbLayerTableRecord
  2
TEFLON
 70
     0
 62
     3
  6
Continuous
370
    -3
390
F
  0
ENDTAB
  0
TABLE
  2
STYLE
  5
3
330
0
100
AcDbSymbolTable
 70
     3
  0
STYLE
  5
11
330
3
100
AcDbSymbolTableRecord
100
AcDbTextStyleTableRecord
  2
Standard
 70
     0
 40
0.0
 41
1.0
 50
0.0
 71
     0
 42
0.18
  3
txt
  4

  0
STYLE
  5
4B
330
3
100
AcDbSymbolTableRecord
100
AcDbTextStyleTableRecord
  2
ADESK2
 70
     0
 40
0.0
 41
1.0
 50
0.0
 71
     0
 42
0.065
  3
romans
  4

  0
STYLE
  5
F8
330
3
100
AcDbSymbolTableRecord
100
AcDbTextStyleTableRecord
  2

 70
     1
 40
0.0
 41
1.0
 50
0.0
 71
     0
 42
0.2
  3
ltypeshp.shx
  4

  0
ENDTAB
  0
TABLE
  2
VIEW
  5
6
330
0
100
AcDbSymbolTable
 70
     0
  0
ENDTAB
  0
TABLE
  2
UCS
  5
7
330
0
100
AcDbSymbolTable
 70
     0
  0
ENDTAB
  0
TABLE
  2
APPID
  5
9
330
0
100
AcDbSymbolTable
 70
     1
  0
APPID
  5
12
330
9
100
AcDbSymbolTableRecord
100
AcDbRegAppTableRecord
  2
ACAD
 70
     0
  0
ENDTAB
  0
TABLE
  2
DIMSTYLE
  5
A
330
0
100
AcDbSymbolTable
 70
     4
100
AcDbDimStyleTable
 71
     4
340
4C
340
E0
340
DF
340
27
  0
DIMSTYLE
105
27
330
A
100
AcDbSymbolTableRecord
100
AcDbDimStyleTableRecord
  2
Standard
 70
     0
340
11
  0
DIMSTYLE
105
4C
102
{ACAD_REACTORS
330
2A6
330
87C
330
88A
330
8B4
330
8F4
330
902
330
910
330
91E
330
92C
330
93A
330
984
330
992
330
9A0
330
9E3
330
9F2
330
A00
330
A1C
330
A2A
330
A38
330
A46
330
A54
330
D74
330
FDD
330
100A
330
1018
330
1026
330
1049
330
1058
330
1066
330
11B0
330
11BF
330
1328
330
1336
330
134F
330
13EA
330
13F8
330
1406
102
}
330
A
100
AcDbSymbolTableRecord
100
AcDbDimStyleTableRecord
  2
SU1
 70
     0
  4
mm
 47
0.001
 48
0.001
271
     3
272
     3
289
     0
340
11
  0
DIMSTYLE
105
DF
330
A
100
AcDbSymbolTableRecord
100
AcDbDimStyleTableRecord
  2
SU1$4
 70
     0
  4
mm
 47
0.001
 48
0.001
271
     3
272
     3
288
     1
289
     0
340
11
  0
DIMSTYLE
105
E0
102
{ACAD_REACTORS
330
60F
330
C3A
330
CA4
330
D31
330
1074
330
136E
102
}
330
A
100
AcDbSymbolTableRecord
100
AcDbDimStyleTableRecord
  2
SU1$3
 70
     0
  4
mm
 47
0.001
 48
0.001
271
     3
272
     3
288
     1
289
     0
340
11
  0
ENDTAB
  0
TABLE
  2
BLOCK_RECORD
  5
1
330
0
100
AcDbSymbolTable
 70
    50
  0
BLOCK_RECORD
  5
1F
330
1
100
AcDbSymbolTableRecord
100
AcDbBlockTableRecord
  2
*Model_Space
340
22
  0
BLOCK_RECORD
  5
1B
330
1
100
AcDbSymbolTableRecord
100
AcDbBlockTableRecord
  2
*Paper_Space
340
1E
  0
BLOCK_RECORD
  5
23
330
1
100
AcDbSymbolTableRecord
100
AcDbBlockTableRecord
  2
*Paper_Space0
340
26
  0
BLOCK_RECORD
  5
108
330
1
100
AcDbSymbolTableRecord
100
AcDbBlockTableRecord
  2
d-border
340
0
102
{BLKREFS
331
156
102
}
  0
BLOCK_RECORD
  5
15E
330
1
100
AcDbSymbolTableRecord
100
AcDbBlockTableRecord
  2
vac-cup-top
340
0
310
2800000020000000200000000100080000000000000400000000000000000000000000000000000000000000000080000080000000808000800000008000800080800000C0C0C000C0DCC000F0CAA6000020400000206000002080000020A0000020C0000020E00000400000004020000040400000406000004080000040A0
310
000040C0000040E00000600000006020000060400000606000006080000060A0000060C0000060E00000800000008020000080400000806000008080000080A0000080C0000080E00000A0000000A0200000A0400000A0600000A0800000A0A00000A0C00000A0E00000C0000000C0200000C0400000C0600000C0800000C0
310
A00000C0C00000C0E00000E0000000E0200000E0400000E0600000E0800000E0A00000E0C00000E0E00040000000400020004000400040006000400080004000A0004000C0004000E00040200000402020004020400040206000402080004020A0004020C0004020E000404000004040200040404000404060004040800040
310
40A0004040C0004040E00040600000406020004060400040606000406080004060A0004060C0004060E00040800000408020004080400040806000408080004080A0004080C0004080E00040A0000040A0200040A0400040A0600040A0800040A0A00040A0C00040A0E00040C0000040C0200040C0400040C0600040C08000
310
40C0A00040C0C00040C0E00040E0000040E0200040E0400040E0600040E0800040E0A00040E0C00040E0E00080000000800020008000400080006000800080008000A0008000C0008000E00080200000802020008020400080206000802080008020A0008020C0008020E00080400000804020008040400080406000804080
310
008040A0008040C0008040E00080600000806020008060400080606000806080008060A0008060C0008060E00080800000808020008080400080806000808080008080A0008080C0008080E00080A0000080A0200080A0400080A0600080A0800080A0A00080A0C00080A0E00080C0000080C0200080C0400080C0600080C0
310
800080C0A00080C0C00080C0E00080E0000080E0200080E0400080E0600080E0800080E0A00080E0C00080E0E000C0000000C0002000C0004000C0006000C0008000C000A000C000C000C000E000C0200000C0202000C0204000C0206000C0208000C020A000C020C000C020E000C0400000C0402000C0404000C0406000C0
310
408000C040A000C040C000C040E000C0600000C0602000C0604000C0606000C0608000C060A000C060C000C060E000C0800000C0802000C0804000C0806000C0808000C080A000C080C000C080E000C0A00000C0A02000C0A04000C0A06000C0A08000C0A0A000C0A0C000C0A0E000C0C00000C0C02000C0C04000C0C06000
310
C0C08000C0C0A000F0FBFF00A4A0A000808080000000FF0000FF000000FFFF00FF000000FF00FF00FFFF0000FFFFFF0000000000000000000000000000000000000000000000000000000000000000000000000000000000000000000000000000000000000000000000000000000000000000000000000000000000000000
310
F900000000000000000000000000000000000000000000000000000000000000F900000000000000000000000000000000000000000000000000000000000000F900000000000000000000000000000000000000000000000000000000000000F900000000000000000000000000000000000000000000000000000000FCFC
310
FCFCFCFCFCFC00000000000000000000000000000000000000000000FCFC000000F900000000FCFC00000000000000000000000000000000000000FC0000000000F9000000000000FC0000000000000000000000000000000000FC00000000FCFCFCFCFCFC000000FC0000000000000000000000000000000000FC0000FCFC
310
0000F9000000FC000000FCFC0000000000000000000000000000FC0000FC000000FCFCFCFC0000FC000000FC0000000000000000000000000000FC0000FC00FCFC00F90000FC0000FC0000FC00000000000000000000000000FC000000FCFCFC0000F9000000FC00FC000000FC000000000000000000000000FC0000FC00FC
310
000000F9000000FC0000FC0000FC00000000000000F9F9F9F9F9FCF9F9FCF9FCF9F9F9F9F9F9F9F9FCF9FCF9F9FCF9F9F9F9F900000000000000FC0000FC00FC000000F900000000FC00FC0000FC000000000000000000000000FC0000FC00FC000000F9000000FC0000FC0000FC000000000000000000000000FC000000FC
310
00FC0000F90000FCFC00FC000000FC00000000000000000000000000FC0000FC00FCFCFCF900FCFC0000FC0000FC0000000000000000000000000000FC000000FC000000FCFC000000FC000000FC000000000000000000000000000000FC000000FCFC00F90000FCFC00000000FC00000000000000000000000000000000FC
310
00000000FCFCFCFC00000000FCFC0000000000000000000000000000000000FC0000000000F90000000000FC0000000000000000000000000000000000000000FC00000000F9000000FCFC00000000000000000000000000000000000000000000FCFCFCFCFCFCFCFC00000000000000000000000000000000000000000000
310
000000000000F900000000000000000000000000000000000000000000000000000000000000F900000000000000000000000000000000000000000000000000000000000000F900000000000000000000000000000000000000000000000000000000000000F9000000000000000000000000000000000000000000000000
310
0000000000000000000000000000000000000000000000000000000000000000000000000000000000000000000000000000000000000000
1001
ACAD
1000
DesignCenter Data
1002
{
1070
     1
1070
     1
1002
}
  0
BLOCK_RECORD
  5
1C3
330
1
100
AcDbSymbolTableRecord
100
AcDbBlockTableRecord
  2
10-32-THREAD
340
0
310
2800000020000000200000000100080000000000000400000000000000000000000000000000000000000000000080000080000000808000800000008000800080800000C0C0C000C0DCC000F0CAA6000020400000206000002080000020A0000020C0000020E00000400000004020000040400000406000004080000040A0
310
000040C0000040E00000600000006020000060400000606000006080000060A0000060C0000060E00000800000008020000080400000806000008080000080A0000080C0000080E00000A0000000A0200000A0400000A0600000A0800000A0A00000A0C00000A0E00000C0000000C0200000C0400000C0600000C0800000C0
310
A00000C0C00000C0E00000E0000000E0200000E0400000E0600000E0800000E0A00000E0C00000E0E00040000000400020004000400040006000400080004000A0004000C0004000E00040200000402020004020400040206000402080004020A0004020C0004020E000404000004040200040404000404060004040800040
310
40A0004040C0004040E00040600000406020004060400040606000406080004060A0004060C0004060E00040800000408020004080400040806000408080004080A0004080C0004080E00040A0000040A0200040A0400040A0600040A0800040A0A00040A0C00040A0E00040C0000040C0200040C0400040C0600040C08000
310
40C0A00040C0C00040C0E00040E0000040E0200040E0400040E0600040E0800040E0A00040E0C00040E0E00080000000800020008000400080006000800080008000A0008000C0008000E00080200000802020008020400080206000802080008020A0008020C0008020E00080400000804020008040400080406000804080
310
008040A0008040C0008040E00080600000806020008060400080606000806080008060A0008060C0008060E00080800000808020008080400080806000808080008080A0008080C0008080E00080A0000080A0200080A0400080A0600080A0800080A0A00080A0C00080A0E00080C0000080C0200080C0400080C0600080C0
310
800080C0A00080C0C00080C0E00080E0000080E0200080E0400080E0600080E0800080E0A00080E0C00080E0E000C0000000C0002000C0004000C0006000C0008000C000A000C000C000C000E000C0200000C0202000C0204000C0206000C0208000C020A000C020C000C020E000C0400000C0402000C0404000C0406000C0
310
408000C040A000C040C000C040E000C0600000C0602000C0604000C0606000C0608000C060A000C060C000C060E000C0800000C0802000C0804000C0806000C0808000C080A000C080C000C080E000C0A00000C0A02000C0A04000C0A06000C0A08000C0A0A000C0A0C000C0A0E000C0C00000C0C02000C0C04000C0C06000
310
C0C08000C0C0A000F0FBFF00A4A0A000808080000000FF0000FF000000FFFF00FF000000FF00FF00FFFF0000FFFFFF000000000000000000000000000000000000000000000000000000000000000000000000000000000000000000000000F900000000000000000000000000000000000000000000000000000000000000
310
F900000000000000000000000000000000000000000000000000000000000000F900000000000000000000000000000000000000000000000000000000000000F900000000000000000000000000000000000000000000000000000000000000F9000000000000000000000000000000000000000000000000000000000000
310
00F900000000000000000000000000000000000000000000000000000000000000F900000000000000000000000000000000000000000000000000000000000000F90000000000000000000000000000000000000000000000000000000000FFFFFFFFFFFF000000000000000000000000000000000000000000000000FFFF
310
FFFFFFFFFF00FF00000000000000000000000000000000000000000000FF00FF0000F90000FFFFFF0000000000000000000000000000000000000000FF00FF000000F9000000FF00FF00000000000000000000000000000000000000FFFF00000000F900000000FF00FF000000000000000000000000000000000000FFFF00
310
000000F900000000FF00FF0000000000000000000000000000000000FF00FF00000000F90000000000FFFF0000000000000000000000F9F9F9F9F9F9F9F9F9F9F9F9F9F9F9F9F9F9F9F9F9F9F9F9F9F9F9F90000000000000000000000FFFF00000000F90000000000FFFF000000000000000000000000000000000000FFFF
310
00000000F900000000FF00FF000000000000000000000000000000000000FF00FF000000F9000000FFFFFF0000000000000000000000000000000000000000FF00FF0000F9000000FFFF00000000000000000000000000000000000000000000FF00FFFFFFFFFFFFFF00000000000000000000000000000000000000000000
310
0000FFFFFFFFFFFFFF00000000000000000000000000000000000000000000000000000000F900000000000000000000000000000000000000000000000000000000000000F900000000000000000000000000000000000000000000000000000000000000F900000000000000000000000000000000000000000000000000
310
000000000000F900000000000000000000000000000000000000000000000000000000000000F900000000000000000000000000000000000000000000000000000000000000F900000000000000000000000000000000000000000000000000000000000000F9000000000000000000000000000000000000000000000000
310
00000000000000F9000000000000000000000000000000000000000000000000000000000000000000000000000000000000000000000000
102
{BLKREFS
331
761
331
762
331
767
331
768
331
779
331
788
331
791
331
7A0
331
7B9
331
7BA
331
85B
331
80A
331
850
331
832
331
820
331
840
331
848
331
810
331
817
331
823
331
D56
331
D57
331
D58
331
D59
331
D5A
331
D5B
331
D5C
331
D5D
331
13B6
331
13B7
331
1423
331
1422
102
}
1001
ACAD
1000
DesignCenter Data
1002
{
1070
     1
1070
     1
1002
}
  0
BLOCK_RECORD
  5
1D8
330
1
100
AcDbSymbolTableRecord
100
AcDbBlockTableRecord
  2
6-32-THREAD
340
0
310
2800000020000000200000000100080000000000000400000000000000000000000000000000000000000000000080000080000000808000800000008000800080800000C0C0C000C0DCC000F0CAA6000020400000206000002080000020A0000020C0000020E00000400000004020000040400000406000004080000040A0
310
000040C0000040E00000600000006020000060400000606000006080000060A0000060C0000060E00000800000008020000080400000806000008080000080A0000080C0000080E00000A0000000A0200000A0400000A0600000A0800000A0A00000A0C00000A0E00000C0000000C0200000C0400000C0600000C0800000C0
310
A00000C0C00000C0E00000E0000000E0200000E0400000E0600000E0800000E0A00000E0C00000E0E00040000000400020004000400040006000400080004000A0004000C0004000E00040200000402020004020400040206000402080004020A0004020C0004020E000404000004040200040404000404060004040800040
310
40A0004040C0004040E00040600000406020004060400040606000406080004060A0004060C0004060E00040800000408020004080400040806000408080004080A0004080C0004080E00040A0000040A0200040A0400040A0600040A0800040A0A00040A0C00040A0E00040C0000040C0200040C0400040C0600040C08000
310
40C0A00040C0C00040C0E00040E0000040E0200040E0400040E0600040E0800040E0A00040E0C00040E0E00080000000800020008000400080006000800080008000A0008000C0008000E00080200000802020008020400080206000802080008020A0008020C0008020E00080400000804020008040400080406000804080
310
008040A0008040C0008040E00080600000806020008060400080606000806080008060A0008060C0008060E00080800000808020008080400080806000808080008080A0008080C0008080E00080A0000080A0200080A0400080A0600080A0800080A0A00080A0C00080A0E00080C0000080C0200080C0400080C0600080C0
310
800080C0A00080C0C00080C0E00080E0000080E0200080E0400080E0600080E0800080E0A00080E0C00080E0E000C0000000C0002000C0004000C0006000C0008000C000A000C000C000C000E000C0200000C0202000C0204000C0206000C0208000C020A000C020C000C020E000C0400000C0402000C0404000C0406000C0
310
408000C040A000C040C000C040E000C0600000C0602000C0604000C0606000C0608000C060A000C060C000C060E000C0800000C0802000C0804000C0806000C0808000C080A000C080C000C080E000C0A00000C0A02000C0A04000C0A06000C0A08000C0A0A000C0A0C000C0A0E000C0C00000C0C02000C0C04000C0C06000
310
C0C08000C0C0A000F0FBFF00A4A0A000808080000000FF0000FF000000FFFF00FF000000FF00FF00FFFF0000FFFFFF00000000000000000000000000000000000000000000000000000000000000000000000000000000000000000000000000F9000000000000000000000000000000000000000000000000000000000000
310
00F900000000000000000000000000000000000000000000000000000000000000F900000000000000000000000000000000000000000000000000000000000000F900000000000000000000000000000000000000000000000000000000000000F90000000000000000000000000000000000000000000000000000000000
310
0000F900000000000000000000000000000000000000000000000000000000000000F90000000000000000000000000000000000000000000000000000000000FFFFF9FFFFFF000000000000000000000000000000000000000000000000FFFF0000F9000000FF00000000000000000000000000000000000000000000FF00
310
FFFFFFFFFFFF0000FF0000000000000000000000000000000000000000FF00FF000000F90000FFFF00FF000000000000000000000000000000000000FF0000FF000000F900000000FF00FF0000000000000000000000000000000000FF00FF00000000F900000000FF00FF0000000000000000000000000000000000FF00FF
310
00000000F900000000FF00FF00000000000000000000F9F9F9F9F9F9F9F9FFF9F9F9F9F9F9F9F9F9F9F9FFF9F9F9F9F9F9F90000000000000000000000FFFF0000000000F900000000FF00FF0000000000000000000000000000000000FF00FF00000000F900000000FF00FF0000000000000000000000000000000000FF00
310
FF00000000F900000000FF00FF0000000000000000000000000000000000FF0000FF000000F9000000FF00FF00000000000000000000000000000000000000FF0000FFFF00F900FFFF00FF000000000000000000000000000000000000000000FF000000FFFFFF0000FF000000000000000000000000000000000000000000
310
0000FFFFFF00F900FFFF000000000000000000000000000000000000000000000000000000FFF9FF000000000000000000000000000000000000000000000000000000000000F900000000000000000000000000000000000000000000000000000000000000F9000000000000000000000000000000000000000000000000
310
00000000000000F900000000000000000000000000000000000000000000000000000000000000F900000000000000000000000000000000000000000000000000000000000000F900000000000000000000000000000000000000000000000000000000000000F90000000000000000000000000000000000000000000000
310
0000000000000000F90000000000000000000000000000000000000000000000000000000000000000000000000000000000000000000000
102
{BLKREFS
331
D68
331
D69
331
11D8
331
11D9
102
}
1001
ACAD
1000
DesignCenter Data
1002
{
1070
     1
1070
     1
1002
}
  0
BLOCK_RECORD
  5
2A7
330
1
100
AcDbSymbolTableRecord
100
AcDbBlockTableRecord
  2
*D5
340
0
  0
BLOCK_RECORD
  5
610
330
1
100
AcDbSymbolTableRecord
100
AcDbBlockTableRecord
  2
*D6
340
0
  0
BLOCK_RECORD
  5
6F2
330
1
100
AcDbSymbolTableRecord
100
AcDbBlockTableRecord
  2
vac-cup-5-top
340
0
310
2800000020000000200000000100080000000000000400000000000000000000000000000000000000000000000080000080000000808000800000008000800080800000C0C0C000C0DCC000F0CAA6000020400000206000002080000020A0000020C0000020E00000400000004020000040400000406000004080000040A0
310
000040C0000040E00000600000006020000060400000606000006080000060A0000060C0000060E00000800000008020000080400000806000008080000080A0000080C0000080E00000A0000000A0200000A0400000A0600000A0800000A0A00000A0C00000A0E00000C0000000C0200000C0400000C0600000C0800000C0
310
A00000C0C00000C0E00000E0000000E0200000E0400000E0600000E0800000E0A00000E0C00000E0E00040000000400020004000400040006000400080004000A0004000C0004000E00040200000402020004020400040206000402080004020A0004020C0004020E000404000004040200040404000404060004040800040
310
40A0004040C0004040E00040600000406020004060400040606000406080004060A0004060C0004060E00040800000408020004080400040806000408080004080A0004080C0004080E00040A0000040A0200040A0400040A0600040A0800040A0A00040A0C00040A0E00040C0000040C0200040C0400040C0600040C08000
310
40C0A00040C0C00040C0E00040E0000040E0200040E0400040E0600040E0800040E0A00040E0C00040E0E00080000000800020008000400080006000800080008000A0008000C0008000E00080200000802020008020400080206000802080008020A0008020C0008020E00080400000804020008040400080406000804080
310
008040A0008040C0008040E00080600000806020008060400080606000806080008060A0008060C0008060E00080800000808020008080400080806000808080008080A0008080C0008080E00080A0000080A0200080A0400080A0600080A0800080A0A00080A0C00080A0E00080C0000080C0200080C0400080C0600080C0
310
800080C0A00080C0C00080C0E00080E0000080E0200080E0400080E0600080E0800080E0A00080E0C00080E0E000C0000000C0002000C0004000C0006000C0008000C000A000C000C000C000E000C0200000C0202000C0204000C0206000C0208000C020A000C020C000C020E000C0400000C0402000C0404000C0406000C0
310
408000C040A000C040C000C040E000C0600000C0602000C0604000C0606000C0608000C060A000C060C000C060E000C0800000C0802000C0804000C0806000C0808000C080A000C080C000C080E000C0A00000C0A02000C0A04000C0A06000C0A08000C0A0A000C0A0C000C0A0E000C0C00000C0C02000C0C04000C0C06000
310
C0C08000C0C0A000F0FBFF00A4A0A000808080000000FF0000FF000000FFFF00FF000000FF00FF00FFFF0000FFFFFF0000000000000000000000000000000000000000000000000000000000000000000000000000000000000000000000000000000000000000000000000000000000000000000000000000000000000000
310
F900000000000000000000000000000000000000000000000000000000000000F900000000000000000000000000000000000000000000000000000000000000F900000000000000000000000000000000000000000000000000000000000000F900000000000000000000000000000000000000000000000000000000FCFC
310
FCFCFCFCFC0000000000000000000000000000000000000000000000FCFC000000F9000000FCFCFC00000000000000000000000000000000000000FC000000FCFCFCFCFCFC000000FC0000000000000000000000000000000000FC0000FCFC0000F9000000FCFC00FC0000000000000000000000000000000000FC00FC0000
310
0000F90000000000FC00FC000000000000000000000000000000FC00FC0000000000F9000000000000FC00FC0000000000000000000000000000FCFC000000000000F9000000000000FC00FC00000000000000000000000000FC00FC000000000000F9000000000000FC0000FC000000000000000000000000FC00FC000000
310
000000F900000000000000FC00FC00000000000000F9F9F9F9F9F9F9FCF9F9F9F9F9F9F9F9F9F9F9F9F9F9FCF9F9F9F9F9F9F900000000000000FC00FC000000000000F900000000000000FC00FC000000000000000000000000FC00FC000000000000F900000000000000FC00FC000000000000000000000000FC00FC0000
310
00000000F9000000000000FC0000FC00000000000000000000000000FCFC000000000000F9000000000000FC00FC0000000000000000000000000000FC00FC0000000000F9000000000000FC00FC000000000000000000000000000000FC00FC00000000F90000000000FC00FC0000000000000000000000000000000000FC
310
00FC000000F90000FCFCFC00FC000000000000000000000000000000000000FC0000FCFCFCFCFCFC000000FC0000000000000000000000000000000000000000FC00000000F9000000FCFC00000000000000000000000000000000000000000000FCFCFCFCFCFCFCFC00000000000000000000000000000000000000000000
310
000000000000F900000000000000000000000000000000000000000000000000000000000000F900000000000000000000000000000000000000000000000000000000000000F900000000000000000000000000000000000000000000000000000000000000F9000000000000000000000000000000000000000000000000
310
0000000000000000000000000000000000000000000000000000000000000000000000000000000000000000000000000000000000000000
102
{BLKREFS
331
75B
331
75C
331
76D
331
76E
331
775
331
77D
331
789
331
790
331
79F
331
7AF
331
85C
331
80B
331
84F
331
831
331
816
331
81F
331
83F
331
849
331
811
331
822
102
}
1001
ACAD
1000
DesignCenter Data
1002
{
1070
     1
1070
     1
1002
}
  0
BLOCK_RECORD
  5
87D
330
1
100
AcDbSymbolTableRecord
100
AcDbBlockTableRecord
  2
*D8
340
0
  0
BLOCK_RECORD
  5
88B
330
1
100
AcDbSymbolTableRecord
100
AcDbBlockTableRecord
  2
*D9
340
0
  0
BLOCK_RECORD
  5
8B5
330
1
100
AcDbSymbolTableRecord
100
AcDbBlockTableRecord
  2
*D10
340
0
  0
BLOCK_RECORD
  5
8F5
330
1
100
AcDbSymbolTableRecord
100
AcDbBlockTableRecord
  2
*D11
340
0
  0
BLOCK_RECORD
  5
903
330
1
100
AcDbSymbolTableRecord
100
AcDbBlockTableRecord
  2
*D12
340
0
  0
BLOCK_RECORD
  5
911
330
1
100
AcDbSymbolTableRecord
100
AcDbBlockTableRecord
  2
*D13
340
0
  0
BLOCK_RECORD
  5
91F
330
1
100
AcDbSymbolTableRecord
100
AcDbBlockTableRecord
  2
*D14
340
0
  0
BLOCK_RECORD
  5
92D
330
1
100
AcDbSymbolTableRecord
100
AcDbBlockTableRecord
  2
*D15
340
0
  0
BLOCK_RECORD
  5
93B
330
1
100
AcDbSymbolTableRecord
100
AcDbBlockTableRecord
  2
*D16
340
0
  0
BLOCK_RECORD
  5
985
330
1
100
AcDbSymbolTableRecord
100
AcDbBlockTableRecord
  2
*D17
340
0
  0
BLOCK_RECORD
  5
993
330
1
100
AcDbSymbolTableRecord
100
AcDbBlockTableRecord
  2
*D18
340
0
  0
BLOCK_RECORD
  5
9A1
330
1
100
AcDbSymbolTableRecord
100
AcDbBlockTableRecord
  2
*D19
340
0
  0
BLOCK_RECORD
  5
9E4
330
1
100
AcDbSymbolTableRecord
100
AcDbBlockTableRecord
  2
*D20
340
0
  0
BLOCK_RECORD
  5
9F3
330
1
100
AcDbSymbolTableRecord
100
AcDbBlockTableRecord
  2
*D21
340
0
  0
BLOCK_RECORD
  5
A01
330
1
100
AcDbSymbolTableRecord
100
AcDbBlockTableRecord
  2
*D22
340
0
  0
BLOCK_RECORD
  5
A1D
330
1
100
AcDbSymbolTableRecord
100
AcDbBlockTableRecord
  2
*D23
340
0
  0
BLOCK_RECORD
  5
A2B
330
1
100
AcDbSymbolTableRecord
100
AcDbBlockTableRecord
  2
*D24
340
0
  0
BLOCK_RECORD
  5
A39
330
1
100
AcDbSymbolTableRecord
100
AcDbBlockTableRecord
  2
*D25
340
0
  0
BLOCK_RECORD
  5
A47
330
1
100
AcDbSymbolTableRecord
100
AcDbBlockTableRecord
  2
*D26
340
0
  0
BLOCK_RECORD
  5
A55
330
1
100
AcDbSymbolTableRecord
100
AcDbBlockTableRecord
  2
*D27
340
0
  0
BLOCK_RECORD
  5
C3B
330
1
100
AcDbSymbolTableRecord
100
AcDbBlockTableRecord
  2
*D28
340
0
  0
BLOCK_RECORD
  5
C91
330
1
100
AcDbSymbolTableRecord
100
AcDbBlockTableRecord
  2
C-BORE-#6
340
0
102
{BLKREFS
331
C98
331
C99
102
}
1001
ACAD
1000
DesignCenter Data
1002
{
1070
     1
1070
     1
1002
}
  0
BLOCK_RECORD
  5
CA5
330
1
100
AcDbSymbolTableRecord
100
AcDbBlockTableRecord
  2
*D30
340
0
  0
BLOCK_RECORD
  5
D32
330
1
100
AcDbSymbolTableRecord
100
AcDbBlockTableRecord
  2
*D31
340
0
  0
BLOCK_RECORD
  5
D75
330
1
100
AcDbSymbolTableRecord
100
AcDbBlockTableRecord
  2
*D32
340
0
  0
BLOCK_RECORD
  5
FDE
330
1
100
AcDbSymbolTableRecord
100
AcDbBlockTableRecord
  2
*D33
340
0
  0
BLOCK_RECORD
  5
100B
330
1
100
AcDbSymbolTableRecord
100
AcDbBlockTableRecord
  2
*D34
340
0
  0
BLOCK_RECORD
  5
1019
330
1
100
AcDbSymbolTableRecord
100
AcDbBlockTableRecord
  2
*D35
340
0
  0
BLOCK_RECORD
  5
1027
330
1
100
AcDbSymbolTableRecord
100
AcDbBlockTableRecord
  2
*D36
340
0
  0
BLOCK_RECORD
  5
104A
330
1
100
AcDbSymbolTableRecord
100
AcDbBlockTableRecord
  2
*D37
340
0
  0
BLOCK_RECORD
  5
1059
330
1
100
AcDbSymbolTableRecord
100
AcDbBlockTableRecord
  2
*D38
340
0
  0
BLOCK_RECORD
  5
1067
330
1
100
AcDbSymbolTableRecord
100
AcDbBlockTableRecord
  2
*D39
340
0
  0
BLOCK_RECORD
  5
1075
330
1
100
AcDbSymbolTableRecord
100
AcDbBlockTableRecord
  2
*D40
340
0
  0
BLOCK_RECORD
  5
11B1
330
1
100
AcDbSymbolTableRecord
100
AcDbBlockTableRecord
  2
*D41
340
0
  0
BLOCK_RECORD
  5
11C0
330
1
100
AcDbSymbolTableRecord
100
AcDbBlockTableRecord
  2
*D42
340
0
  0
BLOCK_RECORD
  5
1329
330
1
100
AcDbSymbolTableRecord
100
AcDbBlockTableRecord
  2
*D43
340
0
  0
BLOCK_RECORD
  5
1337
330
1
100
AcDbSymbolTableRecord
100
AcDbBlockTableRecord
  2
*D44
340
0
  0
BLOCK_RECORD
  5
1350
330
1
100
AcDbSymbolTableRecord
100
AcDbBlockTableRecord
  2
*D45
340
0
  0
BLOCK_RECORD
  5
136F
330
1
100
AcDbSymbolTableRecord
100
AcDbBlockTableRecord
  2
*D46
340
0
  0
BLOCK_RECORD
  5
13EB
330
1
100
AcDbSymbolTableRecord
100
AcDbBlockTableRecord
  2
*D47
340
0
  0
BLOCK_RECORD
  5
13F9
330
1
100
AcDbSymbolTableRecord
100
AcDbBlockTableRecord
  2
*D48
340
0
  0
BLOCK_RECORD
  5
1407
330
1
100
AcDbSymbolTableRecord
100
AcDbBlockTableRecord
  2
*D49
340
0
  0
ENDTAB
  0
ENDSEC
  0
SECTION
  2
BLOCKS
  0
BLOCK
  5
20
330
1F
100
AcDbEntity
  8
0
100
AcDbBlockBegin
  2
*Model_Space
 70
     0
 10
0.0
 20
0.0
 30
0.0
  3
*Model_Space
  1

  0
ENDBLK
  5
21
330
1F
100
AcDbEntity
  8
0
100
AcDbBlockEnd
  0
BLOCK
  5
1C
330
1B
100
AcDbEntity
 67
     1
  8
0
100
AcDbBlockBegin
  2
*Paper_Space
 70
     0
 10
0.0
 20
0.0
 30
0.0
  3
*Paper_Space
  1

  0
ENDBLK
  5
1D
330
1B
100
AcDbEntity
 67
     1
  8
0
100
AcDbBlockEnd
  0
BLOCK
  5
24
330
23
100
AcDbEntity
  8
0
100
AcDbBlockBegin
  2
*Paper_Space0
 70
     0
 10
0.0
 20
0.0
 30
0.0
  3
*Paper_Space0
  1

  0
ENDBLK
  5
25
330
23
100
AcDbEntity
  8
0
100
AcDbBlockEnd
  0
BLOCK
  5
150
330
108
100
AcDbEntity
  8
0
100
AcDbBlockBegin
  2
d-border
 70
     2
 10
0.0
 20
0.0
 30
0.0
  3
d-border
  1

  0
ATTDEF
  5
109
330
108
100
AcDbEntity
  8
TEXT
100
AcDbText
 10
26.4087
 20
0.8153
 30
0.0
 40
0.06
  1

100
AcDbAttributeDefinition
  3
Enter the Date
  2
DATE
 70
     0
  0
ATTDEF
  5
10A
330
108
100
AcDbEntity
  8
TEXT
100
AcDbText
 10
25.4066
 20
0.8516999999999999
 30
0.0
 40
0.12
  1
S. KYRE
100
AcDbAttributeDefinition
  3
Enter Your Name
  2
NAME
 70
     0
  0
ATTDEF
  5
10B
330
108
100
AcDbEntity
  8
TEXT
100
AcDbText
 10
27.3318
 20
0.1839
 30
0.0
 40
0.12
  1

100
AcDbAttributeDefinition
  3
Enter Drawing Scale
  2
SCALE
 70
     0
  0
ATTDEF
  5
10C
330
108
100
AcDbEntity
  8
TEXT
100
AcDbText
 10
28.97149999999999
 20
0.4692000000000001
 30
0.0
 40
0.12
  1

100
AcDbAttributeDefinition
  3
Enter File Name
  2
FILE
 70
     0
  0
ATTDEF
  5
10D
330
108
100
AcDbEntity
  8
TEXT
100
AcDbText
 10
27.3257
 20
0.4571
 30
0.0
 40
0.12
  1

100
AcDbAttributeDefinition
  3
Enter Drawing Directory
  2
DIRECTORY
 70
     0
  0
TEXT
  5
10E
330
108
100
AcDbEntity
  8
TEXT
100
AcDbText
 10
26.05617561769021
 20
1.361504946102674
 30
0.0
 40
0.065
  1
  %%P 0.5%%D
  7
ADESK2
100
AcDbText
  0
TEXT
  5
10F
330
108
100
AcDbEntity
  8
TEXT
100
AcDbText
 10
26.05617561769021
 20
1.466742946102673
 30
0.0
 40
0.065
  1
ANGULAR
  7
ADESK2
100
AcDbText
  0
TEXT
  5
110
330
108
100
AcDbEntity
  8
TEXT
100
AcDbText
 10
25.26291585578544
 20
1.153743946102673
 30
0.0
 40
0.065
  1
DO NOT SCALE DRAWING
  7
ADESK2
 72
     1
 11
25.8773206176902
 21
1.153743946102673
 31
0.0
100
AcDbText
  0
TEXT
  5
111
330
108
100
AcDbEntity
  8
TEXT
100
AcDbText
 10
25.19227861769021
 20
1.256266946102674
 30
0.0
 40
0.065
  1
.XXX %%P .005
  7
ADESK2
100
AcDbText
  0
TEXT
  5
112
330
108
100
AcDbEntity
  8
TEXT
100
AcDbText
 10
25.19227861769021
 20
1.361504946102674
 30
0.0
 40
0.065
  1
.XX  %%P .05
  7
ADESK2
100
AcDbText
  0
TEXT
  5
113
330
108
100
AcDbEntity
  8
TEXT
100
AcDbText
 10
25.19227861769021
 20
1.466742946102673
 30
0.0
 40
0.065
  1
DECIMALS
  7
ADESK2
100
AcDbText
  0
TEXT
  5
114
330
108
100
AcDbEntity
  8
TEXT
100
AcDbText
 10
25.57863014149973
 20
1.574612946102674
 30
0.0
 40
0.065
  1
TOLERANCES
  7
ADESK2
 72
     1
 11
25.8773206176902
 21
1.574612946102674
 31
0.0
100
AcDbText
  0
TEXT
  5
115
330
108
100
AcDbEntity
  8
TEXT
100
AcDbText
 10
25.18089204626163
 20
1.679850946102674
 30
0.0
 40
0.065
  1
DIMENSIONS ARE IN INCHES
  7
ADESK2
 72
     1
 11
25.8773206176902
 21
1.679850946102674
 31
0.0
100
AcDbText
  0
TEXT
  5
116
330
108
100
AcDbEntity
  8
TEXT
100
AcDbText
 10
25.10660633197592
 20
1.785088946102673
 30
0.0
 40
0.065
  1
UNLESS OTHERWISE SPECIFIED:
  7
ADESK2
 72
     1
 11
25.8773206176902
 21
1.785088946102673
 31
0.0
100
AcDbText
  0
TEXT
  5
117
330
108
100
AcDbEntity
  8
BORDER
100
AcDbText
 10
27.00116736861396
 20
0.4347781652093627
 30
0.0
 40
0.2
  1
D
100
AcDbText
  0
TEXT
  5
118
330
108
100
AcDbEntity
  8
BORDER
100
AcDbText
 10
27.56486373285813
 20
1.575566135628289
 30
0.0
 40
0.15
  1
HIGH ENERGY PHYSICS
100
AcDbText
  0
LINE
  5
119
330
108
100
AcDbEntity
  8
BORDER
100
AcDbLine
 10
0.6713999999999999
 20
20.1249954914957
 30
0.0
 11
31.17142006958448
 21
20.1249954914957
 31
0.0
  0
TEXT
  5
11A
330
108
100
AcDbEntity
  8
TEXT
100
AcDbText
 10
27.3283925341323
 20
0.6653543307085395
 30
0.0
 40
0.075
  1
DIRECTORY
100
AcDbText
  0
LINE
  5
11B
330
108
100
AcDbEntity
  8
BORDER
100
AcDbLine
 10
0.6713999999999999
 20
0.125
 30
0.0
 11
31.17142006958448
 21
0.125
 31
0.0
  0
LINE
  5
11C
330
108
100
AcDbEntity
  8
BORDER
100
AcDbLine
 10
0.6714000000000001
 20
20.12499549149571
 30
0.0
 11
0.6714000000000001
 21
0.125
 31
0.0
  0
LINE
  5
11D
330
108
100
AcDbEntity
  8
BORDER
100
AcDbLine
 10
31.17142006958448
 20
0.125
 30
0.0
 11
31.17142006958448
 21
20.1249954914957
 31
0.0
  0
LINE
  5
11E
330
108
100
AcDbEntity
  8
BORDER
100
AcDbLine
 10
24.87628038545887
 20
2.324146981627205
 30
0.0
 11
31.14911824215376
 21
2.324146981627205
 31
0.0
  0
TEXT
  5
11F
330
108
100
AcDbEntity
  8
BORDER
100
AcDbText
 10
25.05528511968987
 20
2.049227858145542
 30
0.0
 40
0.15
  1
UNIVERSITY OF CALIFORNIA @ SANTA BARBARA
100
AcDbText
  0
TEXT
  5
120
330
108
100
AcDbEntity
  8
TEXT
100
AcDbText
 10
24.94563061769021
 20
0.9799639461026732
 30
0.0
 40
0.065
  1
DRAWN
  7
ADESK2
100
AcDbText
  0
LINE
  5
121
330
108
100
AcDbEntity
  8
BORDER
100
AcDbLine
 10
24.87732061769021
 20
0.125
 30
0.0
 11
24.87732061769021
 21
2.324146981627205
 31
0.0
  0
LINE
  5
122
330
108
100
AcDbEntity
  8
BORDER
100
AcDbLine
 10
24.87732061769021
 20
1.901500946102673
 30
0.0
 11
31.14911824215376
 21
1.901500946102673
 31
0.0
  0
LINE
  5
123
330
108
100
AcDbEntity
  8
TEXT
100
AcDbLine
 10
24.87732061769021
 20
0.4665009461026735
 30
0.0
 11
26.87732061769021
 21
0.4665009461026735
 31
0.0
  0
LINE
  5
124
330
108
100
AcDbEntity
  8
TEXT
100
AcDbLine
 10
24.87732061769021
 20
0.781500946102673
 30
0.0
 11
31.14911824215376
 21
0.781500946102673
 31
0.0
  0
LINE
  5
125
330
108
100
AcDbEntity
  8
TEXT
100
AcDbLine
 10
26.87732061769021
 20
0.401500946102674
 30
0.0
 11
31.14911824215376
 21
0.401500946102674
 31
0.0
  0
LINE
  5
126
330
108
100
AcDbEntity
  8
BORDER
100
AcDbLine
 10
26.87732061769021
 20
1.401500946102673
 30
0.0
 11
31.14911824215376
 21
1.401500946102673
 31
0.0
  0
LINE
  5
127
330
108
100
AcDbEntity
  8
BORDER
100
AcDbLine
 10
26.87732061769021
 20
0.125
 30
0.0
 11
26.87732061769021
 21
1.901500946102673
 31
0.0
  0
LINE
  5
128
330
108
100
AcDbEntity
  8
TEXT
100
AcDbLine
 10
27.87732061769021
 20
0.125
 30
0.0
 11
27.87732061769021
 21
0.401500946102674
 31
0.0
  0
LINE
  5
129
330
108
100
AcDbEntity
  8
TEXT
100
AcDbLine
 10
29.37732061769021
 20
0.125
 30
0.0
 11
29.37732061769021
 21
0.401500946102674
 31
0.0
  0
LINE
  5
12A
330
108
100
AcDbEntity
  8
TEXT
100
AcDbLine
 10
27.2573206176902
 20
0.401500946102674
 30
0.0
 11
27.2573206176902
 21
0.781500946102673
 31
0.0
  0
LINE
  5
12B
330
108
100
AcDbEntity
  8
TEXT
100
AcDbLine
 10
28.37732061769021
 20
0.401500946102674
 30
0.0
 11
28.37732061769021
 21
0.781500946102673
 31
0.0
  0
LINE
  5
12C
330
108
100
AcDbEntity
  8
TEXT
100
AcDbLine
 10
30.74732061769021
 20
0.401500946102674
 30
0.0
 11
30.74732061769021
 21
0.781500946102673
 31
0.0
  0
TEXT
  5
12D
330
108
100
AcDbEntity
  8
TEXT
100
AcDbText
 10
26.92962061769021
 20
0.2440009461026733
 30
0.0
 40
0.065
  1
SCALE
  7
ADESK2
100
AcDbText
  0
TEXT
  5
12E
330
108
100
AcDbEntity
  8
TEXT
100
AcDbText
 10
29.43012061769021
 20
0.2440009461026733
 30
0.0
 40
0.065
  1
SHEET
  7
ADESK2
100
AcDbText
  0
TEXT
  5
12F
330
108
100
AcDbEntity
  8
TEXT
100
AcDbText
 10
26.96522061769021
 20
0.6674009461026725
 30
0.0
 40
0.065
  1
SIZE
  7
ADESK2
100
AcDbText
  0
TEXT
  5
130
330
108
100
AcDbEntity
  8
TEXT
100
AcDbText
 10
28.44832061769021
 20
0.6674009461026725
 30
0.0
 40
0.065
  1
DWG NO.
  7
ADESK2
100
AcDbText
  0
TEXT
  5
131
330
108
100
AcDbEntity
  8
TEXT
100
AcDbText
 10
30.8278206176902
 20
0.6674009461026725
 30
0.0
 40
0.065
  1
REV
  7
ADESK2
100
AcDbText
  0
LINE
  5
132
330
108
100
AcDbEntity
  8
TEXT
100
AcDbLine
 10
26.1080494845343
 20
19.80229554512702
 30
0.0
 11
31.16235579564198
 21
19.80229554512702
 31
0.0
  0
LINE
  5
133
330
108
100
AcDbEntity
  8
TEXT
100
AcDbLine
 10
26.1080494845343
 20
19.55229554512702
 30
0.0
 11
31.16235579564198
 21
19.55229554512702
 31
0.0
  0
LINE
  5
134
330
108
100
AcDbEntity
  8
TEXT
100
AcDbLine
 10
26.1080494845343
 20
20.11235949123699
 30
0.0
 11
26.1080494845343
 21
19.55229554512702
 31
0.0
  0
LINE
  5
135
330
108
100
AcDbEntity
  8
TEXT
100
AcDbLine
 10
26.49830190676567
 20
19.55229554512702
 30
0.0
 11
26.49830190676567
 21
19.80229554512702
 31
0.0
  0
LINE
  5
136
330
108
100
AcDbEntity
  8
TEXT
100
AcDbLine
 10
29.23830190676567
 20
19.55229554512702
 30
0.0
 11
29.23830190676567
 21
19.80229554512702
 31
0.0
  0
LINE
  5
137
330
108
100
AcDbEntity
  8
TEXT
100
AcDbLine
 10
30.11830190676567
 20
19.55229554512702
 30
0.0
 11
30.11830190676567
 21
19.80229554512702
 31
0.0
  0
TEXT
  5
138
330
108
100
AcDbEntity
  8
TEXT
100
AcDbText
 10
28.32850190676566
 20
19.88479554512703
 30
0.0
 40
0.065
  1
REVISIONS
  7
ADESK2
100
AcDbText
  0
TEXT
  5
139
330
108
100
AcDbEntity
  8
TEXT
100
AcDbText
 10
26.19840190676566
 20
19.64259554512702
 30
0.0
 40
0.065
  1
REV
  7
ADESK2
100
AcDbText
  0
TEXT
  5
13A
330
108
100
AcDbEntity
  8
TEXT
100
AcDbText
 10
27.50030190676567
 20
19.64259554512702
 30
0.0
 40
0.065
  1
DESCRIPTION
  7
ADESK2
100
AcDbText
  0
TEXT
  5
13B
330
108
100
AcDbEntity
  8
TEXT
100
AcDbText
 10
29.56600190676567
 20
19.64259554512702
 30
0.0
 40
0.065
  1
DATE
  7
ADESK2
100
AcDbText
  0
TEXT
  5
13C
330
108
100
AcDbEntity
  8
TEXT
100
AcDbText
 10
30.35970190676567
 20
19.64259554512702
 30
0.0
 40
0.065
  1
APPROVED
  7
ADESK2
100
AcDbText
  0
LINE
  5
13D
330
108
100
AcDbEntity
  8
TEXT
100
AcDbLine
 10
24.87732061769021
 20
1.091500946102673
 30
0.0
 11
26.87732061769021
 21
1.091500946102673
 31
0.0
  0
TEXT
  5
13E
330
108
100
AcDbEntity
  8
TEXT
100
AcDbText
 10
24.95732061769021
 20
0.6715009461026736
 30
0.0
 40
0.065
  1
CHECKED
  7
ADESK2
100
AcDbText
  0
TEXT
  5
13F
330
108
100
AcDbEntity
  8
TEXT
100
AcDbText
 10
24.95732061769021
 20
0.3565009461026722
 30
0.0
 40
0.065
  1
DESIGN
  7
ADESK2
100
AcDbText
  0
LINE
  5
140
330
108
100
AcDbEntity
  8
TEXT
100
AcDbLine
 10
26.37730461769021
 20
1.091500946102673
 30
0.0
 11
26.37730461769021
 21
0.125
 31
0.0
  0
TEXT
  5
141
330
108
100
AcDbEntity
  8
TEXT
100
AcDbText
 10
26.50072361769021
 20
0.9749509461026732
 30
0.0
 40
0.065
  1
DATE
  7
ADESK2
100
AcDbText
  0
TEXT
  5
142
330
108
100
AcDbEntity
  8
TEXT
100
AcDbText
 10
30.26029161769021
 20
0.2443769461026726
 30
0.0
 40
0.065
  1
OF
  7
ADESK2
100
AcDbText
  0
LINE
  5
143
330
108
100
AcDbEntity
  8
TEXT
100
AcDbLine
 10
3.2339
 20
19.3749954914957
 30
0.0
 11
0.6713999999999999
 21
19.3749954914957
 31
0.0
  0
LINE
  5
144
330
108
100
AcDbEntity
  8
TEXT
100
AcDbLine
 10
3.2339
 20
19.6249954914957
 30
0.0
 11
3.2339
 21
19.3749954914957
 31
0.0
  0
TEXT
  5
145
330
108
100
AcDbEntity
  8
TEXT
100
AcDbText
 10
0.8589
 20
19.43982308174734
 30
0.0
 40
0.1
  1
THIRD ANGLE PROJECTION
100
AcDbText
  0
LINE
  5
146
330
108
100
AcDbEntity
  8
TEXT
100
AcDbLine
 10
2.302663037562576
 20
20.04895638895508
 30
0.0
 11
2.302663037562576
 21
19.67395638895508
 31
0.0
  0
LINE
  5
147
330
108
100
AcDbEntity
  8
TEXT
100
AcDbLine
 10
1.818021382375997
 20
19.76770638895508
 30
0.0
 11
1.818021382375997
 21
19.95520638895508
 31
0.0
  0
LINE
  5
148
330
108
100
AcDbEntity
  8
TEXT
100
AcDbLine
 10
1.818021382375997
 20
19.76770638895508
 30
0.0
 11
2.302663037562576
 21
19.67395638895508
 31
0.0
  0
LINE
  5
149
330
108
100
AcDbEntity
  8
TEXT
100
AcDbLine
 10
1.818021382375997
 20
19.95520638895508
 30
0.0
 11
2.302663037562576
 21
20.04895638895508
 31
0.0
  0
LINE
  5
14A
330
108
100
AcDbEntity
  8
TEXT
  6
CENTER
100
AcDbLine
 10
1.349271382375997
 20
19.63277452344833
 30
0.0
 11
1.349271382375997
 21
20.1006513366765
 31
0.0
  0
LINE
  5
14B
330
108
100
AcDbEntity
  8
TEXT
  6
CENTER
100
AcDbLine
 10
1.115351193048235
 20
19.86145638895508
 30
0.0
 11
2.568021382375997
 21
19.86145638895508
 31
0.0
  0
CIRCLE
  5
14C
330
108
100
AcDbEntity
  8
TEXT
100
AcDbCircle
 10
1.349271382375997
 20
19.86145638895508
 30
0.0
 40
0.09375
  0
CIRCLE
  5
14D
330
108
100
AcDbEntity
  8
TEXT
100
AcDbCircle
 10
1.349271382375997
 20
19.86145638895508
 30
0.0
 40
0.1875
  0
LINE
  5
14E
330
108
100
AcDbEntity
  8
TEXT
100
AcDbLine
 10
3.2339
 20
19.6249954914957
 30
0.0
 11
3.2339
 21
20.1249954914957
 31
0.0
  0
LINE
  5
14F
330
108
100
AcDbEntity
  8
TEXT
100
AcDbLine
 10
0.6713999999999999
 20
19.6249954914957
 30
0.0
 11
3.2339
 21
19.6249954914957
 31
0.0
  0
ENDBLK
  5
151
330
108
100
AcDbEntity
  8
0
100
AcDbBlockEnd
  0
BLOCK
  5
164
330
15E
100
AcDbEntity
  8
0
100
AcDbBlockBegin
  2
vac-cup-top
 70
     0
 10
0.0
 20
0.0
 30
0.0
  3
vac-cup-top
  1

  0
LINE
  5
15F
330
15E
100
AcDbEntity
  8
CENTER
100
AcDbLine
 10
-0.3187493907822443
 20
0.0
 30
0.0
 11
0.328347549114099
 21
0.0
 31
0.0
  0
LINE
  5
160
330
15E
100
AcDbEntity
  8
CENTER
100
AcDbLine
 10
0.0
 20
0.3141158026301838
 30
0.0
 11
0.0
 21
-0.3079345452594282
 31
0.0
  0
CIRCLE
  5
161
330
15E
100
AcDbEntity
  8
VAC-CUP
100
AcDbCircle
 10
0.0
 20
0.0
 30
0.0
 40
0.225
  0
CIRCLE
  5
162
330
15E
100
AcDbEntity
  8
VAC-CUP
100
AcDbCircle
 10
0.0
 20
0.0
 30
0.0
 40
0.1487704126543718
  0
CIRCLE
  5
163
330
15E
100
AcDbEntity
  8
VAC-CUP
100
AcDbCircle
 10
0.0
 20
0.0
 30
0.0
 40
0.1
  0
ENDBLK
  5
165
330
15E
100
AcDbEntity
  8
0
100
AcDbBlockEnd
  0
BLOCK
  5
1C4
330
1C3
100
AcDbEntity
  8
0
100
AcDbBlockBegin
  2
10-32-THREAD
 70
     0
 10
0.0
 20
0.0
 30
0.0
  3
10-32-THREAD
  1

  0
LINE
  5
1C6
330
1C3
100
AcDbEntity
  8
CENTER
100
AcDbLine
 10
0.0
 20
-0.1975376167524771
 30
0.0
 11
0.0
 21
0.1944296551450009
 31
0.0
  0
CIRCLE
  5
1C7
330
1C3
100
AcDbEntity
  8
handle
  6
HIDDEN
100
AcDbCircle
 10
0.0
 20
0.0
 30
0.0
 40
0.095
  0
CIRCLE
  5
1C8
330
1C3
100
AcDbEntity
  8
handle
100
AcDbCircle
 10
0.0
 20
0.0
 30
0.0
 40
0.078
  0
LINE
  5
1C9
330
1C3
100
AcDbEntity
  8
CENTER
100
AcDbLine
 10
-0.1836830594637462
 20
0.0
 30
0.0
 11
0.1899617356404803
 21
0.0
 31
0.0
  0
ENDBLK
  5
1C5
330
1C3
100
AcDbEntity
  8
0
100
AcDbBlockEnd
  0
BLOCK
  5
1D9
330
1D8
100
AcDbEntity
  8
0
100
AcDbBlockBegin
  2
6-32-THREAD
 70
     0
 10
0.0
 20
0.0
 30
0.0
  3
6-32-THREAD
  1

  0
CIRCLE
  5
1DB
330
1D8
100
AcDbEntity
  8
0
  6
HIDDEN
100
AcDbCircle
 10
0.0
 20
0.0
 30
0.0
 40
0.069
  0
LINE
  5
1DC
330
1D8
100
AcDbEntity
  8
CENTER
100
AcDbLine
 10
0.0
 20
-0.1279832183029228
 30
0.0
 11
0.0
 21
0.1336872602465959
 31
0.0
  0
LINE
  5
1DD
330
1D8
100
AcDbEntity
  8
CENTER
100
AcDbLine
 10
-0.1318975397983451
 20
0.0
 30
0.0
 11
0.1232160353974194
 21
0.0
 31
0.0
  0
CIRCLE
  5
1DE
330
1D8
100
AcDbEntity
  8
0
100
AcDbCircle
 10
0.0
 20
0.0
 30
0.0
 40
0.052
  0
ENDBLK
  5
1DA
330
1D8
100
AcDbEntity
  8
0
100
AcDbBlockEnd
  0
BLOCK
  5
2B3
330
2A7
100
AcDbEntity
  8
0
100
AcDbBlockBegin
  2
*D5
 70
     1
 10
0.0
 20
0.0
 30
0.0
  3
*D5
  1

  0
LINE
  5
1344
330
2A7
100
AcDbEntity
  8
DIM
 62
     0
370
    -2
100
AcDbLine
 10
21.06904028226018
 20
13.74854077459912
 30
0.0
 11
22.60228861275542
 21
13.74854077459912
 31
0.0
  0
LINE
  5
1345
330
2A7
100
AcDbEntity
  8
DIM
 62
     0
370
    -2
100
AcDbLine
 10
21.06904028226018
 20
14.24854077459912
 30
0.0
 11
22.60228861275542
 21
14.24854077459912
 31
0.0
  0
LINE
  5
1346
330
2A7
100
AcDbEntity
  8
DIM
 62
     0
370
    -2
100
AcDbLine
 10
22.42228861275541
 20
13.56854077459912
 30
0.0
 11
22.42228861275541
 21
13.38854077459912
 31
0.0
  0
LINE
  5
1347
330
2A7
100
AcDbEntity
  8
DIM
 62
     0
370
    -2
100
AcDbLine
 10
22.42228861275541
 20
14.42854077459912
 30
0.0
 11
22.42228861275541
 21
14.60854077459912
 31
0.0
  0
LINE
  5
1348
330
2A7
100
AcDbEntity
  8
DIM
 62
     0
370
    -2
100
AcDbLine
 10
22.42228861275541
 20
14.60854077459912
 30
0.0
 11
22.60228861275542
 21
14.60854077459912
 31
0.0
  0
SOLID
  5
1349
330
2A7
100
AcDbEntity
  8
DIM
 62
     0
100
AcDbTrace
 10
22.39228861275541
 20
13.56854077459912
 30
0.0
 11
22.45228861275541
 21
13.56854077459912
 31
0.0
 12
22.42228861275541
 22
13.74854077459912
 32
0.0
 13
22.42228861275541
 23
13.74854077459912
 33
0.0
  0
SOLID
  5
134A
330
2A7
100
AcDbEntity
  8
DIM
 62
     0
100
AcDbTrace
 10
22.39228861275541
 20
14.42854077459912
 30
0.0
 11
22.45228861275541
 21
14.42854077459912
 31
0.0
 12
22.42228861275541
 22
14.24854077459912
 32
0.0
 13
22.42228861275541
 23
14.24854077459912
 33
0.0
  0
MTEXT
  5
134B
330
2A7
100
AcDbEntity
  8
DIM
 62
     0
100
AcDbMText
 10
23.00728861275541
 20
14.60854077459912
 30
0.0
 40
0.18
 41
0.0
 71
     5
 72
     1
  1
\A1;0.500
 73
     1
 44
1.0
  0
POINT
  5
134C
330
2A7
100
AcDbEntity
  8
Defpoints
 62
     0
100
AcDbPoint
 10
21.00654028226018
 20
13.74854077459912
 30
0.0
  0
POINT
  5
134D
330
2A7
100
AcDbEntity
  8
Defpoints
 62
     0
100
AcDbPoint
 10
21.00654028226018
 20
14.24854077459912
 30
0.0
  0
POINT
  5
134E
330
2A7
100
AcDbEntity
  8
Defpoints
 62
     0
100
AcDbPoint
 10
22.42228861275541
 20
14.24854077459912
 30
0.0
  0
ENDBLK
  5
2B4
330
2A7
100
AcDbEntity
  8
0
100
AcDbBlockEnd
  0
BLOCK
  5
619
330
610
100
AcDbEntity
  8
0
100
AcDbBlockBegin
  2
*D6
 70
     1
 10
0.0
 20
0.0
 30
0.0
  3
*D6
  1

  0
LINE
  5
1414
330
610
100
AcDbEntity
  8
DIM
 62
     0
370
    -2
100
AcDbLine
 10
19.84866915900907
 20
6.22811206751517
 30
0.0
 11
21.92385910279574
 21
11.35903244309787
 31
0.0
  0
LINE
  5
1415
330
610
100
AcDbEntity
  8
DIM
 62
     0
370
    -2
100
AcDbLine
 10
21.92385910279574
 20
11.35903244309787
 30
0.0
 11
22.10385910279574
 21
11.35903244309787
 31
0.0
  0
SOLID
  5
1416
330
610
100
AcDbEntity
  8
DIM
 62
     0
100
AcDbTrace
 10
19.82085771840435
 20
6.239360346116372
 30
0.0
 11
19.87648059961379
 21
6.216863788913969
 31
0.0
 12
19.78117948740187
 22
6.061243423886861
 32
0.0
 13
19.78117948740187
 23
6.061243423886861
 33
0.0
  0
MTEXT
  5
1417
330
610
100
AcDbEntity
  8
DIM
 62
     0
100
AcDbMText
 10
23.37885910279573
 20
11.35903244309788
 30
0.0
 40
0.18
 41
0.0
 71
     5
 72
     1
  1
\A1;10-32 TAP THRU\P16X
 73
     1
 44
1.0
  0
LINE
  5
1418
330
610
100
AcDbEntity
  8
DIM
 62
     0
370
    -2
100
AcDbLine
 10
19.65555993849807
 20
5.973173861971925
 30
0.0
 11
19.83555993849806
 21
5.973173861971927
 31
0.0
  0
LINE
  5
1419
330
610
100
AcDbEntity
  8
DIM
 62
     0
370
    -2
100
AcDbLine
 10
19.74555993849806
 20
5.883173861971926
 30
0.0
 11
19.74555993849806
 21
6.063173861971925
 31
0.0
  0
POINT
  5
141A
330
610
100
AcDbEntity
  8
Defpoints
 62
     0
100
AcDbPoint
 10
19.78117948740187
 20
6.061243423886861
 30
0.0
  0
POINT
  5
141B
330
610
100
AcDbEntity
  8
Defpoints
 62
     0
100
AcDbPoint
 10
19.70994038959427
 20
5.885104300056993
 30
0.0
  0
ENDBLK
  5
61A
330
610
100
AcDbEntity
  8
0
100
AcDbBlockEnd
  0
BLOCK
  5
6F7
330
6F2
100
AcDbEntity
  8
0
100
AcDbBlockBegin
  2
vac-cup-5-top
 70
     0
 10
0.0
 20
0.0
 30
0.0
  3
vac-cup-5-top
  1

  0
LINE
  5
6F3
330
6F2
100
AcDbEntity
  8
CENTER
100
AcDbLine
 10
0.0
 20
0.201433835685016
 30
0.0
 11
0.0
 21
-0.1984048135880769
 31
0.0
  0
CIRCLE
  5
6F4
330
6F2
100
AcDbEntity
  8
VAC-CUP
100
AcDbCircle
 10
0.0
 20
0.0
 30
0.0
 40
0.1400000000000001
  0
LINE
  5
6F5
330
6F2
100
AcDbEntity
  8
CENTER
100
AcDbLine
 10
0.2058332463933392
 20
0.0
 30
0.0
 11
-0.1986213601059181
 21
0.0
 31
0.0
  0
CIRCLE
  5
6F6
330
6F2
100
AcDbEntity
  8
VAC-CUP
100
AcDbCircle
 10
0.0
 20
0.0
 30
0.0
 40
0.1099999999999999
  0
ENDBLK
  5
6F8
330
6F2
100
AcDbEntity
  8
0
100
AcDbBlockEnd
  0
BLOCK
  5
888
330
87D
100
AcDbEntity
  8
0
100
AcDbBlockBegin
  2
*D8
 70
     1
 10
0.0
 20
0.0
 30
0.0
  3
*D8
  1

  0
LINE
  5
12CA
330
87D
100
AcDbEntity
  8
DIM
 62
     0
370
    -2
100
AcDbLine
 10
11.73250334849809
 20
7.400734862218527
 30
0.0
 11
11.73250334849809
 21
7.905707052010455
 31
0.0
  0
LINE
  5
12CB
330
87D
100
AcDbEntity
  8
DIM
 62
     0
370
    -2
100
AcDbLine
 10
11.00654029625357
 20
7.535752601971942
 30
0.0
 11
11.00654029625357
 21
7.905707052010455
 31
0.0
  0
LINE
  5
12CC
330
87D
100
AcDbEntity
  8
DIM
 62
     0
370
    -2
100
AcDbLine
 10
11.91250334849809
 20
7.725707052010456
 30
0.0
 11
12.09250334849809
 21
7.725707052010456
 31
0.0
  0
LINE
  5
12CD
330
87D
100
AcDbEntity
  8
DIM
 62
     0
370
    -2
100
AcDbLine
 10
10.82654029625357
 20
7.725707052010456
 30
0.0
 11
10.64654029625357
 21
7.725707052010456
 31
0.0
  0
SOLID
  5
12CE
330
87D
100
AcDbEntity
  8
DIM
 62
     0
100
AcDbTrace
 10
11.91250334849809
 20
7.755707052010456
 30
0.0
 11
11.91250334849809
 21
7.695707052010456
 31
0.0
 12
11.73250334849809
 22
7.725707052010456
 32
0.0
 13
11.73250334849809
 23
7.725707052010456
 33
0.0
  0
SOLID
  5
12CF
330
87D
100
AcDbEntity
  8
DIM
 62
     0
100
AcDbTrace
 10
10.82654029625357
 20
7.755707052010456
 30
0.0
 11
10.82654029625357
 21
7.695707052010456
 31
0.0
 12
11.00654029625357
 22
7.725707052010456
 32
0.0
 13
11.00654029625357
 23
7.725707052010456
 33
0.0
  0
MTEXT
  5
12D0
330
87D
100
AcDbEntity
  8
DIM
 62
     0
100
AcDbMText
 10
10.21154029625357
 20
7.725707052010456
 30
0.0
 40
0.18
 41
0.0
 71
     5
 72
     1
  1
\A1;0.726
 73
     1
 44
1.0
  0
POINT
  5
12D1
330
87D
100
AcDbEntity
  8
Defpoints
 62
     0
100
AcDbPoint
 10
11.73250334849809
 20
7.338234862218527
 30
0.0
  0
POINT
  5
12D2
330
87D
100
AcDbEntity
  8
Defpoints
 62
     0
100
AcDbPoint
 10
11.00654029625357
 20
7.473252601971942
 30
0.0
  0
POINT
  5
12D3
330
87D
100
AcDbEntity
  8
Defpoints
 62
     0
100
AcDbPoint
 10
11.00654029625357
 20
7.725707052010456
 30
0.0
  0
ENDBLK
  5
889
330
87D
100
AcDbEntity
  8
0
100
AcDbBlockEnd
  0
BLOCK
  5
896
330
88B
100
AcDbEntity
  8
0
100
AcDbBlockBegin
  2
*D9
 70
     1
 10
0.0
 20
0.0
 30
0.0
  3
*D9
  1

  0
LINE
  5
12C0
330
88B
100
AcDbEntity
  8
DIM
 62
     0
370
    -2
100
AcDbLine
 10
11.98742409849808
 20
7.461319777116941
 30
0.0
 11
11.98742409849808
 21
8.691868455806925
 31
0.0
  0
LINE
  5
12C1
330
88B
100
AcDbEntity
  8
DIM
 62
     0
370
    -2
100
AcDbLine
 10
11.00654029625357
 20
7.535752601971942
 30
0.0
 11
11.00654029625357
 21
8.691868455806925
 31
0.0
  0
LINE
  5
12C2
330
88B
100
AcDbEntity
  8
DIM
 62
     0
370
    -2
100
AcDbLine
 10
12.16742409849808
 20
8.511868455806926
 30
0.0
 11
12.34742409849808
 21
8.511868455806926
 31
0.0
  0
LINE
  5
12C3
330
88B
100
AcDbEntity
  8
DIM
 62
     0
370
    -2
100
AcDbLine
 10
10.82654029625357
 20
8.511868455806926
 30
0.0
 11
10.64654029625357
 21
8.511868455806926
 31
0.0
  0
SOLID
  5
12C4
330
88B
100
AcDbEntity
  8
DIM
 62
     0
100
AcDbTrace
 10
12.16742409849808
 20
8.541868455806925
 30
0.0
 11
12.16742409849808
 21
8.481868455806926
 31
0.0
 12
11.98742409849808
 22
8.511868455806926
 32
0.0
 13
11.98742409849808
 23
8.511868455806926
 33
0.0
  0
SOLID
  5
12C5
330
88B
100
AcDbEntity
  8
DIM
 62
     0
100
AcDbTrace
 10
10.82654029625357
 20
8.541868455806925
 30
0.0
 11
10.82654029625357
 21
8.481868455806926
 31
0.0
 12
11.00654029625357
 22
8.511868455806926
 32
0.0
 13
11.00654029625357
 23
8.511868455806926
 33
0.0
  0
MTEXT
  5
12C6
330
88B
100
AcDbEntity
  8
DIM
 62
     0
100
AcDbMText
 10
10.24154029625357
 20
8.511868455806926
 30
0.0
 40
0.18
 41
0.0
 71
     5
 72
     1
  1
\A1;0.981
 73
     1
 44
1.0
  0
POINT
  5
12C7
330
88B
100
AcDbEntity
  8
Defpoints
 62
     0
100
AcDbPoint
 10
11.98742409849808
 20
7.398819777116941
 30
0.0
  0
POINT
  5
12C8
330
88B
100
AcDbEntity
  8
Defpoints
 62
     0
100
AcDbPoint
 10
11.00654029625357
 20
7.473252601971942
 30
0.0
  0
POINT
  5
12C9
330
88B
100
AcDbEntity
  8
Defpoints
 62
     0
100
AcDbPoint
 10
11.00654029625357
 20
8.511868455806926
 30
0.0
  0
ENDBLK
  5
897
330
88B
100
AcDbEntity
  8
0
100
AcDbBlockEnd
  0
BLOCK
  5
8C0
330
8B5
100
AcDbEntity
  8
0
100
AcDbBlockBegin
  2
*D10
 70
     1
 10
0.0
 20
0.0
 30
0.0
  3
*D10
  1

  0
LINE
  5
12B6
330
8B5
100
AcDbEntity
  8
DIM
 62
     0
370
    -2
100
AcDbLine
 10
14.14560675849807
 20
5.410673861971941
 30
0.0
 11
14.14560675849807
 21
9.099807826358961
 31
0.0
  0
LINE
  5
12B7
330
8B5
100
AcDbEntity
  8
DIM
 62
     0
370
    -2
100
AcDbLine
 10
11.00654029625357
 20
7.535752601971942
 30
0.0
 11
11.00654029625357
 21
9.099807826358961
 31
0.0
  0
LINE
  5
12B8
330
8B5
100
AcDbEntity
  8
DIM
 62
     0
370
    -2
100
AcDbLine
 10
13.96560675849807
 20
8.919807826358962
 30
0.0
 11
12.99607352737582
 21
8.919807826358962
 31
0.0
  0
LINE
  5
12B9
330
8B5
100
AcDbEntity
  8
DIM
 62
     0
370
    -2
100
AcDbLine
 10
11.18654029625357
 20
8.919807826358962
 30
0.0
 11
12.15607352737582
 21
8.919807826358962
 31
0.0
  0
SOLID
  5
12BA
330
8B5
100
AcDbEntity
  8
DIM
 62
     0
100
AcDbTrace
 10
13.96560675849807
 20
8.949807826358961
 30
0.0
 11
13.96560675849807
 21
8.889807826358962
 31
0.0
 12
14.14560675849807
 22
8.919807826358962
 32
0.0
 13
14.14560675849807
 23
8.919807826358962
 33
0.0
  0
SOLID
  5
12BB
330
8B5
100
AcDbEntity
  8
DIM
 62
     0
100
AcDbTrace
 10
11.18654029625357
 20
8.949807826358961
 30
0.0
 11
11.18654029625357
 21
8.889807826358962
 31
0.0
 12
11.00654029625357
 22
8.919807826358962
 32
0.0
 13
11.00654029625357
 23
8.919807826358962
 33
0.0
  0
MTEXT
  5
12BC
330
8B5
100
AcDbEntity
  8
DIM
 62
     0
100
AcDbMText
 10
12.57607352737582
 20
8.919807826358962
 30
0.0
 40
0.18
 41
0.0
 71
     5
 72
     1
  1
\A1;3.139
 73
     1
 44
1.0
  0
POINT
  5
12BD
330
8B5
100
AcDbEntity
  8
Defpoints
 62
     0
100
AcDbPoint
 10
14.14560675849807
 20
5.348173861971941
 30
0.0
  0
POINT
  5
12BE
330
8B5
100
AcDbEntity
  8
Defpoints
 62
     0
100
AcDbPoint
 10
11.00654029625357
 20
7.473252601971942
 30
0.0
  0
POINT
  5
12BF
330
8B5
100
AcDbEntity
  8
Defpoints
 62
     0
100
AcDbPoint
 10
11.00654029625357
 20
8.919807826358962
 30
0.0
  0
ENDBLK
  5
8C1
330
8B5
100
AcDbEntity
  8
0
100
AcDbBlockEnd
  0
BLOCK
  5
900
330
8F5
100
AcDbEntity
  8
0
100
AcDbBlockBegin
  2
*D11
 70
     1
 10
0.0
 20
0.0
 30
0.0
  3
*D11
  1

  0
LINE
  5
12AC
330
8F5
100
AcDbEntity
  8
DIM
 62
     0
370
    -2
100
AcDbLine
 10
14.27060675849807
 20
6.230103517116942
 30
0.0
 11
14.27060675849807
 21
9.419993350654351
 31
0.0
  0
LINE
  5
12AD
330
8F5
100
AcDbEntity
  8
DIM
 62
     0
370
    -2
100
AcDbLine
 10
11.00654029625357
 20
7.535752601971942
 30
0.0
 11
11.00654029625357
 21
9.419993350654351
 31
0.0
  0
LINE
  5
12AE
330
8F5
100
AcDbEntity
  8
DIM
 62
     0
370
    -2
100
AcDbLine
 10
14.09060675849807
 20
9.239993350654351
 30
0.0
 11
13.08857352737582
 21
9.239993350654351
 31
0.0
  0
LINE
  5
12AF
330
8F5
100
AcDbEntity
  8
DIM
 62
     0
370
    -2
100
AcDbLine
 10
11.18654029625357
 20
9.239993350654351
 30
0.0
 11
12.18857352737582
 21
9.239993350654351
 31
0.0
  0
SOLID
  5
12B0
330
8F5
100
AcDbEntity
  8
DIM
 62
     0
100
AcDbTrace
 10
14.09060675849807
 20
9.269993350654351
 30
0.0
 11
14.09060675849807
 21
9.209993350654352
 31
0.0
 12
14.27060675849807
 22
9.239993350654351
 32
0.0
 13
14.27060675849807
 23
9.239993350654351
 33
0.0
  0
SOLID
  5
12B1
330
8F5
100
AcDbEntity
  8
DIM
 62
     0
100
AcDbTrace
 10
11.18654029625357
 20
9.269993350654351
 30
0.0
 11
11.18654029625357
 21
9.209993350654352
 31
0.0
 12
11.00654029625357
 22
9.239993350654351
 32
0.0
 13
11.00654029625357
 23
9.239993350654351
 33
0.0
  0
MTEXT
  5
12B2
330
8F5
100
AcDbEntity
  8
DIM
 62
     0
100
AcDbMText
 10
12.63857352737582
 20
9.239993350654351
 30
0.0
 40
0.18
 41
0.0
 71
     5
 72
     1
  1
\A1;3.264
 73
     1
 44
1.0
  0
POINT
  5
12B3
330
8F5
100
AcDbEntity
  8
Defpoints
 62
     0
100
AcDbPoint
 10
14.27060675849807
 20
6.167603517116942
 30
0.0
  0
POINT
  5
12B4
330
8F5
100
AcDbEntity
  8
Defpoints
 62
     0
100
AcDbPoint
 10
11.00654029625357
 20
7.473252601971942
 30
0.0
  0
POINT
  5
12B5
330
8F5
100
AcDbEntity
  8
Defpoints
 62
     0
100
AcDbPoint
 10
11.00654029625357
 20
9.239993350654351
 30
0.0
  0
ENDBLK
  5
901
330
8F5
100
AcDbEntity
  8
0
100
AcDbBlockEnd
  0
BLOCK
  5
90E
330
903
100
AcDbEntity
  8
0
100
AcDbBlockBegin
  2
*D12
 70
     1
 10
0.0
 20
0.0
 30
0.0
  3
*D12
  1

  0
LINE
  5
122A
330
903
100
AcDbEntity
  8
DIM
 62
     0
370
    -2
100
AcDbLine
 10
15.14560675849807
 20
6.410673861971941
 30
0.0
 11
15.14560675849807
 21
9.795627136311274
 31
0.0
  0
LINE
  5
122B
330
903
100
AcDbEntity
  8
DIM
 62
     0
370
    -2
100
AcDbLine
 10
11.00654029625357
 20
7.535752601971942
 30
0.0
 11
11.00654029625357
 21
9.795627136311274
 31
0.0
  0
LINE
  5
122C
330
903
100
AcDbEntity
  8
DIM
 62
     0
370
    -2
100
AcDbLine
 10
14.96560675849807
 20
9.615627136311275
 30
0.0
 11
13.49607352737582
 21
9.615627136311275
 31
0.0
  0
LINE
  5
122D
330
903
100
AcDbEntity
  8
DIM
 62
     0
370
    -2
100
AcDbLine
 10
11.18654029625357
 20
9.615627136311275
 30
0.0
 11
12.65607352737582
 21
9.615627136311275
 31
0.0
  0
SOLID
  5
122E
330
903
100
AcDbEntity
  8
DIM
 62
     0
100
AcDbTrace
 10
14.96560675849807
 20
9.645627136311274
 30
0.0
 11
14.96560675849807
 21
9.585627136311275
 31
0.0
 12
15.14560675849807
 22
9.615627136311275
 32
0.0
 13
15.14560675849807
 23
9.615627136311275
 33
0.0
  0
SOLID
  5
122F
330
903
100
AcDbEntity
  8
DIM
 62
     0
100
AcDbTrace
 10
11.18654029625357
 20
9.645627136311274
 30
0.0
 11
11.18654029625357
 21
9.585627136311275
 31
0.0
 12
11.00654029625357
 22
9.615627136311275
 32
0.0
 13
11.00654029625357
 23
9.615627136311275
 33
0.0
  0
MTEXT
  5
1230
330
903
100
AcDbEntity
  8
DIM
 62
     0
100
AcDbMText
 10
13.07607352737582
 20
9.615627136311275
 30
0.0
 40
0.18
 41
0.0
 71
     5
 72
     1
  1
\A1;4.139
 73
     1
 44
1.0
  0
POINT
  5
1231
330
903
100
AcDbEntity
  8
Defpoints
 62
     0
100
AcDbPoint
 10
15.14560675849807
 20
6.348173861971941
 30
0.0
  0
POINT
  5
1232
330
903
100
AcDbEntity
  8
Defpoints
 62
     0
100
AcDbPoint
 10
11.00654029625357
 20
7.473252601971942
 30
0.0
  0
POINT
  5
1233
330
903
100
AcDbEntity
  8
Defpoints
 62
     0
100
AcDbPoint
 10
11.00654029625357
 20
9.615627136311275
 30
0.0
  0
ENDBLK
  5
90F
330
903
100
AcDbEntity
  8
0
100
AcDbBlockEnd
  0
BLOCK
  5
91C
330
911
100
AcDbEntity
  8
0
100
AcDbBlockBegin
  2
*D13
 70
     1
 10
0.0
 20
0.0
 30
0.0
  3
*D13
  1

  0
LINE
  5
1220
330
911
100
AcDbEntity
  8
DIM
 62
     0
370
    -2
100
AcDbLine
 10
16.02060675849807
 20
6.230103517116942
 30
0.0
 11
16.02060675849807
 21
10.18042269781999
 31
0.0
  0
LINE
  5
1221
330
911
100
AcDbEntity
  8
DIM
 62
     0
370
    -2
100
AcDbLine
 10
11.00654029625357
 20
7.535752601971942
 30
0.0
 11
11.00654029625357
 21
10.18042269781999
 31
0.0
  0
LINE
  5
1222
330
911
100
AcDbEntity
  8
DIM
 62
     0
370
    -2
100
AcDbLine
 10
15.84060675849807
 20
10.00042269781999
 30
0.0
 11
13.91857352737582
 21
10.00042269781999
 31
0.0
  0
LINE
  5
1223
330
911
100
AcDbEntity
  8
DIM
 62
     0
370
    -2
100
AcDbLine
 10
11.18654029625357
 20
10.00042269781999
 30
0.0
 11
13.10857352737582
 21
10.00042269781999
 31
0.0
  0
SOLID
  5
1224
330
911
100
AcDbEntity
  8
DIM
 62
     0
100
AcDbTrace
 10
15.84060675849807
 20
10.03042269781999
 30
0.0
 11
15.84060675849807
 21
9.97042269782
 31
0.0
 12
16.02060675849807
 22
10.00042269781999
 32
0.0
 13
16.02060675849807
 23
10.00042269781999
 33
0.0
  0
SOLID
  5
1225
330
911
100
AcDbEntity
  8
DIM
 62
     0
100
AcDbTrace
 10
11.18654029625357
 20
10.03042269781999
 30
0.0
 11
11.18654029625357
 21
9.97042269782
 31
0.0
 12
11.00654029625357
 22
10.00042269781999
 32
0.0
 13
11.00654029625357
 23
10.00042269781999
 33
0.0
  0
MTEXT
  5
1226
330
911
100
AcDbEntity
  8
DIM
 62
     0
100
AcDbMText
 10
13.51357352737582
 20
10.00042269781999
 30
0.0
 40
0.18
 41
0.0
 71
     5
 72
     1
  1
\A1;5.014
 73
     1
 44
1.0
  0
POINT
  5
1227
330
911
100
AcDbEntity
  8
Defpoints
 62
     0
100
AcDbPoint
 10
16.02060675849807
 20
6.167603517116942
 30
0.0
  0
POINT
  5
1228
330
911
100
AcDbEntity
  8
Defpoints
 62
     0
100
AcDbPoint
 10
11.00654029625357
 20
7.473252601971942
 30
0.0
  0
POINT
  5
1229
330
911
100
AcDbEntity
  8
Defpoints
 62
     0
100
AcDbPoint
 10
11.00654029625357
 20
10.00042269781999
 30
0.0
  0
ENDBLK
  5
91D
330
911
100
AcDbEntity
  8
0
100
AcDbBlockEnd
  0
BLOCK
  5
92A
330
91F
100
AcDbEntity
  8
0
100
AcDbBlockBegin
  2
*D14
 70
     1
 10
0.0
 20
0.0
 30
0.0
  3
*D14
  1

  0
LINE
  5
1216
330
91F
100
AcDbEntity
  8
DIM
 62
     0
370
    -2
100
AcDbLine
 10
16.14560675849807
 20
5.410673861971941
 30
0.0
 11
16.14560675849807
 21
10.53773293177333
 31
0.0
  0
LINE
  5
1217
330
91F
100
AcDbEntity
  8
DIM
 62
     0
370
    -2
100
AcDbLine
 10
11.00654029625357
 20
7.535752601971942
 30
0.0
 11
11.00654029625357
 21
10.53773293177333
 31
0.0
  0
LINE
  5
1218
330
91F
100
AcDbEntity
  8
DIM
 62
     0
370
    -2
100
AcDbLine
 10
15.96560675849807
 20
10.35773293177333
 30
0.0
 11
13.99607352737582
 21
10.35773293177333
 31
0.0
  0
LINE
  5
1219
330
91F
100
AcDbEntity
  8
DIM
 62
     0
370
    -2
100
AcDbLine
 10
11.18654029625357
 20
10.35773293177333
 30
0.0
 11
13.15607352737582
 21
10.35773293177333
 31
0.0
  0
SOLID
  5
121A
330
91F
100
AcDbEntity
  8
DIM
 62
     0
100
AcDbTrace
 10
15.96560675849807
 20
10.38773293177333
 30
0.0
 11
15.96560675849807
 21
10.32773293177333
 31
0.0
 12
16.14560675849807
 22
10.35773293177333
 32
0.0
 13
16.14560675849807
 23
10.35773293177333
 33
0.0
  0
SOLID
  5
121B
330
91F
100
AcDbEntity
  8
DIM
 62
     0
100
AcDbTrace
 10
11.18654029625357
 20
10.38773293177333
 30
0.0
 11
11.18654029625357
 21
10.32773293177333
 31
0.0
 12
11.00654029625357
 22
10.35773293177333
 32
0.0
 13
11.00654029625357
 23
10.35773293177333
 33
0.0
  0
MTEXT
  5
121C
330
91F
100
AcDbEntity
  8
DIM
 62
     0
100
AcDbMText
 10
13.57607352737582
 20
10.35773293177333
 30
0.0
 40
0.18
 41
0.0
 71
     5
 72
     1
  1
\A1;5.139
 73
     1
 44
1.0
  0
POINT
  5
121D
330
91F
100
AcDbEntity
  8
Defpoints
 62
     0
100
AcDbPoint
 10
16.14560675849807
 20
5.348173861971941
 30
0.0
  0
POINT
  5
121E
330
91F
100
AcDbEntity
  8
Defpoints
 62
     0
100
AcDbPoint
 10
11.00654029625357
 20
7.473252601971942
 30
0.0
  0
POINT
  5
121F
330
91F
100
AcDbEntity
  8
Defpoints
 62
     0
100
AcDbPoint
 10
11.00654029625357
 20
10.35773293177333
 30
0.0
  0
ENDBLK
  5
92B
330
91F
100
AcDbEntity
  8
0
100
AcDbBlockEnd
  0
BLOCK
  5
938
330
92D
100
AcDbEntity
  8
0
100
AcDbBlockBegin
  2
*D15
 70
     1
 10
0.0
 20
0.0
 30
0.0
  3
*D15
  1

  0
LINE
  5
120C
330
92D
100
AcDbEntity
  8
DIM
 62
     0
370
    -2
100
AcDbLine
 10
17.87055993849807
 20
5.410673861971941
 30
0.0
 11
17.87055993849807
 21
10.86755773546251
 31
0.0
  0
LINE
  5
120D
330
92D
100
AcDbEntity
  8
DIM
 62
     0
370
    -2
100
AcDbLine
 10
11.00654029625357
 20
7.535752601971942
 30
0.0
 11
11.00654029625357
 21
10.86755773546251
 31
0.0
  0
LINE
  5
120E
330
92D
100
AcDbEntity
  8
DIM
 62
     0
370
    -2
100
AcDbLine
 10
17.69055993849807
 20
10.68755773546251
 30
0.0
 11
14.88855011737582
 21
10.68755773546251
 31
0.0
  0
LINE
  5
120F
330
92D
100
AcDbEntity
  8
DIM
 62
     0
370
    -2
100
AcDbLine
 10
11.18654029625357
 20
10.68755773546251
 30
0.0
 11
13.98855011737582
 21
10.68755773546251
 31
0.0
  0
SOLID
  5
1210
330
92D
100
AcDbEntity
  8
DIM
 62
     0
100
AcDbTrace
 10
17.69055993849807
 20
10.71755773546251
 30
0.0
 11
17.69055993849807
 21
10.65755773546251
 31
0.0
 12
17.87055993849807
 22
10.68755773546251
 32
0.0
 13
17.87055993849807
 23
10.68755773546251
 33
0.0
  0
SOLID
  5
1211
330
92D
100
AcDbEntity
  8
DIM
 62
     0
100
AcDbTrace
 10
11.18654029625357
 20
10.71755773546251
 30
0.0
 11
11.18654029625357
 21
10.65755773546251
 31
0.0
 12
11.00654029625357
 22
10.68755773546251
 32
0.0
 13
11.00654029625357
 23
10.68755773546251
 33
0.0
  0
MTEXT
  5
1212
330
92D
100
AcDbEntity
  8
DIM
 62
     0
100
AcDbMText
 10
14.43855011737582
 20
10.68755773546251
 30
0.0
 40
0.18
 41
0.0
 71
     5
 72
     1
  1
\A1;6.864
 73
     1
 44
1.0
  0
POINT
  5
1213
330
92D
100
AcDbEntity
  8
Defpoints
 62
     0
100
AcDbPoint
 10
17.87055993849807
 20
5.348173861971941
 30
0.0
  0
POINT
  5
1214
330
92D
100
AcDbEntity
  8
Defpoints
 62
     0
100
AcDbPoint
 10
11.00654029625357
 20
7.473252601971942
 30
0.0
  0
POINT
  5
1215
330
92D
100
AcDbEntity
  8
Defpoints
 62
     0
100
AcDbPoint
 10
11.00654029625357
 20
10.68755773546251
 30
0.0
  0
ENDBLK
  5
939
330
92D
100
AcDbEntity
  8
0
100
AcDbBlockEnd
  0
BLOCK
  5
946
330
93B
100
AcDbEntity
  8
0
100
AcDbBlockBegin
  2
*D16
 70
     1
 10
0.0
 20
0.0
 30
0.0
  3
*D16
  1

  0
LINE
  5
1202
330
93B
100
AcDbEntity
  8
DIM
 62
     0
370
    -2
100
AcDbLine
 10
17.99555993849807
 20
6.230103517116942
 30
0.0
 11
17.99555993849807
 21
11.22549649569988
 31
0.0
  0
LINE
  5
1203
330
93B
100
AcDbEntity
  8
DIM
 62
     0
370
    -2
100
AcDbLine
 10
11.00654029625357
 20
7.535752601971942
 30
0.0
 11
11.00654029625357
 21
11.22549649569988
 31
0.0
  0
LINE
  5
1204
330
93B
100
AcDbEntity
  8
DIM
 62
     0
370
    -2
100
AcDbLine
 10
17.81555993849807
 20
11.04549649569988
 30
0.0
 11
14.95105011737582
 21
11.04549649569988
 31
0.0
  0
LINE
  5
1205
330
93B
100
AcDbEntity
  8
DIM
 62
     0
370
    -2
100
AcDbLine
 10
11.18654029625357
 20
11.04549649569988
 30
0.0
 11
14.05105011737582
 21
11.04549649569988
 31
0.0
  0
SOLID
  5
1206
330
93B
100
AcDbEntity
  8
DIM
 62
     0
100
AcDbTrace
 10
17.81555993849807
 20
11.07549649569987
 30
0.0
 11
17.81555993849807
 21
11.01549649569988
 31
0.0
 12
17.99555993849807
 22
11.04549649569988
 32
0.0
 13
17.99555993849807
 23
11.04549649569988
 33
0.0
  0
SOLID
  5
1207
330
93B
100
AcDbEntity
  8
DIM
 62
     0
100
AcDbTrace
 10
11.18654029625357
 20
11.07549649569987
 30
0.0
 11
11.18654029625357
 21
11.01549649569988
 31
0.0
 12
11.00654029625357
 22
11.04549649569988
 32
0.0
 13
11.00654029625357
 23
11.04549649569988
 33
0.0
  0
MTEXT
  5
1208
330
93B
100
AcDbEntity
  8
DIM
 62
     0
100
AcDbMText
 10
14.50105011737582
 20
11.04549649569988
 30
0.0
 40
0.18
 41
0.0
 71
     5
 72
     1
  1
\A1;6.989
 73
     1
 44
1.0
  0
POINT
  5
1209
330
93B
100
AcDbEntity
  8
Defpoints
 62
     0
100
AcDbPoint
 10
17.99555993849807
 20
6.167603517116942
 30
0.0
  0
POINT
  5
120A
330
93B
100
AcDbEntity
  8
Defpoints
 62
     0
100
AcDbPoint
 10
11.00654029625357
 20
7.473252601971942
 30
0.0
  0
POINT
  5
120B
330
93B
100
AcDbEntity
  8
Defpoints
 62
     0
100
AcDbPoint
 10
11.00654029625357
 20
11.04549649569988
 30
0.0
  0
ENDBLK
  5
947
330
93B
100
AcDbEntity
  8
0
100
AcDbBlockEnd
  0
BLOCK
  5
990
330
985
100
AcDbEntity
  8
0
100
AcDbBlockBegin
  2
*D17
 70
     1
 10
0.0
 20
0.0
 30
0.0
  3
*D17
  1

  0
LINE
  5
11F8
330
985
100
AcDbEntity
  8
DIM
 62
     0
370
    -2
100
AcDbLine
 10
18.87055993849807
 20
6.410673861971941
 30
0.0
 11
18.87055993849807
 21
11.55351845244672
 31
0.0
  0
LINE
  5
11F9
330
985
100
AcDbEntity
  8
DIM
 62
     0
370
    -2
100
AcDbLine
 10
11.00654029625357
 20
7.535752601971942
 30
0.0
 11
11.00654029625357
 21
11.55351845244672
 31
0.0
  0
LINE
  5
11FA
330
985
100
AcDbEntity
  8
DIM
 62
     0
370
    -2
100
AcDbLine
 10
18.69055993849807
 20
11.37351845244672
 30
0.0
 11
15.38855011737582
 21
11.37351845244672
 31
0.0
  0
LINE
  5
11FB
330
985
100
AcDbEntity
  8
DIM
 62
     0
370
    -2
100
AcDbLine
 10
11.18654029625357
 20
11.37351845244672
 30
0.0
 11
14.48855011737582
 21
11.37351845244672
 31
0.0
  0
SOLID
  5
11FC
330
985
100
AcDbEntity
  8
DIM
 62
     0
100
AcDbTrace
 10
18.69055993849807
 20
11.40351845244672
 30
0.0
 11
18.69055993849807
 21
11.34351845244672
 31
0.0
 12
18.87055993849807
 22
11.37351845244672
 32
0.0
 13
18.87055993849807
 23
11.37351845244672
 33
0.0
  0
SOLID
  5
11FD
330
985
100
AcDbEntity
  8
DIM
 62
     0
100
AcDbTrace
 10
11.18654029625357
 20
11.40351845244672
 30
0.0
 11
11.18654029625357
 21
11.34351845244672
 31
0.0
 12
11.00654029625357
 22
11.37351845244672
 32
0.0
 13
11.00654029625357
 23
11.37351845244672
 33
0.0
  0
MTEXT
  5
11FE
330
985
100
AcDbEntity
  8
DIM
 62
     0
100
AcDbMText
 10
14.93855011737582
 20
11.37351845244672
 30
0.0
 40
0.18
 41
0.0
 71
     5
 72
     1
  1
\A1;7.864
 73
     1
 44
1.0
  0
POINT
  5
11FF
330
985
100
AcDbEntity
  8
Defpoints
 62
     0
100
AcDbPoint
 10
18.87055993849807
 20
6.348173861971941
 30
0.0
  0
POINT
  5
1200
330
985
100
AcDbEntity
  8
Defpoints
 62
     0
100
AcDbPoint
 10
11.00654029625357
 20
7.473252601971942
 30
0.0
  0
POINT
  5
1201
330
985
100
AcDbEntity
  8
Defpoints
 62
     0
100
AcDbPoint
 10
11.00654029625357
 20
11.37351845244672
 30
0.0
  0
ENDBLK
  5
991
330
985
100
AcDbEntity
  8
0
100
AcDbBlockEnd
  0
BLOCK
  5
99E
330
993
100
AcDbEntity
  8
0
100
AcDbBlockBegin
  2
*D18
 70
     1
 10
0.0
 20
0.0
 30
0.0
  3
*D18
  1

  0
LINE
  5
11EE
330
993
100
AcDbEntity
  8
DIM
 62
     0
370
    -2
100
AcDbLine
 10
19.74555993849807
 20
6.230103517116942
 30
0.0
 11
19.74555993849807
 21
11.90447876839251
 31
0.0
  0
LINE
  5
11EF
330
993
100
AcDbEntity
  8
DIM
 62
     0
370
    -2
100
AcDbLine
 10
11.00654029625357
 20
7.535752601971942
 30
0.0
 11
11.00654029625357
 21
11.90447876839251
 31
0.0
  0
LINE
  5
11F0
330
993
100
AcDbEntity
  8
DIM
 62
     0
370
    -2
100
AcDbLine
 10
19.56555993849807
 20
11.72447876839251
 30
0.0
 11
15.82605011737582
 21
11.72447876839251
 31
0.0
  0
LINE
  5
11F1
330
993
100
AcDbEntity
  8
DIM
 62
     0
370
    -2
100
AcDbLine
 10
11.18654029625357
 20
11.72447876839251
 30
0.0
 11
14.92605011737582
 21
11.72447876839251
 31
0.0
  0
SOLID
  5
11F2
330
993
100
AcDbEntity
  8
DIM
 62
     0
100
AcDbTrace
 10
19.56555993849807
 20
11.75447876839251
 30
0.0
 11
19.56555993849807
 21
11.69447876839251
 31
0.0
 12
19.74555993849807
 22
11.72447876839251
 32
0.0
 13
19.74555993849807
 23
11.72447876839251
 33
0.0
  0
SOLID
  5
11F3
330
993
100
AcDbEntity
  8
DIM
 62
     0
100
AcDbTrace
 10
11.18654029625357
 20
11.75447876839251
 30
0.0
 11
11.18654029625357
 21
11.69447876839251
 31
0.0
 12
11.00654029625357
 22
11.72447876839251
 32
0.0
 13
11.00654029625357
 23
11.72447876839251
 33
0.0
  0
MTEXT
  5
11F4
330
993
100
AcDbEntity
  8
DIM
 62
     0
100
AcDbMText
 10
15.37605011737582
 20
11.72447876839251
 30
0.0
 40
0.18
 41
0.0
 71
     5
 72
     1
  1
\A1;8.739
 73
     1
 44
1.0
  0
POINT
  5
11F5
330
993
100
AcDbEntity
  8
Defpoints
 62
     0
100
AcDbPoint
 10
19.74555993849807
 20
6.167603517116942
 30
0.0
  0
POINT
  5
11F6
330
993
100
AcDbEntity
  8
Defpoints
 62
     0
100
AcDbPoint
 10
11.00654029625357
 20
7.473252601971942
 30
0.0
  0
POINT
  5
11F7
330
993
100
AcDbEntity
  8
Defpoints
 62
     0
100
AcDbPoint
 10
11.00654029625357
 20
11.72447876839251
 30
0.0
  0
ENDBLK
  5
99F
330
993
100
AcDbEntity
  8
0
100
AcDbBlockEnd
  0
BLOCK
  5
9AC
330
9A1
100
AcDbEntity
  8
0
100
AcDbBlockBegin
  2
*D19
 70
     1
 10
0.0
 20
0.0
 30
0.0
  3
*D19
  1

  0
LINE
  5
11E4
330
9A1
100
AcDbEntity
  8
DIM
 62
     0
370
    -2
100
AcDbLine
 10
19.87055993849807
 20
5.410673861971941
 30
0.0
 11
19.87055993849807
 21
12.24569012248017
 31
0.0
  0
LINE
  5
11E5
330
9A1
100
AcDbEntity
  8
DIM
 62
     0
370
    -2
100
AcDbLine
 10
11.00654029625357
 20
7.535752601971942
 30
0.0
 11
11.00654029625357
 21
12.24569012248017
 31
0.0
  0
LINE
  5
11E6
330
9A1
100
AcDbEntity
  8
DIM
 62
     0
370
    -2
100
AcDbLine
 10
19.69055993849807
 20
12.06569012248017
 30
0.0
 11
15.88855011737582
 21
12.06569012248017
 31
0.0
  0
LINE
  5
11E7
330
9A1
100
AcDbEntity
  8
DIM
 62
     0
370
    -2
100
AcDbLine
 10
11.18654029625357
 20
12.06569012248017
 30
0.0
 11
14.98855011737582
 21
12.06569012248017
 31
0.0
  0
SOLID
  5
11E8
330
9A1
100
AcDbEntity
  8
DIM
 62
     0
100
AcDbTrace
 10
19.69055993849807
 20
12.09569012248017
 30
0.0
 11
19.69055993849807
 21
12.03569012248017
 31
0.0
 12
19.87055993849807
 22
12.06569012248017
 32
0.0
 13
19.87055993849807
 23
12.06569012248017
 33
0.0
  0
SOLID
  5
11E9
330
9A1
100
AcDbEntity
  8
DIM
 62
     0
100
AcDbTrace
 10
11.18654029625357
 20
12.09569012248017
 30
0.0
 11
11.18654029625357
 21
12.03569012248017
 31
0.0
 12
11.00654029625357
 22
12.06569012248017
 32
0.0
 13
11.00654029625357
 23
12.06569012248017
 33
0.0
  0
MTEXT
  5
11EA
330
9A1
100
AcDbEntity
  8
DIM
 62
     0
100
AcDbMText
 10
15.43855011737582
 20
12.06569012248017
 30
0.0
 40
0.18
 41
0.0
 71
     5
 72
     1
  1
\A1;8.864
 73
     1
 44
1.0
  0
POINT
  5
11EB
330
9A1
100
AcDbEntity
  8
Defpoints
 62
     0
100
AcDbPoint
 10
19.87055993849807
 20
5.348173861971941
 30
0.0
  0
POINT
  5
11EC
330
9A1
100
AcDbEntity
  8
Defpoints
 62
     0
100
AcDbPoint
 10
11.00654029625357
 20
7.473252601971942
 30
0.0
  0
POINT
  5
11ED
330
9A1
100
AcDbEntity
  8
Defpoints
 62
     0
100
AcDbPoint
 10
11.00654029625357
 20
12.06569012248017
 30
0.0
  0
ENDBLK
  5
9AD
330
9A1
100
AcDbEntity
  8
0
100
AcDbBlockEnd
  0
BLOCK
  5
9F0
330
9E4
100
AcDbEntity
  8
0
100
AcDbBlockBegin
  2
*D20
 70
     1
 10
0.0
 20
0.0
 30
0.0
  3
*D20
  1

  0
LINE
  5
12A1
330
9E4
100
AcDbEntity
  8
DIM
 62
     0
370
    -2
100
AcDbLine
 10
11.53810580869974
 20
7.204547601971931
 30
0.0
 11
8.765061065508664
 21
7.204547601971932
 31
0.0
  0
LINE
  5
12A2
330
9E4
100
AcDbEntity
  8
DIM
 62
     0
370
    -2
100
AcDbLine
 10
10.94404029625357
 20
7.473252601971942
 30
0.0
 11
8.765061065508664
 21
7.473252601971943
 31
0.0
  0
LINE
  5
12A3
330
9E4
100
AcDbEntity
  8
DIM
 62
     0
370
    -2
100
AcDbLine
 10
8.945061065508664
 20
7.024547601971932
 30
0.0
 11
8.945061065508664
 21
6.844547601971932
 31
0.0
  0
LINE
  5
12A4
330
9E4
100
AcDbEntity
  8
DIM
 62
     0
370
    -2
100
AcDbLine
 10
8.945061065508664
 20
7.653252601971943
 30
0.0
 11
8.945061065508664
 21
7.833252601971944
 31
0.0
  0
LINE
  5
12A5
330
9E4
100
AcDbEntity
  8
DIM
 62
     0
370
    -2
100
AcDbLine
 10
8.945061065508664
 20
7.833252601971944
 30
0.0
 11
9.125061065508663
 21
7.833252601971944
 31
0.0
  0
SOLID
  5
12A6
330
9E4
100
AcDbEntity
  8
DIM
 62
     0
100
AcDbTrace
 10
8.915061065508664
 20
7.024547601971932
 30
0.0
 11
8.975061065508663
 21
7.024547601971932
 31
0.0
 12
8.945061065508664
 22
7.204547601971932
 32
0.0
 13
8.945061065508664
 23
7.204547601971932
 33
0.0
  0
SOLID
  5
12A7
330
9E4
100
AcDbEntity
  8
DIM
 62
     0
100
AcDbTrace
 10
8.915061065508664
 20
7.653252601971943
 30
0.0
 11
8.975061065508663
 21
7.653252601971943
 31
0.0
 12
8.945061065508664
 22
7.473252601971943
 32
0.0
 13
8.945061065508664
 23
7.473252601971943
 33
0.0
  0
MTEXT
  5
12A8
330
9E4
100
AcDbEntity
  8
DIM
 62
     0
100
AcDbMText
 10
9.560061065508662
 20
7.833252601971945
 30
0.0
 40
0.18
 41
0.0
 71
     5
 72
     1
  1
\A1;0.269
 73
     1
 44
1.0
  0
POINT
  5
12A9
330
9E4
100
AcDbEntity
  8
Defpoints
 62
     0
100
AcDbPoint
 10
11.60060580869974
 20
7.204547601971931
 30
0.0
  0
POINT
  5
12AA
330
9E4
100
AcDbEntity
  8
Defpoints
 62
     0
100
AcDbPoint
 10
11.00654029625357
 20
7.473252601971942
 30
0.0
  0
POINT
  5
12AB
330
9E4
100
AcDbEntity
  8
Defpoints
 62
     0
100
AcDbPoint
 10
8.945061065508664
 20
7.473252601971943
 30
0.0
  0
ENDBLK
  5
9F1
330
9E4
100
AcDbEntity
  8
0
100
AcDbBlockEnd
  0
BLOCK
  5
9FE
330
9F3
100
AcDbEntity
  8
0
100
AcDbBlockBegin
  2
*D21
 70
     1
 10
0.0
 20
0.0
 30
0.0
  3
*D21
  1

  0
LINE
  5
1297
330
9F3
100
AcDbEntity
  8
DIM
 62
     0
370
    -2
100
AcDbLine
 10
14.83310675849807
 20
6.098173861971941
 30
0.0
 11
6.981685167259946
 21
6.098173861971944
 31
0.0
  0
LINE
  5
1298
330
9F3
100
AcDbEntity
  8
DIM
 62
     0
370
    -2
100
AcDbLine
 10
10.94404029625357
 20
7.473252601971942
 30
0.0
 11
6.981685167259946
 21
7.473252601971943
 31
0.0
  0
LINE
  5
1299
330
9F3
100
AcDbEntity
  8
DIM
 62
     0
370
    -2
100
AcDbLine
 10
7.161685167259946
 20
6.278173861971944
 30
0.0
 11
7.161685167259946
 21
6.605713231971944
 31
0.0
  0
LINE
  5
129A
330
9F3
100
AcDbEntity
  8
DIM
 62
     0
370
    -2
100
AcDbLine
 10
7.161685167259946
 20
7.293252601971944
 30
0.0
 11
7.161685167259946
 21
6.965713231971943
 31
0.0
  0
SOLID
  5
129B
330
9F3
100
AcDbEntity
  8
DIM
 62
     0
100
AcDbTrace
 10
7.131685167259946
 20
6.278173861971944
 30
0.0
 11
7.191685167259946
 21
6.278173861971944
 31
0.0
 12
7.161685167259946
 22
6.098173861971944
 32
0.0
 13
7.161685167259946
 23
6.098173861971944
 33
0.0
  0
SOLID
  5
129C
330
9F3
100
AcDbEntity
  8
DIM
 62
     0
100
AcDbTrace
 10
7.131685167259946
 20
7.293252601971944
 30
0.0
 11
7.191685167259946
 21
7.293252601971944
 31
0.0
 12
7.161685167259946
 22
7.473252601971943
 32
0.0
 13
7.161685167259946
 23
7.473252601971943
 33
0.0
  0
MTEXT
  5
129D
330
9F3
100
AcDbEntity
  8
DIM
 62
     0
100
AcDbMText
 10
7.161685167259944
 20
6.785713231971945
 30
0.0
 40
0.18
 41
0.0
 71
     5
 72
     1
  1
\A1;1.375
 73
     1
 44
1.0
  0
POINT
  5
129E
330
9F3
100
AcDbEntity
  8
Defpoints
 62
     0
100
AcDbPoint
 10
14.89560675849807
 20
6.098173861971941
 30
0.0
  0
POINT
  5
129F
330
9F3
100
AcDbEntity
  8
Defpoints
 62
     0
100
AcDbPoint
 10
11.00654029625357
 20
7.473252601971942
 30
0.0
  0
POINT
  5
12A0
330
9F3
100
AcDbEntity
  8
Defpoints
 62
     0
100
AcDbPoint
 10
7.161685167259946
 20
7.473252601971943
 30
0.0
  0
ENDBLK
  5
9FF
330
9F3
100
AcDbEntity
  8
0
100
AcDbBlockEnd
  0
BLOCK
  5
A0C
330
A01
100
AcDbEntity
  8
0
100
AcDbBlockBegin
  2
*D22
 70
     1
 10
0.0
 20
0.0
 30
0.0
  3
*D22
  1

  0
LINE
  5
1270
330
A01
100
AcDbEntity
  8
DIM
 62
     0
370
    -2
100
AcDbLine
 10
14.02442369903432
 20
5.973173861971941
 30
0.0
 11
6.145025882719444
 21
5.973173861971944
 31
0.0
  0
LINE
  5
1271
330
A01
100
AcDbEntity
  8
DIM
 62
     0
370
    -2
100
AcDbLine
 10
10.94404029625357
 20
7.473252601971942
 30
0.0
 11
6.145025882719445
 21
7.473252601971943
 31
0.0
  0
LINE
  5
1272
330
A01
100
AcDbEntity
  8
DIM
 62
     0
370
    -2
100
AcDbLine
 10
6.325025882719445
 20
6.153173861971944
 30
0.0
 11
6.325025882719445
 21
6.543213231971944
 31
0.0
  0
LINE
  5
1273
330
A01
100
AcDbEntity
  8
DIM
 62
     0
370
    -2
100
AcDbLine
 10
6.325025882719445
 20
7.293252601971944
 30
0.0
 11
6.325025882719445
 21
6.903213231971943
 31
0.0
  0
SOLID
  5
1274
330
A01
100
AcDbEntity
  8
DIM
 62
     0
100
AcDbTrace
 10
6.295025882719444
 20
6.153173861971944
 30
0.0
 11
6.355025882719445
 21
6.153173861971944
 31
0.0
 12
6.325025882719444
 22
5.973173861971944
 32
0.0
 13
6.325025882719444
 23
5.973173861971944
 33
0.0
  0
SOLID
  5
1275
330
A01
100
AcDbEntity
  8
DIM
 62
     0
100
AcDbTrace
 10
6.295025882719444
 20
7.293252601971944
 30
0.0
 11
6.355025882719445
 21
7.293252601971944
 31
0.0
 12
6.325025882719445
 22
7.473252601971943
 32
0.0
 13
6.325025882719445
 23
7.473252601971943
 33
0.0
  0
MTEXT
  5
1276
330
A01
100
AcDbEntity
  8
DIM
 62
     0
100
AcDbMText
 10
6.325025882719443
 20
6.723213231971945
 30
0.0
 40
0.18
 41
0.0
 71
     5
 72
     1
  1
\A1;1.500
 73
     1
 44
1.0
  0
POINT
  5
1277
330
A01
100
AcDbEntity
  8
Defpoints
 62
     0
100
AcDbPoint
 10
14.08692369903433
 20
5.973173861971941
 30
0.0
  0
POINT
  5
1278
330
A01
100
AcDbEntity
  8
Defpoints
 62
     0
100
AcDbPoint
 10
11.00654029625357
 20
7.473252601971942
 30
0.0
  0
POINT
  5
1279
330
A01
100
AcDbEntity
  8
Defpoints
 62
     0
100
AcDbPoint
 10
6.325025882719445
 20
7.473252601971943
 30
0.0
  0
ENDBLK
  5
A0D
330
A01
100
AcDbEntity
  8
0
100
AcDbBlockEnd
  0
BLOCK
  5
A28
330
A1D
100
AcDbEntity
  8
0
100
AcDbBlockBegin
  2
*D23
 70
     1
 10
0.0
 20
0.0
 30
0.0
  3
*D23
  1

  0
LINE
  5
1266
330
A1D
100
AcDbEntity
  8
DIM
 62
     0
370
    -2
100
AcDbLine
 10
13.83310675849807
 20
5.098173861971941
 30
0.0
 11
5.526653209458351
 21
5.098173861971944
 31
0.0
  0
LINE
  5
1267
330
A1D
100
AcDbEntity
  8
DIM
 62
     0
370
    -2
100
AcDbLine
 10
10.94404029625357
 20
7.473252601971942
 30
0.0
 11
5.526653209458352
 21
7.473252601971944
 31
0.0
  0
LINE
  5
1268
330
A1D
100
AcDbEntity
  8
DIM
 62
     0
370
    -2
100
AcDbLine
 10
5.706653209458351
 20
5.278173861971944
 30
0.0
 11
5.706653209458352
 21
6.105713231971944
 31
0.0
  0
LINE
  5
1269
330
A1D
100
AcDbEntity
  8
DIM
 62
     0
370
    -2
100
AcDbLine
 10
5.706653209458352
 20
7.293252601971945
 30
0.0
 11
5.706653209458352
 21
6.465713231971943
 31
0.0
  0
SOLID
  5
126A
330
A1D
100
AcDbEntity
  8
DIM
 62
     0
100
AcDbTrace
 10
5.676653209458351
 20
5.278173861971944
 30
0.0
 11
5.736653209458351
 21
5.278173861971944
 31
0.0
 12
5.706653209458351
 22
5.098173861971944
 32
0.0
 13
5.706653209458351
 23
5.098173861971944
 33
0.0
  0
SOLID
  5
126B
330
A1D
100
AcDbEntity
  8
DIM
 62
     0
100
AcDbTrace
 10
5.676653209458351
 20
7.293252601971945
 30
0.0
 11
5.736653209458352
 21
7.293252601971945
 31
0.0
 12
5.706653209458352
 22
7.473252601971944
 32
0.0
 13
5.706653209458352
 23
7.473252601971944
 33
0.0
  0
MTEXT
  5
126C
330
A1D
100
AcDbEntity
  8
DIM
 62
     0
100
AcDbMText
 10
5.70665320945835
 20
6.285713231971945
 30
0.0
 40
0.18
 41
0.0
 71
     5
 72
     1
  1
\A1;2.375
 73
     1
 44
1.0
  0
POINT
  5
126D
330
A1D
100
AcDbEntity
  8
Defpoints
 62
     0
100
AcDbPoint
 10
13.89560675849807
 20
5.098173861971941
 30
0.0
  0
POINT
  5
126E
330
A1D
100
AcDbEntity
  8
Defpoints
 62
     0
100
AcDbPoint
 10
11.00654029625357
 20
7.473252601971942
 30
0.0
  0
POINT
  5
126F
330
A1D
100
AcDbEntity
  8
Defpoints
 62
     0
100
AcDbPoint
 10
5.706653209458352
 20
7.473252601971944
 30
0.0
  0
ENDBLK
  5
A29
330
A1D
100
AcDbEntity
  8
0
100
AcDbBlockEnd
  0
BLOCK
  5
A36
330
A2B
100
AcDbEntity
  8
0
100
AcDbBlockBegin
  2
*D24
 70
     1
 10
0.0
 20
0.0
 30
0.0
  3
*D24
  1

  0
LINE
  5
13E0
330
A2B
100
AcDbEntity
  8
DIM
 62
     0
370
    -2
100
AcDbLine
 10
14.02442369903432
 20
4.223173861971941
 30
0.0
 11
4.046108290688983
 21
4.223173861971945
 31
0.0
  0
LINE
  5
13E1
330
A2B
100
AcDbEntity
  8
DIM
 62
     0
370
    -2
100
AcDbLine
 10
10.94404029625357
 20
7.473252601971942
 30
0.0
 11
4.046108290688984
 21
7.473252601971944
 31
0.0
  0
LINE
  5
13E2
330
A2B
100
AcDbEntity
  8
DIM
 62
     0
370
    -2
100
AcDbLine
 10
4.226108290688983
 20
4.403173861971945
 30
0.0
 11
4.226108290688983
 21
5.668213231971945
 31
0.0
  0
LINE
  5
13E3
330
A2B
100
AcDbEntity
  8
DIM
 62
     0
370
    -2
100
AcDbLine
 10
4.226108290688983
 20
7.293252601971945
 30
0.0
 11
4.226108290688983
 21
6.028213231971944
 31
0.0
  0
SOLID
  5
13E4
330
A2B
100
AcDbEntity
  8
DIM
 62
     0
100
AcDbTrace
 10
4.196108290688982
 20
4.403173861971945
 30
0.0
 11
4.256108290688983
 21
4.403173861971945
 31
0.0
 12
4.226108290688983
 22
4.223173861971945
 32
0.0
 13
4.226108290688983
 23
4.223173861971945
 33
0.0
  0
SOLID
  5
13E5
330
A2B
100
AcDbEntity
  8
DIM
 62
     0
100
AcDbTrace
 10
4.196108290688983
 20
7.293252601971945
 30
0.0
 11
4.256108290688984
 21
7.293252601971945
 31
0.0
 12
4.226108290688983
 22
7.473252601971944
 32
0.0
 13
4.226108290688983
 23
7.473252601971944
 33
0.0
  0
MTEXT
  5
13E6
330
A2B
100
AcDbEntity
  8
DIM
 62
     0
100
AcDbMText
 10
4.226108290688982
 20
5.848213231971945
 30
0.0
 40
0.18
 41
0.0
 71
     5
 72
     1
  1
\A1;3.250
 73
     1
 44
1.0
  0
POINT
  5
13E7
330
A2B
100
AcDbEntity
  8
Defpoints
 62
     0
100
AcDbPoint
 10
14.08692369903433
 20
4.223173861971941
 30
0.0
  0
POINT
  5
13E8
330
A2B
100
AcDbEntity
  8
Defpoints
 62
     0
100
AcDbPoint
 10
11.00654029625357
 20
7.473252601971942
 30
0.0
  0
POINT
  5
13E9
330
A2B
100
AcDbEntity
  8
Defpoints
 62
     0
100
AcDbPoint
 10
4.226108290688983
 20
7.473252601971944
 30
0.0
  0
ENDBLK
  5
A37
330
A2B
100
AcDbEntity
  8
0
100
AcDbBlockEnd
  0
BLOCK
  5
A44
330
A39
100
AcDbEntity
  8
0
100
AcDbBlockBegin
  2
*D25
 70
     1
 10
0.0
 20
0.0
 30
0.0
  3
*D25
  1

  0
LINE
  5
13D6
330
A39
100
AcDbEntity
  8
DIM
 62
     0
370
    -2
100
AcDbLine
 10
14.83310675849807
 20
4.098173861971941
 30
0.0
 11
3.231180443305581
 21
4.098173861971945
 31
0.0
  0
LINE
  5
13D7
330
A39
100
AcDbEntity
  8
DIM
 62
     0
370
    -2
100
AcDbLine
 10
10.94404029625357
 20
7.473252601971942
 30
0.0
 11
3.231180443305582
 21
7.473252601971945
 31
0.0
  0
LINE
  5
13D8
330
A39
100
AcDbEntity
  8
DIM
 62
     0
370
    -2
100
AcDbLine
 10
3.411180443305581
 20
4.278173861971945
 30
0.0
 11
3.411180443305581
 21
5.605713231971946
 31
0.0
  0
LINE
  5
13D9
330
A39
100
AcDbEntity
  8
DIM
 62
     0
370
    -2
100
AcDbLine
 10
3.411180443305582
 20
7.293252601971945
 30
0.0
 11
3.411180443305581
 21
5.965713231971945
 31
0.0
  0
SOLID
  5
13DA
330
A39
100
AcDbEntity
  8
DIM
 62
     0
100
AcDbTrace
 10
3.381180443305581
 20
4.278173861971945
 30
0.0
 11
3.441180443305581
 21
4.278173861971945
 31
0.0
 12
3.411180443305581
 22
4.098173861971945
 32
0.0
 13
3.411180443305581
 23
4.098173861971945
 33
0.0
  0
SOLID
  5
13DB
330
A39
100
AcDbEntity
  8
DIM
 62
     0
100
AcDbTrace
 10
3.381180443305582
 20
7.293252601971945
 30
0.0
 11
3.441180443305582
 21
7.293252601971945
 31
0.0
 12
3.411180443305582
 22
7.473252601971945
 32
0.0
 13
3.411180443305582
 23
7.473252601971945
 33
0.0
  0
MTEXT
  5
13DC
330
A39
100
AcDbEntity
  8
DIM
 62
     0
100
AcDbMText
 10
3.411180443305581
 20
5.785713231971946
 30
0.0
 40
0.18
 41
0.0
 71
     5
 72
     1
  1
\A1;3.375
 73
     1
 44
1.0
  0
POINT
  5
13DD
330
A39
100
AcDbEntity
  8
Defpoints
 62
     0
100
AcDbPoint
 10
14.89560675849807
 20
4.098173861971941
 30
0.0
  0
POINT
  5
13DE
330
A39
100
AcDbEntity
  8
Defpoints
 62
     0
100
AcDbPoint
 10
11.00654029625357
 20
7.473252601971942
 30
0.0
  0
POINT
  5
13DF
330
A39
100
AcDbEntity
  8
Defpoints
 62
     0
100
AcDbPoint
 10
3.411180443305582
 20
7.473252601971945
 30
0.0
  0
ENDBLK
  5
A45
330
A39
100
AcDbEntity
  8
0
100
AcDbBlockEnd
  0
BLOCK
  5
A52
330
A47
100
AcDbEntity
  8
0
100
AcDbBlockBegin
  2
*D26
 70
     1
 10
0.0
 20
0.0
 30
0.0
  3
*D26
  1

  0
LINE
  5
13CC
330
A47
100
AcDbEntity
  8
DIM
 62
     0
370
    -2
100
AcDbLine
 10
11.53810580869974
 20
2.991957601971943
 30
0.0
 11
1.690465978415675
 21
2.991957601971946
 31
0.0
  0
LINE
  5
13CD
330
A47
100
AcDbEntity
  8
DIM
 62
     0
370
    -2
100
AcDbLine
 10
10.94404029625357
 20
7.473252601971942
 30
0.0
 11
1.690465978415676
 21
7.473252601971946
 31
0.0
  0
LINE
  5
13CE
330
A47
100
AcDbEntity
  8
DIM
 62
     0
370
    -2
100
AcDbLine
 10
1.870465978415675
 20
3.171957601971946
 30
0.0
 11
1.870465978415675
 21
5.052605101971947
 31
0.0
  0
LINE
  5
13CF
330
A47
100
AcDbEntity
  8
DIM
 62
     0
370
    -2
100
AcDbLine
 10
1.870465978415676
 20
7.293252601971946
 30
0.0
 11
1.870465978415675
 21
5.412605101971946
 31
0.0
  0
SOLID
  5
13D0
330
A47
100
AcDbEntity
  8
DIM
 62
     0
100
AcDbTrace
 10
1.840465978415675
 20
3.171957601971946
 30
0.0
 11
1.900465978415675
 21
3.171957601971946
 31
0.0
 12
1.870465978415675
 22
2.991957601971946
 32
0.0
 13
1.870465978415675
 23
2.991957601971946
 33
0.0
  0
SOLID
  5
13D1
330
A47
100
AcDbEntity
  8
DIM
 62
     0
100
AcDbTrace
 10
1.840465978415676
 20
7.293252601971946
 30
0.0
 11
1.900465978415676
 21
7.293252601971946
 31
0.0
 12
1.870465978415676
 22
7.473252601971946
 32
0.0
 13
1.870465978415676
 23
7.473252601971946
 33
0.0
  0
MTEXT
  5
13D2
330
A47
100
AcDbEntity
  8
DIM
 62
     0
100
AcDbMText
 10
1.870465978415674
 20
5.232605101971946
 30
0.0
 40
0.18
 41
0.0
 71
     5
 72
     1
  1
\A1;4.481
 73
     1
 44
1.0
  0
POINT
  5
13D3
330
A47
100
AcDbEntity
  8
Defpoints
 62
     0
100
AcDbPoint
 10
11.60060580869974
 20
2.991957601971943
 30
0.0
  0
POINT
  5
13D4
330
A47
100
AcDbEntity
  8
Defpoints
 62
     0
100
AcDbPoint
 10
11.00654029625357
 20
7.473252601971942
 30
0.0
  0
POINT
  5
13D5
330
A47
100
AcDbEntity
  8
Defpoints
 62
     0
100
AcDbPoint
 10
1.870465978415676
 20
7.473252601971946
 30
0.0
  0
ENDBLK
  5
A53
330
A47
100
AcDbEntity
  8
0
100
AcDbBlockEnd
  0
BLOCK
  5
A60
330
A55
100
AcDbEntity
  8
0
100
AcDbBlockBegin
  2
*D27
 70
     1
 10
0.0
 20
0.0
 30
0.0
  3
*D27
  1

  0
LINE
  5
13C2
330
A55
100
AcDbEntity
  8
DIM
 62
     0
370
    -2
100
AcDbLine
 10
10.94404029625357
 20
2.723252601971943
 30
0.0
 11
0.8723501590334509
 21
2.723252601971946
 31
0.0
  0
LINE
  5
13C3
330
A55
100
AcDbEntity
  8
DIM
 62
     0
370
    -2
100
AcDbLine
 10
10.94404029625357
 20
7.473252601971942
 30
0.0
 11
0.8723501590334519
 21
7.473252601971946
 31
0.0
  0
LINE
  5
13C4
330
A55
100
AcDbEntity
  8
DIM
 62
     0
370
    -2
100
AcDbLine
 10
1.05235015903345
 20
2.903252601971945
 30
0.0
 11
1.052350159033451
 21
4.918252601971946
 31
0.0
  0
LINE
  5
13C5
330
A55
100
AcDbEntity
  8
DIM
 62
     0
370
    -2
100
AcDbLine
 10
1.052350159033451
 20
7.293252601971946
 30
0.0
 11
1.052350159033451
 21
5.278252601971946
 31
0.0
  0
SOLID
  5
13C6
330
A55
100
AcDbEntity
  8
DIM
 62
     0
100
AcDbTrace
 10
1.02235015903345
 20
2.903252601971945
 30
0.0
 11
1.082350159033451
 21
2.903252601971945
 31
0.0
 12
1.05235015903345
 22
2.723252601971945
 32
0.0
 13
1.05235015903345
 23
2.723252601971945
 33
0.0
  0
SOLID
  5
13C7
330
A55
100
AcDbEntity
  8
DIM
 62
     0
100
AcDbTrace
 10
1.022350159033451
 20
7.293252601971946
 30
0.0
 11
1.082350159033451
 21
7.293252601971946
 31
0.0
 12
1.052350159033451
 22
7.473252601971946
 32
0.0
 13
1.052350159033451
 23
7.473252601971946
 33
0.0
  0
MTEXT
  5
13C8
330
A55
100
AcDbEntity
  8
DIM
 62
     0
100
AcDbMText
 10
1.05235015903345
 20
5.098252601971946
 30
0.0
 40
0.18
 41
0.0
 71
     5
 72
     1
  1
\A1;4.750
 73
     1
 44
1.0
  0
POINT
  5
13C9
330
A55
100
AcDbEntity
  8
Defpoints
 62
     0
100
AcDbPoint
 10
11.00654029625357
 20
2.723252601971942
 30
0.0
  0
POINT
  5
13CA
330
A55
100
AcDbEntity
  8
Defpoints
 62
     0
100
AcDbPoint
 10
11.00654029625357
 20
7.473252601971942
 30
0.0
  0
POINT
  5
13CB
330
A55
100
AcDbEntity
  8
Defpoints
 62
     0
100
AcDbPoint
 10
1.052350159033451
 20
7.473252601971946
 30
0.0
  0
ENDBLK
  5
A61
330
A55
100
AcDbEntity
  8
0
100
AcDbBlockEnd
  0
BLOCK
  5
C44
330
C3B
100
AcDbEntity
  8
0
100
AcDbBlockBegin
  2
*D28
 70
     1
 10
0.0
 20
0.0
 30
0.0
  3
*D28
  1

  0
LINE
  5
130E
330
C3B
100
AcDbEntity
  8
DIM
 62
     0
370
    -2
100
AcDbLine
 10
20.03122459916791
 20
5.428693327074747
 30
0.0
 11
21.46447362910568
 21
8.377174348097778
 31
0.0
  0
LINE
  5
130F
330
C3B
100
AcDbEntity
  8
DIM
 62
     0
370
    -2
100
AcDbLine
 10
21.46447362910568
 20
8.377174348097778
 30
0.0
 11
21.64447362910569
 21
8.377174348097778
 31
0.0
  0
SOLID
  5
1310
330
C3B
100
AcDbEntity
  8
DIM
 62
     0
100
AcDbTrace
 10
20.0042434183432
 20
5.441808809578407
 30
0.0
 11
20.05820577999263
 21
5.415577844571086
 31
0.0
 12
19.95253170414595
 22
5.266806242126435
 32
0.0
 13
19.95253170414595
 23
5.266806242126435
 33
0.0
  0
MTEXT
  5
1311
330
C3B
100
AcDbEntity
  8
DIM
 62
     0
100
AcDbMText
 10
23.32447362910568
 20
8.377174348097778
 30
0.0
 40
0.18
 41
0.0
 71
     5
 72
     1
  1
\A1;C'BORE FOR #10 SHCS\P8X
 73
     1
 44
1.0
  0
LINE
  5
1312
330
C3B
100
AcDbEntity
  8
DIM
 62
     0
370
    -2
100
AcDbLine
 10
19.78055993849807
 20
5.098173861971946
 30
0.0
 11
19.96055993849807
 21
5.098173861971947
 31
0.0
  0
LINE
  5
1313
330
C3B
100
AcDbEntity
  8
DIM
 62
     0
370
    -2
100
AcDbLine
 10
19.87055993849806
 20
5.008173861971948
 30
0.0
 11
19.87055993849807
 21
5.188173861971947
 31
0.0
  0
POINT
  5
1314
330
C3B
100
AcDbEntity
  8
Defpoints
 62
     0
100
AcDbPoint
 10
19.95253170414595
 20
5.266806242126435
 30
0.0
  0
POINT
  5
1315
330
C3B
100
AcDbEntity
  8
Defpoints
 62
     0
100
AcDbPoint
 10
19.78858817285019
 20
4.929541481817458
 30
0.0
  0
ENDBLK
  5
C45
330
C3B
100
AcDbEntity
  8
0
100
AcDbBlockEnd
  0
BLOCK
  5
C96
330
C91
100
AcDbEntity
  8
0
100
AcDbBlockBegin
  2
C-BORE-#6
 70
     0
 10
0.0
 20
0.0
 30
0.0
  3
C-BORE-#6
  1

  0
LINE
  5
C92
330
C91
100
AcDbEntity
  8
CENTER
100
AcDbLine
 10
0.0
 20
-0.1988463639077764
 30
0.0
 11
0.0
 21
0.1910488070998077
 31
0.0
  0
CIRCLE
  5
C93
330
C91
100
AcDbEntity
  8
0
100
AcDbCircle
 10
0.0
 20
0.0
 30
0.0
 40
0.085
  0
CIRCLE
  5
C94
330
C91
100
AcDbEntity
  8
0
100
AcDbCircle
 10
0.0
 20
0.0
 30
0.0
 40
0.14065
  0
LINE
  5
C95
330
C91
100
AcDbEntity
  8
CENTER
100
AcDbLine
 10
-0.2055373679844124
 20
0.0
 30
0.0
 11
0.1955703475548418
 21
0.0
 31
0.0
  0
ENDBLK
  5
C97
330
C91
100
AcDbEntity
  8
0
100
AcDbBlockEnd
  0
BLOCK
  5
CAE
330
CA5
100
AcDbEntity
  8
0
100
AcDbBlockBegin
  2
*D30
 70
     1
 10
0.0
 20
0.0
 30
0.0
  3
*D30
  1

  0
LINE
  5
127A
330
CA5
100
AcDbEntity
  8
DIM
 62
     0
370
    -2
100
AcDbLine
 10
11.87921274577685
 20
2.706838722817822
 30
0.0
 11
12.43589379260235
 21
1.624970219087023
 31
0.0
  0
LINE
  5
127B
330
CA5
100
AcDbEntity
  8
DIM
 62
     0
370
    -2
100
AcDbLine
 10
12.43589379260235
 20
1.624970219087023
 30
0.0
 11
12.61589379260235
 21
1.624970219087023
 31
0.0
  0
SOLID
  5
127C
330
CA5
100
AcDbEntity
  8
DIM
 62
     0
100
AcDbTrace
 10
11.90588845566185
 20
2.720564847621699
 30
0.0
 11
11.85253703589186
 21
2.693112598013946
 31
0.0
 12
11.79685599695359
 22
2.86689298212779
 32
0.0
 13
11.79685599695359
 23
2.86689298212779
 33
0.0
  0
MTEXT
  5
127D
330
CA5
100
AcDbEntity
  8
DIM
 62
     0
100
AcDbMText
 10
14.29589379260235
 20
1.624970219087018
 30
0.0
 40
0.18
 41
0.0
 71
     5
 72
     1
  1
\A1;C-BORE FOR #6 SHCS\P2X
 73
     1
 44
1.0
  0
LINE
  5
127E
330
CA5
100
AcDbEntity
  8
DIM
 62
     0
370
    -2
100
AcDbLine
 10
11.64250334849809
 20
2.99195760197194
 30
0.0
 11
11.82250334849809
 21
2.99195760197194
 31
0.0
  0
LINE
  5
127F
330
CA5
100
AcDbEntity
  8
DIM
 62
     0
370
    -2
100
AcDbLine
 10
11.73250334849809
 20
2.90195760197194
 30
0.0
 11
11.73250334849809
 21
3.08195760197194
 31
0.0
  0
POINT
  5
1280
330
CA5
100
AcDbEntity
  8
Defpoints
 62
     0
100
AcDbPoint
 10
11.79685599695359
 20
2.86689298212779
 30
0.0
  0
POINT
  5
1281
330
CA5
100
AcDbEntity
  8
Defpoints
 62
     0
100
AcDbPoint
 10
11.66815070004258
 20
3.117022221816089
 30
0.0
  0
ENDBLK
  5
CAF
330
CA5
100
AcDbEntity
  8
0
100
AcDbBlockEnd
  0
BLOCK
  5
D3B
330
D32
100
AcDbEntity
  8
0
100
AcDbBlockBegin
  2
*D31
 70
     1
 10
0.0
 20
0.0
 30
0.0
  3
*D31
  1

  0
LINE
  5
F6E
330
D32
100
AcDbEntity
  8
DIM
 62
     0
370
    -2
100
AcDbLine
 10
19.95244047190807
 20
16.96596289539006
 30
0.0
 11
21.0505325889418
 21
18.77532696500844
 31
0.0
  0
LINE
  5
F6F
330
D32
100
AcDbEntity
  8
DIM
 62
     0
370
    -2
100
AcDbLine
 10
21.0505325889418
 20
18.77532696500844
 30
0.0
 11
21.2305325889418
 21
18.77532696500844
 31
0.0
  0
SOLID
  5
F70
330
D32
100
AcDbEntity
  8
DIM
 62
     0
100
AcDbTrace
 10
19.92679401507622
 20
16.98152757501965
 30
0.0
 11
19.97808692873993
 21
16.95039821576047
 31
0.0
 12
19.85905239413052
 22
16.81208415439894
 32
0.0
 13
19.85905239413052
 23
16.81208415439894
 33
0.0
  0
MTEXT
  5
F71
330
D32
100
AcDbEntity
  8
DIM
 62
     0
100
AcDbMText
 10
23.28553258894179
 20
18.77532696500845
 30
0.0
 40
0.18
 41
0.0
 71
     5
 72
     1
  1
\A1;\U+22050.438 C'BORE, 0.068 DEEP\P8X
 73
     1
 44
1.0
  0
LINE
  5
F72
330
D32
100
AcDbEntity
  8
DIM
 62
     0
370
    -2
100
AcDbLine
 10
19.65555993849807
 20
16.62507874
 30
0.0
 11
19.83555993849807
 21
16.62507874
 31
0.0
  0
LINE
  5
F73
330
D32
100
AcDbEntity
  8
DIM
 62
     0
370
    -2
100
AcDbLine
 10
19.74555993849808
 20
16.53507874
 30
0.0
 11
19.74555993849808
 21
16.71507874
 31
0.0
  0
POINT
  5
F74
330
D32
100
AcDbEntity
  8
Defpoints
 62
     0
100
AcDbPoint
 10
19.85905239413052
 20
16.81208415439894
 30
0.0
  0
POINT
  5
F75
330
D32
100
AcDbEntity
  8
Defpoints
 62
     0
100
AcDbPoint
 10
19.63206748286564
 20
16.43807332560106
 30
0.0
  0
ENDBLK
  5
D3C
330
D32
100
AcDbEntity
  8
0
100
AcDbBlockEnd
  0
BLOCK
  5
D80
330
D75
100
AcDbEntity
  8
0
100
AcDbBlockBegin
  2
*D32
 70
     1
 10
0.0
 20
0.0
 30
0.0
  3
*D32
  1

  0
LINE
  5
128D
330
D75
100
AcDbEntity
  8
DIM
 62
     0
370
    -2
100
AcDbLine
 10
11.75654029625357
 20
6.980182257116943
 30
0.0
 11
11.75654029625357
 21
8.304467987733104
 31
0.0
  0
LINE
  5
128E
330
D75
100
AcDbEntity
  8
DIM
 62
     0
370
    -2
100
AcDbLine
 10
11.00654029625357
 20
7.535752601971942
 30
0.0
 11
11.00654029625357
 21
8.304467987733104
 31
0.0
  0
LINE
  5
128F
330
D75
100
AcDbEntity
  8
DIM
 62
     0
370
    -2
100
AcDbLine
 10
11.93654029625357
 20
8.124467987733105
 30
0.0
 11
12.11654029625357
 21
8.124467987733105
 31
0.0
  0
LINE
  5
1290
330
D75
100
AcDbEntity
  8
DIM
 62
     0
370
    -2
100
AcDbLine
 10
10.82654029625357
 20
8.124467987733105
 30
0.0
 11
10.64654029625357
 21
8.124467987733105
 31
0.0
  0
SOLID
  5
1291
330
D75
100
AcDbEntity
  8
DIM
 62
     0
100
AcDbTrace
 10
11.93654029625357
 20
8.154467987733104
 30
0.0
 11
11.93654029625357
 21
8.094467987733105
 31
0.0
 12
11.75654029625357
 22
8.124467987733105
 32
0.0
 13
11.75654029625357
 23
8.124467987733105
 33
0.0
  0
SOLID
  5
1292
330
D75
100
AcDbEntity
  8
DIM
 62
     0
100
AcDbTrace
 10
10.82654029625357
 20
8.154467987733104
 30
0.0
 11
10.82654029625357
 21
8.094467987733105
 31
0.0
 12
11.00654029625357
 22
8.124467987733105
 32
0.0
 13
11.00654029625357
 23
8.124467987733105
 33
0.0
  0
MTEXT
  5
1293
330
D75
100
AcDbEntity
  8
DIM
 62
     0
100
AcDbMText
 10
10.22654029625357
 20
8.124467987733105
 30
0.0
 40
0.18
 41
0.0
 71
     5
 72
     1
  1
\A1;0.750
 73
     1
 44
1.0
  0
POINT
  5
1294
330
D75
100
AcDbEntity
  8
Defpoints
 62
     0
100
AcDbPoint
 10
11.75654029625357
 20
6.917682257116943
 30
0.0
  0
POINT
  5
1295
330
D75
100
AcDbEntity
  8
Defpoints
 62
     0
100
AcDbPoint
 10
11.00654029625357
 20
7.473252601971942
 30
0.0
  0
POINT
  5
1296
330
D75
100
AcDbEntity
  8
Defpoints
 62
     0
100
AcDbPoint
 10
11.00654029625357
 20
8.124467987733105
 30
0.0
  0
ENDBLK
  5
D81
330
D75
100
AcDbEntity
  8
0
100
AcDbBlockEnd
  0
BLOCK
  5
FEA
330
FDE
100
AcDbEntity
  8
0
100
AcDbBlockBegin
  2
*D33
 70
     1
 10
0.0
 20
0.0
 30
0.0
  3
*D33
  1

  0
LINE
  5
1282
330
FDE
100
AcDbEntity
  8
DIM
 62
     0
370
    -2
100
AcDbLine
 10
11.51035723678982
 20
6.723252601971942
 30
0.0
 11
7.614450086343971
 21
6.723252601971943
 31
0.0
  0
LINE
  5
1283
330
FDE
100
AcDbEntity
  8
DIM
 62
     0
370
    -2
100
AcDbLine
 10
10.94404029625357
 20
7.473252601971942
 30
0.0
 11
7.614450086343971
 21
7.473252601971943
 31
0.0
  0
LINE
  5
1284
330
FDE
100
AcDbEntity
  8
DIM
 62
     0
370
    -2
100
AcDbLine
 10
7.794450086343971
 20
6.543252601971944
 30
0.0
 11
7.794450086343971
 21
6.363252601971943
 31
0.0
  0
LINE
  5
1285
330
FDE
100
AcDbEntity
  8
DIM
 62
     0
370
    -2
100
AcDbLine
 10
7.794450086343971
 20
7.653252601971943
 30
0.0
 11
7.794450086343971
 21
7.833252601971944
 31
0.0
  0
LINE
  5
1286
330
FDE
100
AcDbEntity
  8
DIM
 62
     0
370
    -2
100
AcDbLine
 10
7.794450086343971
 20
7.833252601971944
 30
0.0
 11
7.974450086343971
 21
7.833252601971944
 31
0.0
  0
SOLID
  5
1287
330
FDE
100
AcDbEntity
  8
DIM
 62
     0
100
AcDbTrace
 10
7.764450086343971
 20
6.543252601971944
 30
0.0
 11
7.824450086343971
 21
6.543252601971944
 31
0.0
 12
7.794450086343971
 22
6.723252601971943
 32
0.0
 13
7.794450086343971
 23
6.723252601971943
 33
0.0
  0
SOLID
  5
1288
330
FDE
100
AcDbEntity
  8
DIM
 62
     0
100
AcDbTrace
 10
7.764450086343971
 20
7.653252601971943
 30
0.0
 11
7.824450086343971
 21
7.653252601971943
 31
0.0
 12
7.794450086343971
 22
7.473252601971943
 32
0.0
 13
7.794450086343971
 23
7.473252601971943
 33
0.0
  0
MTEXT
  5
1289
330
FDE
100
AcDbEntity
  8
DIM
 62
     0
100
AcDbMText
 10
8.394450086343969
 20
7.833252601971945
 30
0.0
 40
0.18
 41
0.0
 71
     5
 72
     1
  1
\A1;0.750
 73
     1
 44
1.0
  0
POINT
  5
128A
330
FDE
100
AcDbEntity
  8
Defpoints
 62
     0
100
AcDbPoint
 10
11.57285723678983
 20
6.723252601971942
 30
0.0
  0
POINT
  5
128B
330
FDE
100
AcDbEntity
  8
Defpoints
 62
     0
100
AcDbPoint
 10
11.00654029625357
 20
7.473252601971942
 30
0.0
  0
POINT
  5
128C
330
FDE
100
AcDbEntity
  8
Defpoints
 62
     0
100
AcDbPoint
 10
7.794450086343971
 20
7.473252601971943
 30
0.0
  0
ENDBLK
  5
FEB
330
FDE
100
AcDbEntity
  8
0
100
AcDbBlockEnd
  0
BLOCK
  5
1016
330
100B
100
AcDbEntity
  8
0
100
AcDbBlockBegin
  2
*D34
 70
     1
 10
0.0
 20
0.0
 30
0.0
  3
*D34
  1

  0
LINE
  5
13B8
330
100B
100
AcDbEntity
  8
DIM
 62
     0
370
    -2
100
AcDbLine
 10
11.51035723678982
 20
3.473252601971942
 30
0.0
 11
2.423308576418711
 21
3.473252601971945
 31
0.0
  0
LINE
  5
13B9
330
100B
100
AcDbEntity
  8
DIM
 62
     0
370
    -2
100
AcDbLine
 10
10.94404029625357
 20
7.473252601971942
 30
0.0
 11
2.423308576418712
 21
7.473252601971945
 31
0.0
  0
LINE
  5
13BA
330
100B
100
AcDbEntity
  8
DIM
 62
     0
370
    -2
100
AcDbLine
 10
2.603308576418711
 20
3.653252601971945
 30
0.0
 11
2.603308576418711
 21
5.293252601971945
 31
0.0
  0
LINE
  5
13BB
330
100B
100
AcDbEntity
  8
DIM
 62
     0
370
    -2
100
AcDbLine
 10
2.603308576418712
 20
7.293252601971945
 30
0.0
 11
2.603308576418711
 21
5.653252601971945
 31
0.0
  0
SOLID
  5
13BC
330
100B
100
AcDbEntity
  8
DIM
 62
     0
100
AcDbTrace
 10
2.573308576418711
 20
3.653252601971945
 30
0.0
 11
2.63330857641871
 21
3.653252601971945
 31
0.0
 12
2.603308576418711
 22
3.473252601971945
 32
0.0
 13
2.603308576418711
 23
3.473252601971945
 33
0.0
  0
SOLID
  5
13BD
330
100B
100
AcDbEntity
  8
DIM
 62
     0
100
AcDbTrace
 10
2.573308576418712
 20
7.293252601971945
 30
0.0
 11
2.633308576418711
 21
7.293252601971945
 31
0.0
 12
2.603308576418712
 22
7.473252601971945
 32
0.0
 13
2.603308576418712
 23
7.473252601971945
 33
0.0
  0
MTEXT
  5
13BE
330
100B
100
AcDbEntity
  8
DIM
 62
     0
100
AcDbMText
 10
2.60330857641871
 20
5.473252601971946
 30
0.0
 40
0.18
 41
0.0
 71
     5
 72
     1
  1
\A1;4.000
 73
     1
 44
1.0
  0
POINT
  5
13BF
330
100B
100
AcDbEntity
  8
Defpoints
 62
     0
100
AcDbPoint
 10
11.57285723678983
 20
3.473252601971942
 30
0.0
  0
POINT
  5
13C0
330
100B
100
AcDbEntity
  8
Defpoints
 62
     0
100
AcDbPoint
 10
11.00654029625357
 20
7.473252601971942
 30
0.0
  0
POINT
  5
13C1
330
100B
100
AcDbEntity
  8
Defpoints
 62
     0
100
AcDbPoint
 10
2.603308576418712
 20
7.473252601971945
 30
0.0
  0
ENDBLK
  5
1017
330
100B
100
AcDbEntity
  8
0
100
AcDbBlockEnd
  0
BLOCK
  5
1024
330
1019
100
AcDbEntity
  8
0
100
AcDbBlockBegin
  2
*D35
 70
     1
 10
0.0
 20
0.0
 30
0.0
  3
*D35
  1

  0
LINE
  5
11DA
330
1019
100
AcDbEntity
  8
DIM
 62
     0
370
    -2
100
AcDbLine
 10
20.25654029625357
 20
7.230182257116943
 30
0.0
 11
20.25654029625357
 21
12.59858437260773
 31
0.0
  0
LINE
  5
11DB
330
1019
100
AcDbEntity
  8
DIM
 62
     0
370
    -2
100
AcDbLine
 10
11.00654029625357
 20
7.535752601971942
 30
0.0
 11
11.00654029625357
 21
12.59858437260773
 31
0.0
  0
LINE
  5
11DC
330
1019
100
AcDbEntity
  8
DIM
 62
     0
370
    -2
100
AcDbLine
 10
20.07654029625357
 20
12.41858437260773
 30
0.0
 11
16.06654029625357
 21
12.41858437260773
 31
0.0
  0
LINE
  5
11DD
330
1019
100
AcDbEntity
  8
DIM
 62
     0
370
    -2
100
AcDbLine
 10
11.18654029625357
 20
12.41858437260773
 30
0.0
 11
15.19654029625357
 21
12.41858437260773
 31
0.0
  0
SOLID
  5
11DE
330
1019
100
AcDbEntity
  8
DIM
 62
     0
100
AcDbTrace
 10
20.07654029625357
 20
12.44858437260773
 30
0.0
 11
20.07654029625357
 21
12.38858437260773
 31
0.0
 12
20.25654029625357
 22
12.41858437260773
 32
0.0
 13
20.25654029625357
 23
12.41858437260773
 33
0.0
  0
SOLID
  5
11DF
330
1019
100
AcDbEntity
  8
DIM
 62
     0
100
AcDbTrace
 10
11.18654029625357
 20
12.44858437260773
 30
0.0
 11
11.18654029625357
 21
12.38858437260773
 31
0.0
 12
11.00654029625357
 22
12.41858437260773
 32
0.0
 13
11.00654029625357
 23
12.41858437260773
 33
0.0
  0
MTEXT
  5
11E0
330
1019
100
AcDbEntity
  8
DIM
 62
     0
100
AcDbMText
 10
15.63154029625357
 20
12.41858437260773
 30
0.0
 40
0.18
 41
0.0
 71
     5
 72
     1
  1
\A1;9.250
 73
     1
 44
1.0
  0
POINT
  5
11E1
330
1019
100
AcDbEntity
  8
Defpoints
 62
     0
100
AcDbPoint
 10
20.25654029625357
 20
7.167682257116943
 30
0.0
  0
POINT
  5
11E2
330
1019
100
AcDbEntity
  8
Defpoints
 62
     0
100
AcDbPoint
 10
11.00654029625357
 20
7.473252601971942
 30
0.0
  0
POINT
  5
11E3
330
1019
100
AcDbEntity
  8
Defpoints
 62
     0
100
AcDbPoint
 10
11.00654029625357
 20
12.41858437260773
 30
0.0
  0
ENDBLK
  5
1025
330
1019
100
AcDbEntity
  8
0
100
AcDbBlockEnd
  0
BLOCK
  5
1032
330
1027
100
AcDbEntity
  8
0
100
AcDbBlockBegin
  2
*D36
 70
     1
 10
0.0
 20
0.0
 30
0.0
  3
*D36
  1

  0
LINE
  5
1195
330
1027
100
AcDbEntity
  8
DIM
 62
     0
370
    -2
100
AcDbLine
 10
21.00654028226018
 20
14.31104077459912
 30
0.0
 11
21.00654028226018
 21
14.77261822408655
 31
0.0
  0
LINE
  5
1196
330
1027
100
AcDbEntity
  8
DIM
 62
     0
370
    -2
100
AcDbLine
 10
11.00654028226019
 20
14.31104077459912
 30
0.0
 11
11.00654028226019
 21
14.77261822408655
 31
0.0
  0
LINE
  5
1197
330
1027
100
AcDbEntity
  8
DIM
 62
     0
370
    -2
100
AcDbLine
 10
20.82654028226019
 20
14.59261822408655
 30
0.0
 11
16.45654028226019
 21
14.59261822408655
 31
0.0
  0
LINE
  5
1198
330
1027
100
AcDbEntity
  8
DIM
 62
     0
370
    -2
100
AcDbLine
 10
11.18654028226018
 20
14.59261822408655
 30
0.0
 11
15.55654028226019
 21
14.59261822408655
 31
0.0
  0
SOLID
  5
1199
330
1027
100
AcDbEntity
  8
DIM
 62
     0
100
AcDbTrace
 10
20.82654028226019
 20
14.62261822408655
 30
0.0
 11
20.82654028226019
 21
14.56261822408655
 31
0.0
 12
21.00654028226018
 22
14.59261822408655
 32
0.0
 13
21.00654028226018
 23
14.59261822408655
 33
0.0
  0
SOLID
  5
119A
330
1027
100
AcDbEntity
  8
DIM
 62
     0
100
AcDbTrace
 10
11.18654028226018
 20
14.62261822408655
 30
0.0
 11
11.18654028226018
 21
14.56261822408655
 31
0.0
 12
11.00654028226019
 22
14.59261822408655
 32
0.0
 13
11.00654028226019
 23
14.59261822408655
 33
0.0
  0
MTEXT
  5
119B
330
1027
100
AcDbEntity
  8
DIM
 62
     0
100
AcDbMText
 10
16.00654028226019
 20
14.59261822408655
 30
0.0
 40
0.18
 41
0.0
 71
     5
 72
     1
  1
\A1;10.000
 73
     1
 44
1.0
  0
POINT
  5
119C
330
1027
100
AcDbEntity
  8
Defpoints
 62
     0
100
AcDbPoint
 10
21.00654028226018
 20
14.24854077459912
 30
0.0
  0
POINT
  5
119D
330
1027
100
AcDbEntity
  8
Defpoints
 62
     0
100
AcDbPoint
 10
11.00654028226019
 20
14.24854077459912
 30
0.0
  0
POINT
  5
119E
330
1027
100
AcDbEntity
  8
Defpoints
 62
     0
100
AcDbPoint
 10
11.00654028226019
 20
14.59261822408655
 30
0.0
  0
ENDBLK
  5
1033
330
1027
100
AcDbEntity
  8
0
100
AcDbBlockEnd
  0
BLOCK
  5
1056
330
104A
100
AcDbEntity
  8
0
100
AcDbBlockBegin
  2
*D37
 70
     1
 10
0.0
 20
0.0
 30
0.0
  3
*D37
  1

  0
LINE
  5
12E6
330
104A
100
AcDbEntity
  8
DIM
 62
     0
370
    -2
100
AcDbLine
 10
26.01179032781867
 20
7.129502601971943
 30
0.0
 11
26.49353993398446
 21
7.129502601971943
 31
0.0
  0
LINE
  5
12E7
330
104A
100
AcDbEntity
  8
DIM
 62
     0
370
    -2
100
AcDbLine
 10
26.13857429242125
 20
7.473252601971944
 30
0.0
 11
26.49353993398446
 21
7.473252601971944
 31
0.0
  0
LINE
  5
12E8
330
104A
100
AcDbEntity
  8
DIM
 62
     0
370
    -2
100
AcDbLine
 10
26.31353993398446
 20
6.949502601971944
 30
0.0
 11
26.31353993398446
 21
6.769502601971943
 31
0.0
  0
LINE
  5
12E9
330
104A
100
AcDbEntity
  8
DIM
 62
     0
370
    -2
100
AcDbLine
 10
26.31353993398446
 20
7.653252601971944
 30
0.0
 11
26.31353993398446
 21
7.833252601971945
 31
0.0
  0
LINE
  5
12EA
330
104A
100
AcDbEntity
  8
DIM
 62
     0
370
    -2
100
AcDbLine
 10
26.31353993398446
 20
7.833252601971945
 30
0.0
 11
26.49353993398446
 21
7.833252601971945
 31
0.0
  0
SOLID
  5
12EB
330
104A
100
AcDbEntity
  8
DIM
 62
     0
100
AcDbTrace
 10
26.28353993398446
 20
6.949502601971944
 30
0.0
 11
26.34353993398446
 21
6.949502601971944
 31
0.0
 12
26.31353993398446
 22
7.129502601971943
 32
0.0
 13
26.31353993398446
 23
7.129502601971943
 33
0.0
  0
SOLID
  5
12EC
330
104A
100
AcDbEntity
  8
DIM
 62
     0
100
AcDbTrace
 10
26.28353993398446
 20
7.653252601971944
 30
0.0
 11
26.34353993398446
 21
7.653252601971944
 31
0.0
 12
26.31353993398446
 22
7.473252601971944
 32
0.0
 13
26.31353993398446
 23
7.473252601971944
 33
0.0
  0
MTEXT
  5
12ED
330
104A
100
AcDbEntity
  8
DIM
 62
     0
100
AcDbMText
 10
26.92853993398446
 20
7.833252601971949
 30
0.0
 40
0.18
 41
0.0
 71
     5
 72
     1
  1
\A1;0.344
 73
     1
 44
1.0
  0
POINT
  5
12EE
330
104A
100
AcDbEntity
  8
Defpoints
 62
     0
100
AcDbPoint
 10
25.94929032781867
 20
7.129502601971944
 30
0.0
  0
POINT
  5
12EF
330
104A
100
AcDbEntity
  8
Defpoints
 62
     0
100
AcDbPoint
 10
26.07607429242125
 20
7.473252601971944
 30
0.0
  0
POINT
  5
12F0
330
104A
100
AcDbEntity
  8
Defpoints
 62
     0
100
AcDbPoint
 10
26.31353993398446
 20
7.473252601971944
 30
0.0
  0
ENDBLK
  5
1057
330
104A
100
AcDbEntity
  8
0
100
AcDbBlockEnd
  0
BLOCK
  5
1064
330
1059
100
AcDbEntity
  8
0
100
AcDbBlockBegin
  2
*D38
 70
     1
 10
0.0
 20
0.0
 30
0.0
  3
*D38
  1

  0
LINE
  5
12DC
330
1059
100
AcDbEntity
  8
DIM
 62
     0
370
    -2
100
AcDbLine
 10
26.01179032781867
 20
3.067002601971944
 30
0.0
 11
27.37645458423845
 21
3.067002601971944
 31
0.0
  0
LINE
  5
12DD
330
1059
100
AcDbEntity
  8
DIM
 62
     0
370
    -2
100
AcDbLine
 10
26.13857429242125
 20
7.473252601971944
 30
0.0
 11
27.37645458423845
 21
7.473252601971944
 31
0.0
  0
LINE
  5
12DE
330
1059
100
AcDbEntity
  8
DIM
 62
     0
370
    -2
100
AcDbLine
 10
27.19645458423845
 20
3.247002601971944
 30
0.0
 11
27.19645458423845
 21
5.090127601971945
 31
0.0
  0
LINE
  5
12DF
330
1059
100
AcDbEntity
  8
DIM
 62
     0
370
    -2
100
AcDbLine
 10
27.19645458423845
 20
7.293252601971945
 30
0.0
 11
27.19645458423845
 21
5.450127601971944
 31
0.0
  0
SOLID
  5
12E0
330
1059
100
AcDbEntity
  8
DIM
 62
     0
100
AcDbTrace
 10
27.16645458423845
 20
3.247002601971944
 30
0.0
 11
27.22645458423845
 21
3.247002601971944
 31
0.0
 12
27.19645458423845
 22
3.067002601971944
 32
0.0
 13
27.19645458423845
 23
3.067002601971944
 33
0.0
  0
SOLID
  5
12E1
330
1059
100
AcDbEntity
  8
DIM
 62
     0
100
AcDbTrace
 10
27.16645458423845
 20
7.293252601971945
 30
0.0
 11
27.22645458423845
 21
7.293252601971945
 31
0.0
 12
27.19645458423845
 22
7.473252601971944
 32
0.0
 13
27.19645458423845
 23
7.473252601971944
 33
0.0
  0
MTEXT
  5
12E2
330
1059
100
AcDbEntity
  8
DIM
 62
     0
100
AcDbMText
 10
27.19645458423845
 20
5.270127601971949
 30
0.0
 40
0.18
 41
0.0
 71
     5
 72
     1
  1
\A1;4.406
 73
     1
 44
1.0
  0
POINT
  5
12E3
330
1059
100
AcDbEntity
  8
Defpoints
 62
     0
100
AcDbPoint
 10
25.94929032781867
 20
3.067002601971944
 30
0.0
  0
POINT
  5
12E4
330
1059
100
AcDbEntity
  8
Defpoints
 62
     0
100
AcDbPoint
 10
26.07607429242125
 20
7.473252601971944
 30
0.0
  0
POINT
  5
12E5
330
1059
100
AcDbEntity
  8
Defpoints
 62
     0
100
AcDbPoint
 10
27.19645458423845
 20
7.473252601971944
 30
0.0
  0
ENDBLK
  5
1065
330
1059
100
AcDbEntity
  8
0
100
AcDbBlockEnd
  0
BLOCK
  5
1072
330
1067
100
AcDbEntity
  8
0
100
AcDbBlockBegin
  2
*D39
 70
     1
 10
0.0
 20
0.0
 30
0.0
  3
*D39
  1

  0
LINE
  5
1316
330
1067
100
AcDbEntity
  8
DIM
 62
     0
370
    -2
100
AcDbLine
 10
25.82607429242125
 20
7.32568986221854
 30
0.0
 11
25.82607429242125
 21
8.165644814382723
 31
0.0
  0
LINE
  5
1317
330
1067
100
AcDbEntity
  8
DIM
 62
     0
370
    -2
100
AcDbLine
 10
25.57607429242125
 20
7.535752601971944
 30
0.0
 11
25.57607429242125
 21
8.165644814382723
 31
0.0
  0
LINE
  5
1318
330
1067
100
AcDbEntity
  8
DIM
 62
     0
370
    -2
100
AcDbLine
 10
26.00607429242125
 20
7.985644814382723
 30
0.0
 11
26.18607429242125
 21
7.985644814382723
 31
0.0
  0
LINE
  5
1319
330
1067
100
AcDbEntity
  8
DIM
 62
     0
370
    -2
100
AcDbLine
 10
25.39607429242125
 20
7.985644814382723
 30
0.0
 11
25.21607429242124
 21
7.985644814382723
 31
0.0
  0
SOLID
  5
131A
330
1067
100
AcDbEntity
  8
DIM
 62
     0
100
AcDbTrace
 10
26.00607429242125
 20
8.015644814382723
 30
0.0
 11
26.00607429242125
 21
7.955644814382723
 31
0.0
 12
25.82607429242125
 22
7.985644814382723
 32
0.0
 13
25.82607429242125
 23
7.985644814382723
 33
0.0
  0
SOLID
  5
131B
330
1067
100
AcDbEntity
  8
DIM
 62
     0
100
AcDbTrace
 10
25.39607429242125
 20
8.015644814382723
 30
0.0
 11
25.39607429242125
 21
7.955644814382723
 31
0.0
 12
25.57607429242125
 22
7.985644814382723
 32
0.0
 13
25.57607429242125
 23
7.985644814382723
 33
0.0
  0
MTEXT
  5
131C
330
1067
100
AcDbEntity
  8
DIM
 62
     0
100
AcDbMText
 10
24.79607429242125
 20
7.985644814382723
 30
0.0
 40
0.18
 41
0.0
 71
     5
 72
     1
  1
\A1;0.250
 73
     1
 44
1.0
  0
POINT
  5
131D
330
1067
100
AcDbEntity
  8
Defpoints
 62
     0
100
AcDbPoint
 10
25.82607429242125
 20
7.26318986221854
 30
0.0
  0
POINT
  5
131E
330
1067
100
AcDbEntity
  8
Defpoints
 62
     0
100
AcDbPoint
 10
25.57607429242125
 20
7.473252601971944
 30
0.0
  0
POINT
  5
131F
330
1067
100
AcDbEntity
  8
Defpoints
 62
     0
100
AcDbPoint
 10
25.57607429242125
 20
7.985644814382723
 30
0.0
  0
ENDBLK
  5
1073
330
1067
100
AcDbEntity
  8
0
100
AcDbBlockEnd
  0
BLOCK
  5
107E
330
1075
100
AcDbEntity
  8
0
100
AcDbBlockBegin
  2
*D40
 70
     1
 10
0.0
 20
0.0
 30
0.0
  3
*D40
  1

  0
LINE
  5
1320
330
1075
100
AcDbEntity
  8
DIM
 62
     0
370
    -2
100
AcDbLine
 10
25.6367352751339
 20
2.905287616480006
 30
0.0
 11
25.07200884681967
 21
2.422953190801921
 31
0.0
  0
LINE
  5
1321
330
1075
100
AcDbEntity
  8
DIM
 62
     0
370
    -2
100
AcDbLine
 10
25.07200884681967
 20
2.422953190801921
 30
0.0
 11
24.89200884681967
 21
2.422953190801921
 31
0.0
  0
SOLID
  5
1322
330
1075
100
AcDbEntity
  8
DIM
 62
     0
100
AcDbTrace
 10
25.6172515419421
 20
2.92809954627366
 30
0.0
 11
25.6562190083257
 21
2.882475686686346
 31
0.0
 12
25.77360685389584
 22
3.022190015630803
 32
0.0
 13
25.77360685389584
 23
3.022190015630803
 33
0.0
  0
MTEXT
  5
1323
330
1075
100
AcDbEntity
  8
DIM
 62
     0
100
AcDbMText
 10
23.22700884681967
 20
2.422953190801921
 30
0.0
 40
0.18
 41
0.0
 71
     5
 72
     1
  1
\A1;6-32 TAP, .375 DEEP\P4X
 73
     1
 44
1.0
  0
LINE
  5
1324
330
1075
100
AcDbEntity
  8
DIM
 62
     0
370
    -2
100
AcDbLine
 10
25.73607429242125
 20
3.067002601971946
 30
0.0
 11
25.91607429242126
 21
3.067002601971946
 31
0.0
  0
LINE
  5
1325
330
1075
100
AcDbEntity
  8
DIM
 62
     0
370
    -2
100
AcDbLine
 10
25.82607429242126
 20
2.977002601971946
 30
0.0
 11
25.82607429242126
 21
3.157002601971946
 31
0.0
  0
POINT
  5
1326
330
1075
100
AcDbEntity
  8
Defpoints
 62
     0
100
AcDbPoint
 10
25.77360685389584
 20
3.022190015630803
 30
0.0
  0
POINT
  5
1327
330
1075
100
AcDbEntity
  8
Defpoints
 62
     0
100
AcDbPoint
 10
25.87854173094667
 20
3.111815188313089
 30
0.0
  0
ENDBLK
  5
107F
330
1075
100
AcDbEntity
  8
0
100
AcDbBlockEnd
  0
BLOCK
  5
11BD
330
11B1
100
AcDbEntity
  8
0
100
AcDbBlockBegin
  2
*D41
 70
     1
 10
0.0
 20
0.0
 30
0.0
  3
*D41
  1

  0
LINE
  5
1303
330
11B1
100
AcDbEntity
  8
DIM
 62
     0
370
    -2
100
AcDbLine
 10
20.50900203189405
 20
6.973252601971942
 30
0.0
 11
21.62765362655822
 21
6.973252601971942
 31
0.0
  0
LINE
  5
1304
330
11B1
100
AcDbEntity
  8
DIM
 62
     0
370
    -2
100
AcDbLine
 10
21.06904029625357
 20
7.473252601971942
 30
0.0
 11
21.62765362655822
 21
7.473252601971942
 31
0.0
  0
LINE
  5
1305
330
11B1
100
AcDbEntity
  8
DIM
 62
     0
370
    -2
100
AcDbLine
 10
21.44765362655822
 20
6.793252601971943
 30
0.0
 11
21.44765362655822
 21
6.613252601971942
 31
0.0
  0
LINE
  5
1306
330
11B1
100
AcDbEntity
  8
DIM
 62
     0
370
    -2
100
AcDbLine
 10
21.44765362655822
 20
7.653252601971942
 30
0.0
 11
21.44765362655822
 21
7.833252601971943
 31
0.0
  0
LINE
  5
1307
330
11B1
100
AcDbEntity
  8
DIM
 62
     0
370
    -2
100
AcDbLine
 10
21.44765362655822
 20
7.833252601971943
 30
0.0
 11
21.62765362655822
 21
7.833252601971943
 31
0.0
  0
SOLID
  5
1308
330
11B1
100
AcDbEntity
  8
DIM
 62
     0
100
AcDbTrace
 10
21.41765362655822
 20
6.793252601971943
 30
0.0
 11
21.47765362655822
 21
6.793252601971943
 31
0.0
 12
21.44765362655822
 22
6.973252601971942
 32
0.0
 13
21.44765362655822
 23
6.973252601971942
 33
0.0
  0
SOLID
  5
1309
330
11B1
100
AcDbEntity
  8
DIM
 62
     0
100
AcDbTrace
 10
21.41765362655822
 20
7.653252601971942
 30
0.0
 11
21.47765362655822
 21
7.653252601971942
 31
0.0
 12
21.44765362655822
 22
7.473252601971942
 32
0.0
 13
21.44765362655822
 23
7.473252601971942
 33
0.0
  0
MTEXT
  5
130A
330
11B1
100
AcDbEntity
  8
DIM
 62
     0
100
AcDbMText
 10
22.03265362655822
 20
7.833252601971945
 30
0.0
 40
0.18
 41
0.0
 71
     5
 72
     1
  1
\A1;0.500
 73
     1
 44
1.0
  0
POINT
  5
130B
330
11B1
100
AcDbEntity
  8
Defpoints
 62
     0
100
AcDbPoint
 10
20.44650203189405
 20
6.973252601971942
 30
0.0
  0
POINT
  5
130C
330
11B1
100
AcDbEntity
  8
Defpoints
 62
     0
100
AcDbPoint
 10
21.00654029625357
 20
7.473252601971942
 30
0.0
  0
POINT
  5
130D
330
11B1
100
AcDbEntity
  8
Defpoints
 62
     0
100
AcDbPoint
 10
21.44765362655822
 20
7.473252601971942
 30
0.0
  0
ENDBLK
  5
11BE
330
11B1
100
AcDbEntity
  8
0
100
AcDbBlockEnd
  0
BLOCK
  5
11CB
330
11C0
100
AcDbEntity
  8
0
100
AcDbBlockBegin
  2
*D42
 70
     1
 10
0.0
 20
0.0
 30
0.0
  3
*D42
  1

  0
LINE
  5
12F9
330
11C0
100
AcDbEntity
  8
DIM
 62
     0
370
    -2
100
AcDbLine
 10
20.50900203189405
 20
3.223252601971942
 30
0.0
 11
22.58128270499727
 21
3.223252601971942
 31
0.0
  0
LINE
  5
12FA
330
11C0
100
AcDbEntity
  8
DIM
 62
     0
370
    -2
100
AcDbLine
 10
21.06904029625357
 20
7.473252601971942
 30
0.0
 11
22.58128270499727
 21
7.473252601971942
 31
0.0
  0
LINE
  5
12FB
330
11C0
100
AcDbEntity
  8
DIM
 62
     0
370
    -2
100
AcDbLine
 10
22.40128270499727
 20
3.403252601971942
 30
0.0
 11
22.40128270499727
 21
5.168252601971942
 31
0.0
  0
LINE
  5
12FC
330
11C0
100
AcDbEntity
  8
DIM
 62
     0
370
    -2
100
AcDbLine
 10
22.40128270499727
 20
7.293252601971942
 30
0.0
 11
22.40128270499727
 21
5.528252601971941
 31
0.0
  0
SOLID
  5
12FD
330
11C0
100
AcDbEntity
  8
DIM
 62
     0
100
AcDbTrace
 10
22.37128270499727
 20
3.403252601971942
 30
0.0
 11
22.43128270499727
 21
3.403252601971942
 31
0.0
 12
22.40128270499727
 22
3.223252601971942
 32
0.0
 13
22.40128270499727
 23
3.223252601971942
 33
0.0
  0
SOLID
  5
12FE
330
11C0
100
AcDbEntity
  8
DIM
 62
     0
100
AcDbTrace
 10
22.37128270499727
 20
7.293252601971942
 30
0.0
 11
22.43128270499727
 21
7.293252601971942
 31
0.0
 12
22.40128270499727
 22
7.473252601971942
 32
0.0
 13
22.40128270499727
 23
7.473252601971942
 33
0.0
  0
MTEXT
  5
12FF
330
11C0
100
AcDbEntity
  8
DIM
 62
     0
100
AcDbMText
 10
22.40128270499727
 20
5.348252601971945
 30
0.0
 40
0.18
 41
0.0
 71
     5
 72
     1
  1
\A1;4.250
 73
     1
 44
1.0
  0
POINT
  5
1300
330
11C0
100
AcDbEntity
  8
Defpoints
 62
     0
100
AcDbPoint
 10
20.44650203189405
 20
3.223252601971942
 30
0.0
  0
POINT
  5
1301
330
11C0
100
AcDbEntity
  8
Defpoints
 62
     0
100
AcDbPoint
 10
21.00654029625357
 20
7.473252601971942
 30
0.0
  0
POINT
  5
1302
330
11C0
100
AcDbEntity
  8
Defpoints
 62
     0
100
AcDbPoint
 10
22.40128270499727
 20
7.473252601971942
 30
0.0
  0
ENDBLK
  5
11CC
330
11C0
100
AcDbEntity
  8
0
100
AcDbBlockEnd
  0
BLOCK
  5
1334
330
1329
100
AcDbEntity
  8
0
100
AcDbBlockBegin
  2
*D43
 70
     1
 10
0.0
 20
0.0
 30
0.0
  3
*D43
  1

  0
LINE
  5
132A
330
1329
100
AcDbEntity
  8
DIM
 62
     0
370
    -2
100
AcDbLine
 10
12.88154028226019
 20
13.80805755629619
 30
0.0
 11
12.88154028226019
 21
13.23174673089989
 31
0.0
  0
LINE
  5
132B
330
1329
100
AcDbEntity
  8
DIM
 62
     0
370
    -2
100
AcDbLine
 10
11.00654028226019
 20
13.68604077459912
 30
0.0
 11
11.00654028226019
 21
13.23174673089989
 31
0.0
  0
LINE
  5
132C
330
1329
100
AcDbEntity
  8
DIM
 62
     0
370
    -2
100
AcDbLine
 10
12.70154028226019
 20
13.41174673089989
 30
0.0
 11
12.36404028226019
 21
13.41174673089989
 31
0.0
  0
LINE
  5
132D
330
1329
100
AcDbEntity
  8
DIM
 62
     0
370
    -2
100
AcDbLine
 10
11.18654028226018
 20
13.41174673089989
 30
0.0
 11
11.52404028226019
 21
13.41174673089989
 31
0.0
  0
SOLID
  5
132E
330
1329
100
AcDbEntity
  8
DIM
 62
     0
100
AcDbTrace
 10
12.70154028226019
 20
13.44174673089989
 30
0.0
 11
12.70154028226019
 21
13.38174673089989
 31
0.0
 12
12.88154028226019
 22
13.41174673089989
 32
0.0
 13
12.88154028226019
 23
13.41174673089989
 33
0.0
  0
SOLID
  5
132F
330
1329
100
AcDbEntity
  8
DIM
 62
     0
100
AcDbTrace
 10
11.18654028226018
 20
13.44174673089989
 30
0.0
 11
11.18654028226018
 21
13.38174673089989
 31
0.0
 12
11.00654028226019
 22
13.41174673089989
 32
0.0
 13
11.00654028226019
 23
13.41174673089989
 33
0.0
  0
MTEXT
  5
1330
330
1329
100
AcDbEntity
  8
DIM
 62
     0
100
AcDbMText
 10
11.94404028226019
 20
13.41174673089989
 30
0.0
 40
0.18
 41
0.0
 71
     5
 72
     1
  1
\A1;1.875
 73
     1
 44
1.0
  0
POINT
  5
1331
330
1329
100
AcDbEntity
  8
Defpoints
 62
     0
100
AcDbPoint
 10
12.88154028226019
 20
13.87055755629619
 30
0.0
  0
POINT
  5
1332
330
1329
100
AcDbEntity
  8
Defpoints
 62
     0
100
AcDbPoint
 10
11.00654028226019
 20
13.74854077459912
 30
0.0
  0
POINT
  5
1333
330
1329
100
AcDbEntity
  8
Defpoints
 62
     0
100
AcDbPoint
 10
11.00654028226019
 20
13.41174673089989
 30
0.0
  0
ENDBLK
  5
1335
330
1329
100
AcDbEntity
  8
0
100
AcDbBlockEnd
  0
BLOCK
  5
1342
330
1337
100
AcDbEntity
  8
0
100
AcDbBlockBegin
  2
*D44
 70
     1
 10
0.0
 20
0.0
 30
0.0
  3
*D44
  1

  0
LINE
  5
1338
330
1337
100
AcDbEntity
  8
DIM
 62
     0
370
    -2
100
AcDbLine
 10
19.75654028226019
 20
13.80805755629619
 30
0.0
 11
19.75654028226019
 21
12.83440595285429
 31
0.0
  0
LINE
  5
1339
330
1337
100
AcDbEntity
  8
DIM
 62
     0
370
    -2
100
AcDbLine
 10
11.00654028226019
 20
13.68604077459912
 30
0.0
 11
11.00654028226019
 21
12.83440595285429
 31
0.0
  0
LINE
  5
133A
330
1337
100
AcDbEntity
  8
DIM
 62
     0
370
    -2
100
AcDbLine
 10
19.57654028226018
 20
13.01440595285429
 30
0.0
 11
15.81654028226019
 21
13.01440595285429
 31
0.0
  0
LINE
  5
133B
330
1337
100
AcDbEntity
  8
DIM
 62
     0
370
    -2
100
AcDbLine
 10
11.18654028226018
 20
13.01440595285429
 30
0.0
 11
14.94654028226019
 21
13.01440595285429
 31
0.0
  0
SOLID
  5
133C
330
1337
100
AcDbEntity
  8
DIM
 62
     0
100
AcDbTrace
 10
19.57654028226018
 20
13.04440595285428
 30
0.0
 11
19.57654028226018
 21
12.98440595285429
 31
0.0
 12
19.75654028226019
 22
13.01440595285429
 32
0.0
 13
19.75654028226019
 23
13.01440595285429
 33
0.0
  0
SOLID
  5
133D
330
1337
100
AcDbEntity
  8
DIM
 62
     0
100
AcDbTrace
 10
11.18654028226018
 20
13.04440595285428
 30
0.0
 11
11.18654028226018
 21
12.98440595285429
 31
0.0
 12
11.00654028226019
 22
13.01440595285429
 32
0.0
 13
11.00654028226019
 23
13.01440595285429
 33
0.0
  0
MTEXT
  5
133E
330
1337
100
AcDbEntity
  8
DIM
 62
     0
100
AcDbMText
 10
15.38154028226019
 20
13.01440595285429
 30
0.0
 40
0.18
 41
0.0
 71
     5
 72
     1
  1
\A1;8.750
 73
     1
 44
1.0
  0
POINT
  5
133F
330
1337
100
AcDbEntity
  8
Defpoints
 62
     0
100
AcDbPoint
 10
19.75654028226019
 20
13.87055755629619
 30
0.0
  0
POINT
  5
1340
330
1337
100
AcDbEntity
  8
Defpoints
 62
     0
100
AcDbPoint
 10
11.00654028226019
 20
13.74854077459912
 30
0.0
  0
POINT
  5
1341
330
1337
100
AcDbEntity
  8
Defpoints
 62
     0
100
AcDbPoint
 10
11.00654028226019
 20
13.01440595285429
 30
0.0
  0
ENDBLK
  5
1343
330
1337
100
AcDbEntity
  8
0
100
AcDbBlockEnd
  0
BLOCK
  5
135C
330
1350
100
AcDbEntity
  8
0
100
AcDbBlockBegin
  2
*D45
 70
     1
 10
0.0
 20
0.0
 30
0.0
  3
*D45
  1

  0
LINE
  5
1351
330
1350
100
AcDbEntity
  8
DIM
 62
     0
370
    -2
100
AcDbLine
 10
19.9422563176576
 20
13.99854077459912
 30
0.0
 11
21.51133325192457
 21
13.99854077459911
 31
0.0
  0
LINE
  5
1352
330
1350
100
AcDbEntity
  8
DIM
 62
     0
370
    -2
100
AcDbLine
 10
21.06904028226018
 20
14.24854077459912
 30
0.0
 11
21.51133325192457
 21
14.24854077459912
 31
0.0
  0
LINE
  5
1353
330
1350
100
AcDbEntity
  8
DIM
 62
     0
370
    -2
100
AcDbLine
 10
21.33133325192457
 20
13.81854077459911
 30
0.0
 11
21.33133325192457
 21
13.63854077459912
 31
0.0
  0
LINE
  5
1354
330
1350
100
AcDbEntity
  8
DIM
 62
     0
370
    -2
100
AcDbLine
 10
21.33133325192457
 20
14.42854077459912
 30
0.0
 11
21.33133325192457
 21
14.60854077459912
 31
0.0
  0
LINE
  5
1355
330
1350
100
AcDbEntity
  8
DIM
 62
     0
370
    -2
100
AcDbLine
 10
21.33133325192457
 20
14.60854077459912
 30
0.0
 11
21.51133325192457
 21
14.60854077459912
 31
0.0
  0
SOLID
  5
1356
330
1350
100
AcDbEntity
  8
DIM
 62
     0
100
AcDbTrace
 10
21.30133325192457
 20
13.81854077459911
 30
0.0
 11
21.36133325192457
 21
13.81854077459911
 31
0.0
 12
21.33133325192457
 22
13.99854077459911
 32
0.0
 13
21.33133325192457
 23
13.99854077459911
 33
0.0
  0
SOLID
  5
1357
330
1350
100
AcDbEntity
  8
DIM
 62
     0
100
AcDbTrace
 10
21.30133325192457
 20
14.42854077459912
 30
0.0
 11
21.36133325192457
 21
14.42854077459912
 31
0.0
 12
21.33133325192457
 22
14.24854077459912
 32
0.0
 13
21.33133325192457
 23
14.24854077459912
 33
0.0
  0
MTEXT
  5
1358
330
1350
100
AcDbEntity
  8
DIM
 62
     0
100
AcDbMText
 10
21.93133325192457
 20
14.60854077459912
 30
0.0
 40
0.18
 41
0.0
 71
     5
 72
     1
  1
\A1;0.250
 73
     1
 44
1.0
  0
POINT
  5
1359
330
1350
100
AcDbEntity
  8
Defpoints
 62
     0
100
AcDbPoint
 10
19.87975631765761
 20
13.99854077459912
 30
0.0
  0
POINT
  5
135A
330
1350
100
AcDbEntity
  8
Defpoints
 62
     0
100
AcDbPoint
 10
21.00654028226018
 20
14.24854077459912
 30
0.0
  0
POINT
  5
135B
330
1350
100
AcDbEntity
  8
Defpoints
 62
     0
100
AcDbPoint
 10
21.33133325192457
 20
14.24854077459912
 30
0.0
  0
ENDBLK
  5
135D
330
1350
100
AcDbEntity
  8
0
100
AcDbBlockEnd
  0
BLOCK
  5
1378
330
136F
100
AcDbEntity
  8
0
100
AcDbBlockBegin
  2
*D46
 70
     1
 10
0.0
 20
0.0
 30
0.0
  3
*D46
  1

  0
LINE
  5
138A
330
136F
100
AcDbEntity
  8
DIM
 62
     0
370
    -2
100
AcDbLine
 10
19.95181581165545
 20
14.15303500626941
 30
0.0
 11
22.04722916164546
 21
15.81084270260973
 31
0.0
  0
LINE
  5
138B
330
136F
100
AcDbEntity
  8
DIM
 62
     0
370
    -2
100
AcDbLine
 10
22.04722916164546
 20
15.81084270260973
 30
0.0
 11
22.22722916164545
 21
15.81084270260973
 31
0.0
  0
SOLID
  5
138C
330
136F
100
AcDbEntity
  8
DIM
 62
     0
100
AcDbTrace
 10
19.9332020488036
 20
14.17656217848571
 30
0.0
 11
19.97042957450729
 21
14.12950783405312
 31
0.0
 12
19.81065277835766
 22
14.04135242915835
 32
0.0
 13
19.81065277835766
 23
14.04135242915835
 33
0.0
  0
MTEXT
  5
138D
330
136F
100
AcDbEntity
  8
DIM
 62
     0
100
AcDbMText
 10
23.84722916164544
 20
15.81084270260975
 30
0.0
 40
0.18
 41
0.0
 71
     5
 72
     1
  1
\A1;6-32 TAP .375 DEEP\P4X
 73
     1
 44
1.0
  0
LINE
  5
138E
330
136F
100
AcDbEntity
  8
DIM
 62
     0
370
    -2
100
AcDbLine
 10
19.66654028226018
 20
13.9985407745991
 30
0.0
 11
19.84654028226017
 21
13.9985407745991
 31
0.0
  0
LINE
  5
138F
330
136F
100
AcDbEntity
  8
DIM
 62
     0
370
    -2
100
AcDbLine
 10
19.75654028226017
 20
13.9085407745991
 30
0.0
 11
19.75654028226017
 21
14.0885407745991
 31
0.0
  0
POINT
  5
1390
330
136F
100
AcDbEntity
  8
Defpoints
 62
     0
100
AcDbPoint
 10
19.81065277835766
 20
14.04135242915835
 30
0.0
  0
POINT
  5
1391
330
136F
100
AcDbEntity
  8
Defpoints
 62
     0
100
AcDbPoint
 10
19.70242778616269
 20
13.95572912003986
 30
0.0
  0
ENDBLK
  5
1379
330
136F
100
AcDbEntity
  8
0
100
AcDbBlockEnd
  0
BLOCK
  5
13F6
330
13EB
100
AcDbEntity
  8
0
100
AcDbBlockBegin
  2
*D47
 70
     1
 10
0.0
 20
0.0
 30
0.0
  3
*D47
  1

  0
LINE
  5
13EC
330
13EB
100
AcDbEntity
  8
DIM
 62
     0
370
    -2
100
AcDbLine
 10
10.94404029625357
 20
7.473252601971942
 30
0.0
 11
4.845937356247611
 21
7.473252601971944
 31
0.0
  0
LINE
  5
13ED
330
13EB
100
AcDbEntity
  8
DIM
 62
     0
370
    -2
100
AcDbLine
 10
11.26035723678983
 20
4.348252601971942
 30
0.0
 11
4.84593735624761
 21
4.348252601971944
 31
0.0
  0
LINE
  5
13EE
330
13EB
100
AcDbEntity
  8
DIM
 62
     0
370
    -2
100
AcDbLine
 10
5.02593735624761
 20
7.293252601971945
 30
0.0
 11
5.02593735624761
 21
6.090752601971944
 31
0.0
  0
LINE
  5
13EF
330
13EB
100
AcDbEntity
  8
DIM
 62
     0
370
    -2
100
AcDbLine
 10
5.025937356247609
 20
4.528252601971944
 30
0.0
 11
5.025937356247609
 21
5.730752601971945
 31
0.0
  0
SOLID
  5
13F0
330
13EB
100
AcDbEntity
  8
DIM
 62
     0
100
AcDbTrace
 10
4.99593735624761
 20
7.293252601971945
 30
0.0
 11
5.055937356247611
 21
7.293252601971945
 31
0.0
 12
5.02593735624761
 22
7.473252601971944
 32
0.0
 13
5.02593735624761
 23
7.473252601971944
 33
0.0
  0
SOLID
  5
13F1
330
13EB
100
AcDbEntity
  8
DIM
 62
     0
100
AcDbTrace
 10
4.995937356247609
 20
4.528252601971944
 30
0.0
 11
5.05593735624761
 21
4.528252601971944
 31
0.0
 12
5.025937356247609
 22
4.348252601971944
 32
0.0
 13
5.025937356247609
 23
4.348252601971944
 33
0.0
  0
MTEXT
  5
13F2
330
13EB
100
AcDbEntity
  8
DIM
 62
     0
100
AcDbMText
 10
5.025937356247609
 20
5.910752601971945
 30
0.0
 40
0.18
 41
0.0
 71
     5
 72
     1
  1
\A1;3.125
 73
     1
 44
1.0
  0
POINT
  5
13F3
330
13EB
100
AcDbEntity
  8
Defpoints
 62
     0
100
AcDbPoint
 10
11.00654029625357
 20
7.473252601971942
 30
0.0
  0
POINT
  5
13F4
330
13EB
100
AcDbEntity
  8
Defpoints
 62
     0
100
AcDbPoint
 10
11.32285723678982
 20
4.348252601971942
 30
0.0
  0
POINT
  5
13F5
330
13EB
100
AcDbEntity
  8
Defpoints
 62
     0
100
AcDbPoint
 10
5.025937356247609
 20
4.348252601971944
 30
0.0
  0
ENDBLK
  5
13F7
330
13EB
100
AcDbEntity
  8
0
100
AcDbBlockEnd
  0
BLOCK
  5
1404
330
13F9
100
AcDbEntity
  8
0
100
AcDbBlockBegin
  2
*D48
 70
     1
 10
0.0
 20
0.0
 30
0.0
  3
*D48
  1

  0
LINE
  5
13FA
330
13F9
100
AcDbEntity
  8
DIM
 62
     0
370
    -2
100
AcDbLine
 10
11.50654029625357
 20
4.088214985219465
 30
0.0
 11
11.50654029625357
 21
2.080373507265171
 31
0.0
  0
LINE
  5
13FB
330
13F9
100
AcDbEntity
  8
DIM
 62
     0
370
    -2
100
AcDbLine
 10
11.00654029625357
 20
2.660752601971942
 30
0.0
 11
11.00654029625357
 21
2.080373507265171
 31
0.0
  0
LINE
  5
13FC
330
13F9
100
AcDbEntity
  8
DIM
 62
     0
370
    -2
100
AcDbLine
 10
11.68654029625357
 20
2.260373507265171
 30
0.0
 11
11.86654029625357
 21
2.260373507265171
 31
0.0
  0
LINE
  5
13FD
330
13F9
100
AcDbEntity
  8
DIM
 62
     0
370
    -2
100
AcDbLine
 10
10.82654029625357
 20
2.260373507265171
 30
0.0
 11
10.64654029625357
 21
2.260373507265171
 31
0.0
  0
SOLID
  5
13FE
330
13F9
100
AcDbEntity
  8
DIM
 62
     0
100
AcDbTrace
 10
11.68654029625357
 20
2.290373507265171
 30
0.0
 11
11.68654029625357
 21
2.230373507265171
 31
0.0
 12
11.50654029625357
 22
2.260373507265171
 32
0.0
 13
11.50654029625357
 23
2.260373507265171
 33
0.0
  0
SOLID
  5
13FF
330
13F9
100
AcDbEntity
  8
DIM
 62
     0
100
AcDbTrace
 10
10.82654029625357
 20
2.290373507265171
 30
0.0
 11
10.82654029625357
 21
2.230373507265171
 31
0.0
 12
11.00654029625357
 22
2.260373507265171
 32
0.0
 13
11.00654029625357
 23
2.260373507265171
 33
0.0
  0
MTEXT
  5
1400
330
13F9
100
AcDbEntity
  8
DIM
 62
     0
100
AcDbMText
 10
10.24154029625357
 20
2.260373507265171
 30
0.0
 40
0.18
 41
0.0
 71
     5
 72
     1
  1
\A1;0.500
 73
     1
 44
1.0
  0
POINT
  5
1401
330
13F9
100
AcDbEntity
  8
Defpoints
 62
     0
100
AcDbPoint
 10
11.50654029625357
 20
4.150714985219465
 30
0.0
  0
POINT
  5
1402
330
13F9
100
AcDbEntity
  8
Defpoints
 62
     0
100
AcDbPoint
 10
11.00654029625357
 20
2.723252601971942
 30
0.0
  0
POINT
  5
1403
330
13F9
100
AcDbEntity
  8
Defpoints
 62
     0
100
AcDbPoint
 10
11.00654029625357
 20
2.260373507265171
 30
0.0
  0
ENDBLK
  5
1405
330
13F9
100
AcDbEntity
  8
0
100
AcDbBlockEnd
  0
BLOCK
  5
1412
330
1407
100
AcDbEntity
  8
0
100
AcDbBlockBegin
  2
*D49
 70
     1
 10
0.0
 20
0.0
 30
0.0
  3
*D49
  1

  0
LINE
  5
1408
330
1407
100
AcDbEntity
  8
DIM
 62
     0
370
    -2
100
AcDbLine
 10
12.00654029625357
 20
4.088214985219465
 30
0.0
 11
12.00654029625357
 21
1.538342473023518
 31
0.0
  0
LINE
  5
1409
330
1407
100
AcDbEntity
  8
DIM
 62
     0
370
    -2
100
AcDbLine
 10
11.00654029625357
 20
2.660752601971942
 30
0.0
 11
11.00654029625357
 21
1.538342473023518
 31
0.0
  0
LINE
  5
140A
330
1407
100
AcDbEntity
  8
DIM
 62
     0
370
    -2
100
AcDbLine
 10
12.18654029625357
 20
1.718342473023518
 30
0.0
 11
12.36654029625357
 21
1.718342473023518
 31
0.0
  0
LINE
  5
140B
330
1407
100
AcDbEntity
  8
DIM
 62
     0
370
    -2
100
AcDbLine
 10
10.82654029625357
 20
1.718342473023518
 30
0.0
 11
10.64654029625357
 21
1.718342473023518
 31
0.0
  0
SOLID
  5
140C
330
1407
100
AcDbEntity
  8
DIM
 62
     0
100
AcDbTrace
 10
12.18654029625357
 20
1.748342473023518
 30
0.0
 11
12.18654029625357
 21
1.688342473023518
 31
0.0
 12
12.00654029625357
 22
1.718342473023518
 32
0.0
 13
12.00654029625357
 23
1.718342473023518
 33
0.0
  0
SOLID
  5
140D
330
1407
100
AcDbEntity
  8
DIM
 62
     0
100
AcDbTrace
 10
10.82654029625357
 20
1.748342473023518
 30
0.0
 11
10.82654029625357
 21
1.688342473023518
 31
0.0
 12
11.00654029625357
 22
1.718342473023518
 32
0.0
 13
11.00654029625357
 23
1.718342473023518
 33
0.0
  0
MTEXT
  5
140E
330
1407
100
AcDbEntity
  8
DIM
 62
     0
100
AcDbMText
 10
10.27154029625357
 20
1.718342473023518
 30
0.0
 40
0.18
 41
0.0
 71
     5
 72
     1
  1
\A1;1.000
 73
     1
 44
1.0
  0
POINT
  5
140F
330
1407
100
AcDbEntity
  8
Defpoints
 62
     0
100
AcDbPoint
 10
12.00654029625357
 20
4.150714985219465
 30
0.0
  0
POINT
  5
1410
330
1407
100
AcDbEntity
  8
Defpoints
 62
     0
100
AcDbPoint
 10
11.00654029625357
 20
2.723252601971942
 30
0.0
  0
POINT
  5
1411
330
1407
100
AcDbEntity
  8
Defpoints
 62
     0
100
AcDbPoint
 10
11.00654029625357
 20
1.718342473023518
 30
0.0
  0
ENDBLK
  5
1413
330
1407
100
AcDbEntity
  8
0
100
AcDbBlockEnd
  0
ENDSEC
  0
SECTION
  2
ENTITIES
  0
INSERT
  5
156
330
1F
100
AcDbEntity
  8
0
100
AcDbBlockReference
 66
     1
  2
d-border
 10
0.0
 20
0.0
 30
0.0
  0
ATTRIB
  5
157
330
156
100
AcDbEntity
  8
TEXT
100
AcDbText
 10
26.4087
 20
0.8153
 30
0.0
 40
0.06
  1
07-28-03
100
AcDbAttribute
  2
DATE
 70
     0
  0
ATTRIB
  5
158
330
156
100
AcDbEntity
  8
TEXT
100
AcDbText
 10
25.4066
 20
0.8516999999999999
 30
0.0
 40
0.12
  1
S. KYRE
100
AcDbAttribute
  2
NAME
 70
     0
  0
ATTRIB
  5
159
330
156
100
AcDbEntity
  8
TEXT
100
AcDbText
 10
27.3318
 20
0.1839
 30
0.0
 40
0.12
  1
1=1
100
AcDbAttribute
  2
SCALE
 70
     0
  0
ATTRIB
  5
15A
330
156
100
AcDbEntity
  8
TEXT
100
AcDbText
 10
28.97149999999999
 20
0.4692000000000001
 30
0.0
 40
0.12
  1
mod-flip-rp-02
100
AcDbAttribute
  2
FILE
 70
     0
  0
ATTRIB
  5
15B
330
156
100
AcDbEntity
  8
TEXT
100
AcDbText
 10
27.3257
 20
0.4571
 30
0.0
 40
0.12
  1
ROD
100
AcDbAttribute
  2
DIRECTORY
 70
     0
  0
SEQEND
  5
15C
330
156
100
AcDbEntity
  8
0
  0
LWPOLYLINE
  5
1BE
330
1F
100
AcDbEntity
  8
handle
100
AcDbPolyline
 90
        4
 70
     1
 43
0.0
 10
11.00654028226019
 20
13.74854077459912
 10
21.00654028226018
 20
13.74854077459912
 10
21.00654028226018
 20
14.24854077459912
 10
11.00654028226019
 20
14.24854077459912
  0
MTEXT
  5
26B
330
1F
100
AcDbEntity
  8
TEXT
100
AcDbMText
 10
29.01322061769021
 20
1.091500946102673
 30
0.0
 40
0.12
 41
4.271799999999999
 71
     5
 72
     5
  1
VACUUM FLIP TOOL FOR R-PHI MODULE
 73
     1
 44
1.0
  0
MTEXT
  5
26C
330
1F
100
AcDbEntity
  8
TEXT
100
AcDbMText
 10
2.955471519754794
 20
17.17420895270346
 30
0.0
 40
0.2
 41
7.736487591074975
 71
     1
 72
     5
  1
MATERIAL: 1/2" THICK STATIC DISSIPATIVE CAST ACRYLIC\P1 EA. REQUIRED
 73
     1
 44
1.0
  0
DIMENSION
  5
2A6
330
1F
100
AcDbEntity
  8
DIM
100
AcDbDimension
  2
*D5
 10
22.42228861275541
 20
14.24854077459912
 30
0.0
 11
23.00728861275541
 21
14.60854077459912
 31
0.0
 70
   160
 71
     5
 42
0.5
  3
SU1
100
AcDbAlignedDimension
 13
21.00654028226018
 23
13.74854077459912
 33
0.0
 14
21.00654028226018
 24
14.24854077459912
 34
0.0
 50
90.0
100
AcDbRotatedDimension
  0
DIMENSION
  5
60F
330
1F
100
AcDbEntity
  8
DIM
100
AcDbDimension
  2
*D6
 10
19.70994038959427
 20
5.885104300056993
 30
0.0
 11
23.37885910279573
 21
11.35903244309788
 31
0.0
 70
   163
  1
10-32 TAP THRU\P16X
 71
     5
 42
0.1899999999999853
  3
SU1$3
100
AcDbDiametricDimension
 15
19.78117948740187
 25
6.061243423886861
 35
0.0
 40
0.0
  0
INSERT
  5
75B
330
1F
100
AcDbEntity
  8
vacuum-cup
100
AcDbBlockReference
  2
vac-cup-5-top
 10
14.73901964224449
 20
8.249921259999998
 30
0.0
  0
INSERT
  5
75C
330
1F
100
AcDbEntity
  8
vacuum-cup
100
AcDbBlockReference
  2
vac-cup-5-top
 10
16.4890196422445
 20
8.249921259999998
 30
0.0
 41
-1.0
  0
LINE
  5
75D
330
1F
100
AcDbEntity
  8
CENTER
100
AcDbLine
 10
18.87055993849807
 20
5.848173861971941
 30
0.0
 11
18.87055993849807
 21
6.348173861971941
 31
0.0
  0
CIRCLE
  5
75E
330
1F
100
AcDbEntity
  8
POST
100
AcDbCircle
 10
18.87055993849807
 20
6.098173861971941
 30
0.0
 40
0.1875
  0
CIRCLE
  5
75F
330
1F
100
AcDbEntity
  8
POST
100
AcDbCircle
 10
18.87055993849807
 20
6.098173861971941
 30
0.0
 40
0.1105
  0
INSERT
  5
761
330
1F
100
AcDbEntity
  8
handle
100
AcDbBlockReference
  2
10-32-THREAD
 10
17.99555993849807
 20
5.973173861971941
 30
0.0
  0
INSERT
  5
762
330
1F
100
AcDbEntity
  8
handle
100
AcDbBlockReference
  2
10-32-THREAD
 10
19.74555993849807
 20
5.973173861971941
 30
0.0
  0
INSERT
  5
767
330
1F
100
AcDbEntity
  8
handle
100
AcDbBlockReference
  2
10-32-THREAD
 10
16.02060675849807
 20
5.973173861971941
 30
0.0
  0
INSERT
  5
768
330
1F
100
AcDbEntity
  8
handle
100
AcDbBlockReference
  2
10-32-THREAD
 10
14.27060675849807
 20
5.973173861971941
 30
0.0
  0
CIRCLE
  5
76A
330
1F
100
AcDbEntity
  8
POST
100
AcDbCircle
 10
15.14560675849807
 20
6.098173861971941
 30
0.0
 40
0.1105
  0
LINE
  5
76B
330
1F
100
AcDbEntity
  8
CENTER
100
AcDbLine
 10
15.14560675849807
 20
5.848173861971941
 30
0.0
 11
15.14560675849807
 21
6.348173861971941
 31
0.0
  0
CIRCLE
  5
76C
330
1F
100
AcDbEntity
  8
POST
100
AcDbCircle
 10
15.14560675849807
 20
6.098173861971941
 30
0.0
 40
0.1875
  0
INSERT
  5
76D
330
1F
100
AcDbEntity
  8
vacuum-cup
100
AcDbBlockReference
  2
vac-cup-5-top
 10
12.7640664622445
 20
8.249921259999998
 30
0.0
 41
-1.0
  0
INSERT
  5
76E
330
1F
100
AcDbEntity
  8
vacuum-cup
100
AcDbBlockReference
  2
vac-cup-5-top
 10
11.0140664622445
 20
8.249921259999998
 30
0.0
  0
LWPOLYLINE
  5
76F
330
1F
100
AcDbEntity
  8
handle
100
AcDbPolyline
 90
        4
 70
     1
 43
0.0
 10
11.00654029625357
 20
7.473252601971942
 10
21.00654029625357
 20
7.473252601971942
 10
21.00654029625357
 20
2.723252601971942
 10
11.00654029625357
 20
2.723252601971942
  0
ARC
  5
773
330
1F
100
AcDbEntity
  8
downstop
100
AcDbCircle
 10
8.475963052244516
 20
5.268705
 30
0.0
 40
0.1875
100
AcDbArc
 50
90.0
 51
270.0
  0
ARC
  5
774
330
1F
100
AcDbEntity
  8
downstop
100
AcDbCircle
 10
8.475963052244516
 20
5.268705
 30
0.0
 40
0.09375
100
AcDbArc
 50
90.0
 51
270.0
  0
INSERT
  5
775
330
1F
100
AcDbEntity
  8
vacuum-cup
100
AcDbBlockReference
  2
vac-cup-5-top
 10
8.730883802244505
 20
5.268547520000009
 30
0.0
  0
LINE
  5
777
330
1F
100
AcDbEntity
  8
downstop
100
AcDbLine
 10
8.475963052244516
 20
5.174955
 30
0.0
 11
8.475963052244516
 21
5.081205
 31
0.0
  0
INSERT
  5
779
330
1F
100
AcDbEntity
  8
handle
100
AcDbBlockReference
  2
10-32-THREAD
 10
14.27060675849807
 20
4.223173861971941
 30
0.0
  0
LINE
  5
77B
330
1F
100
AcDbEntity
  8
CENTER
100
AcDbLine
 10
13.89560675849807
 20
5.098173861971941
 30
0.0
 11
14.39560675849807
 21
5.098173861971941
 31
0.0
  0
CIRCLE
  5
77C
330
1F
100
AcDbEntity
  8
POST
100
AcDbCircle
 10
14.14560675849807
 20
5.098173861971941
 30
0.0
 40
0.1875
  0
INSERT
  5
77D
330
1F
100
AcDbEntity
  8
vacuum-cup
100
AcDbBlockReference
  2
vac-cup-5-top
 10
11.0140664622445
 20
6.499921259999998
 30
0.0
 41
-1.0
 50
180.0
  0
LINE
  5
77E
330
1F
100
AcDbEntity
  8
downstop
100
AcDbLine
 10
8.475963052244516
 20
5.362455
 30
0.0
 11
8.475963052244516
 21
5.456205
 31
0.0
  0
LINE
  5
780
330
1F
100
AcDbEntity
  8
CENTER
100
AcDbLine
 10
14.14560675849807
 20
5.348173861971941
 30
0.0
 11
14.14560675849807
 21
4.848173861971941
 31
0.0
  0
CIRCLE
  5
781
330
1F
100
AcDbEntity
  8
POST
100
AcDbCircle
 10
14.14560675849807
 20
5.098173861971941
 30
0.0
 40
0.1105
  0
LINE
  5
782
330
1F
100
AcDbEntity
  8
CENTER
100
AcDbLine
 10
14.89560675849807
 20
4.098173861971941
 30
0.0
 11
15.39560675849807
 21
4.098173861971941
 31
0.0
  0
CIRCLE
  5
784
330
1F
100
AcDbEntity
  8
POST
100
AcDbCircle
 10
15.14560675849807
 20
4.098173861971941
 30
0.0
 40
0.1105
  0
LINE
  5
785
330
1F
100
AcDbEntity
  8
CENTER
100
AcDbLine
 10
15.14560675849807
 20
4.348173861971941
 30
0.0
 11
15.14560675849807
 21
3.848173861971941
 31
0.0
  0
CIRCLE
  5
786
330
1F
100
AcDbEntity
  8
POST
100
AcDbCircle
 10
15.14560675849807
 20
4.098173861971941
 30
0.0
 40
0.1875
  0
INSERT
  5
788
330
1F
100
AcDbEntity
  8
handle
100
AcDbBlockReference
  2
10-32-THREAD
 10
16.02060675849807
 20
4.223173861971941
 30
0.0
  0
INSERT
  5
789
330
1F
100
AcDbEntity
  8
vacuum-cup
100
AcDbBlockReference
  2
vac-cup-5-top
 10
12.7640664622445
 20
6.499921259999998
 30
0.0
 50
180.0
  0
LINE
  5
78B
330
1F
100
AcDbEntity
  8
CENTER
100
AcDbLine
 10
16.14560675849807
 20
5.348173861971941
 30
0.0
 11
16.14560675849807
 21
4.848173861971941
 31
0.0
  0
CIRCLE
  5
78C
330
1F
100
AcDbEntity
  8
POST
100
AcDbCircle
 10
16.14560675849807
 20
5.098173861971941
 30
0.0
 40
0.1875
  0
CIRCLE
  5
78D
330
1F
100
AcDbEntity
  8
POST
100
AcDbCircle
 10
16.14560675849807
 20
5.098173861971941
 30
0.0
 40
0.1105
  0
LINE
  5
78E
330
1F
100
AcDbEntity
  8
CENTER
100
AcDbLine
 10
16.39560675849807
 20
5.098173861971941
 30
0.0
 11
15.89560675849807
 21
5.098173861971941
 31
0.0
  0
INSERT
  5
790
330
1F
100
AcDbEntity
  8
vacuum-cup
100
AcDbBlockReference
  2
vac-cup-5-top
 10
14.73901964224449
 20
6.499921259999998
 30
0.0
 41
-1.0
 50
180.0
  0
INSERT
  5
791
330
1F
100
AcDbEntity
  8
handle
100
AcDbBlockReference
  2
10-32-THREAD
 10
17.99555993849807
 20
4.223173861971941
 30
0.0
  0
CIRCLE
  5
794
330
1F
100
AcDbEntity
  8
POST
100
AcDbCircle
 10
18.87055993849807
 20
4.098173861971941
 30
0.0
 40
0.1875
  0
CIRCLE
  5
795
330
1F
100
AcDbEntity
  8
POST
100
AcDbCircle
 10
18.87055993849807
 20
4.098173861971941
 30
0.0
 40
0.1105
  0
LINE
  5
796
330
1F
100
AcDbEntity
  8
CENTER
100
AcDbLine
 10
18.62055993849807
 20
4.098173861971941
 30
0.0
 11
19.12055993849807
 21
4.098173861971941
 31
0.0
  0
LINE
  5
797
330
1F
100
AcDbEntity
  8
CENTER
100
AcDbLine
 10
18.87055993849807
 20
4.348173861971941
 30
0.0
 11
18.87055993849807
 21
3.848173861971941
 31
0.0
  0
LINE
  5
798
330
1F
100
AcDbEntity
  8
CENTER
100
AcDbLine
 10
17.87055993849807
 20
5.348173861971941
 30
0.0
 11
17.87055993849807
 21
4.848173861971941
 31
0.0
  0
CIRCLE
  5
799
330
1F
100
AcDbEntity
  8
POST
100
AcDbCircle
 10
17.87055993849807
 20
5.098173861971941
 30
0.0
 40
0.1875
  0
CIRCLE
  5
79B
330
1F
100
AcDbEntity
  8
POST
100
AcDbCircle
 10
17.87055993849807
 20
5.098173861971941
 30
0.0
 40
0.1105
  0
CIRCLE
  5
79D
330
1F
100
AcDbEntity
  8
downstop
100
AcDbCircle
 10
17.29484305224449
 20
5.268547520000007
 30
0.0
 40
0.043
  0
CIRCLE
  5
79E
330
1F
100
AcDbEntity
  8
downstop
100
AcDbCircle
 10
17.29484305224449
 20
5.268547520000007
 30
0.0
 40
0.125
  0
INSERT
  5
79F
330
1F
100
AcDbEntity
  8
vacuum-cup
100
AcDbBlockReference
  2
vac-cup-5-top
 10
16.4890196422445
 20
6.499921259999998
 30
0.0
 50
180.0
  0
INSERT
  5
7A0
330
1F
100
AcDbEntity
  8
handle
100
AcDbBlockReference
  2
10-32-THREAD
 10
19.74555993849807
 20
4.223173861971941
 30
0.0
  0
LINE
  5
7A2
330
1F
100
AcDbEntity
  8
CENTER
100
AcDbLine
 10
19.87055993849807
 20
5.348173861971941
 30
0.0
 11
19.87055993849807
 21
4.848173861971941
 31
0.0
  0
CIRCLE
  5
7A3
330
1F
100
AcDbEntity
  8
POST
100
AcDbCircle
 10
19.87055993849807
 20
5.098173861971941
 30
0.0
 40
0.1875
  0
LINE
  5
7A6
330
1F
100
AcDbEntity
  8
CENTER
100
AcDbLine
 10
20.12055993849807
 20
5.098173861971941
 30
0.0
 11
19.62055993849807
 21
5.098173861971941
 31
0.0
  0
CIRCLE
  5
7A7
330
1F
100
AcDbEntity
  8
POST
100
AcDbCircle
 10
19.87055993849807
 20
5.098173861971941
 30
0.0
 40
0.1105
  0
ARC
  5
7AB
330
1F
100
AcDbEntity
  8
downstop
100
AcDbCircle
 10
8.475963052244516
 20
9.481294999999988
 30
0.0
 40
0.09375
100
AcDbArc
 50
90.0
 51
270.0
  0
ARC
  5
7AC
330
1F
100
AcDbEntity
  8
downstop
100
AcDbCircle
 10
8.475963052244516
 20
9.481294999999988
 30
0.0
 40
0.1875
100
AcDbArc
 50
90.0
 51
270.0
  0
CIRCLE
  5
7AD
330
1F
100
AcDbEntity
  8
downstop
100
AcDbCircle
 10
9.066513052244513
 20
9.481294999999988
 30
0.0
 40
0.125
  0
INSERT
  5
7AF
330
1F
100
AcDbEntity
  8
vacuum-cup
100
AcDbBlockReference
  2
vac-cup-5-top
 10
8.730883802244505
 20
9.481137519999997
 30
0.0
  0
LINE
  5
7B2
330
1F
100
AcDbEntity
  8
downstop
100
AcDbLine
 10
8.475963052244516
 20
9.575044999999988
 30
0.0
 11
8.475963052244516
 21
9.668794999999988
 31
0.0
  0
LINE
  5
7B3
330
1F
100
AcDbEntity
  8
downstop
100
AcDbLine
 10
8.475963052244516
 20
9.387544999999988
 30
0.0
 11
8.475963052244516
 21
9.293794999999988
 31
0.0
  0
CIRCLE
  5
7B4
330
1F
100
AcDbEntity
  8
downstop
100
AcDbCircle
 10
9.066513052244513
 20
9.481294999999988
 30
0.0
 40
0.02345
  0
LINE
  5
7B5
330
1F
100
AcDbEntity
  8
CENTER
100
AcDbLine
 10
14.89560675849807
 20
6.098173861971941
 30
0.0
 11
15.39560675849807
 21
6.098173861971941
 31
0.0
  0
LINE
  5
7B6
330
1F
100
AcDbEntity
  8
CENTER
100
AcDbLine
 10
18.62055993849807
 20
6.098173861971941
 30
0.0
 11
19.12055993849807
 21
6.098173861971941
 31
0.0
  0
INSERT
  5
7B9
330
1F
100
AcDbEntity
  8
handle
100
AcDbBlockReference
  2
10-32-THREAD
 10
11.98742409849808
 20
2.991800121971952
 30
0.0
  0
INSERT
  5
7BA
330
1F
100
AcDbEntity
  8
handle
100
AcDbBlockReference
  2
10-32-THREAD
 10
11.98742409849808
 20
7.20439012197194
 30
0.0
  0
INSERT
  5
80A
330
1F
100
AcDbEntity
  8
handle
100
AcDbBlockReference
  2
10-32-THREAD
 10
19.74555993849807
 20
16.62507874
 30
0.0
 41
-1.0
 50
180.0
  0
INSERT
  5
80B
330
1F
100
AcDbEntity
  8
vacuum-cup
100
AcDbBlockReference
  2
vac-cup-5-top
 10
16.4890196422445
 20
14.75007874
 30
0.0
 50
180.0
  0
LINE
  5
80C
330
1F
100
AcDbEntity
  8
CENTER
100
AcDbLine
 10
20.12055993849807
 20
17.50007874
 30
0.0
 11
19.62055993849807
 21
17.50007874
 31
0.0
  0
INSERT
  5
810
330
1F
100
AcDbEntity
  8
handle
100
AcDbBlockReference
  2
10-32-THREAD
 10
19.74555993849807
 20
18.37507873999999
 30
0.0
 41
-1.0
 50
180.0
  0
INSERT
  5
811
330
1F
100
AcDbEntity
  8
vacuum-cup
100
AcDbBlockReference
  2
vac-cup-5-top
 10
16.4890196422445
 20
16.50007873999999
 30
0.0
 41
-1.0
  0
LWPOLYLINE
  5
812
330
1F
100
AcDbEntity
  8
handle
100
AcDbPolyline
 90
        4
 70
     1
 43
0.0
 10
11.00654029625357
 20
15.125
 10
21.00654029625357
 20
15.125
 10
21.00654029625357
 20
19.875
 10
11.00654029625357
 20
19.875
  0
LINE
  5
813
330
1F
100
AcDbEntity
  8
CENTER
100
AcDbLine
 10
14.14560675849807
 20
17.25007874
 30
0.0
 11
14.14560675849807
 21
17.75007873999999
 31
0.0
  0
INSERT
  5
816
330
1F
100
AcDbEntity
  8
vacuum-cup
100
AcDbBlockReference
  2
vac-cup-5-top
 10
8.730883802244505
 20
17.73145247999999
 30
0.0
 41
-1.0
 50
180.0
  0
INSERT
  5
817
330
1F
100
AcDbEntity
  8
handle
100
AcDbBlockReference
  2
10-32-THREAD
 10
11.98742409849808
 20
19.60645247999999
 30
0.0
 41
-1.0
 50
180.0
  0
LINE
  5
818
330
1F
100
AcDbEntity
  8
downstop
100
AcDbLine
 10
8.475963052244516
 20
17.82504499999999
 30
0.0
 11
8.475963052244516
 21
17.918795
 31
0.0
  0
ARC
  5
819
330
1F
100
AcDbEntity
  8
downstop
100
AcDbCircle
 10
8.475963052244516
 20
17.731295
 30
0.0
 40
0.1875
100
AcDbArc
 50
90.00000000000003
 51
270.0
  0
LINE
  5
81A
330
1F
100
AcDbEntity
  8
CENTER
100
AcDbLine
 10
11.73250334849809
 20
19.36514219306656
 30
0.0
 11
11.73250334849809
 21
19.86837346410143
 31
0.0
  0
LINE
  5
81C
330
1F
100
AcDbEntity
  8
CENTER
100
AcDbLine
 10
11.47565295206099
 20
19.60629499999999
 30
0.0
 11
11.82588302720161
 21
19.60629499999999
 31
0.0
  0
ARC
  5
81D
330
1F
100
AcDbEntity
  8
downstop
100
AcDbCircle
 10
8.475963052244516
 20
17.731295
 30
0.0
 40
0.09375
100
AcDbArc
 50
90.00000000000003
 51
270.0
  0
LINE
  5
81E
330
1F
100
AcDbEntity
  8
downstop
100
AcDbLine
 10
8.475963052244516
 20
17.637545
 30
0.0
 11
8.475963052244516
 21
17.54379499999999
 31
0.0
  0
INSERT
  5
81F
330
1F
100
AcDbEntity
  8
vacuum-cup
100
AcDbBlockReference
  2
vac-cup-5-top
 10
11.0140664622445
 20
16.50007873999999
 30
0.0
  0
INSERT
  5
820
330
1F
100
AcDbEntity
  8
handle
100
AcDbBlockReference
  2
10-32-THREAD
 10
14.27060675849807
 20
18.37507873999999
 30
0.0
 41
-1.0
 50
180.0
  0
INSERT
  5
822
330
1F
100
AcDbEntity
  8
vacuum-cup
100
AcDbBlockReference
  2
vac-cup-5-top
 10
8.730883802244505
 20
13.51886248
 30
0.0
 41
-1.0
 50
180.0
  0
INSERT
  5
823
330
1F
100
AcDbEntity
  8
handle
100
AcDbBlockReference
  2
10-32-THREAD
 10
11.98742409849808
 20
15.39386248
 30
0.0
 41
-1.0
 50
180.0
  0
LINE
  5
828
330
1F
100
AcDbEntity
  8
CENTER
100
AcDbLine
 10
11.73250334849809
 20
15.15255219306657
 30
0.0
 11
11.73250334849809
 21
15.65578346410144
 31
0.0
  0
ARC
  5
829
330
1F
100
AcDbEntity
  8
downstop
100
AcDbCircle
 10
8.475963052244516
 20
13.51870500000001
 30
0.0
 40
0.09375
100
AcDbArc
 50
90.00000000000003
 51
270.0
  0
LINE
  5
82B
330
1F
100
AcDbEntity
  8
CENTER
100
AcDbLine
 10
11.47565295206099
 20
15.39370500000001
 30
0.0
 11
11.82588302720161
 21
15.39370500000001
 31
0.0
  0
ARC
  5
82C
330
1F
100
AcDbEntity
  8
downstop
100
AcDbCircle
 10
8.475963052244516
 20
13.51870500000001
 30
0.0
 40
0.1875
100
AcDbArc
 50
90.00000000000003
 51
270.0
  0
LINE
  5
82D
330
1F
100
AcDbEntity
  8
downstop
100
AcDbLine
 10
8.475963052244516
 20
13.42495500000001
 30
0.0
 11
8.475963052244516
 21
13.33120500000001
 31
0.0
  0
LINE
  5
82E
330
1F
100
AcDbEntity
  8
downstop
100
AcDbLine
 10
8.475963052244516
 20
13.61245500000001
 30
0.0
 11
8.475963052244516
 21
13.70620500000001
 31
0.0
  0
LINE
  5
82F
330
1F
100
AcDbEntity
  8
CENTER
100
AcDbLine
 10
13.89560675849807
 20
17.50007874
 30
0.0
 11
14.39560675849807
 21
17.50007874
 31
0.0
  0
CIRCLE
  5
830
330
1F
100
AcDbEntity
  8
POST
100
AcDbCircle
 10
14.14560675849807
 20
17.50007874
 30
0.0
 40
0.1105
  0
INSERT
  5
831
330
1F
100
AcDbEntity
  8
vacuum-cup
100
AcDbBlockReference
  2
vac-cup-5-top
 10
11.0140664622445
 20
14.75007874
 30
0.0
 41
-1.0
 50
180.0
  0
INSERT
  5
832
330
1F
100
AcDbEntity
  8
handle
100
AcDbBlockReference
  2
10-32-THREAD
 10
14.27060675849807
 20
16.62507874
 30
0.0
 41
-1.0
 50
180.0
  0
CIRCLE
  5
834
330
1F
100
AcDbEntity
  8
downstop
100
AcDbCircle
 10
9.066513052244513
 20
13.51870500000001
 30
0.0
 40
0.02345
  0
CIRCLE
  5
836
330
1F
100
AcDbEntity
  8
downstop
100
AcDbCircle
 10
9.066513052244513
 20
13.51870500000001
 30
0.0
 40
0.125
  0
LINE
  5
839
330
1F
100
AcDbEntity
  8
CENTER
100
AcDbLine
 10
17.87055993849807
 20
17.25007874
 30
0.0
 11
17.87055993849807
 21
17.75007873999999
 31
0.0
  0
LINE
  5
83C
330
1F
100
AcDbEntity
  8
CENTER
100
AcDbLine
 10
16.14560675849807
 20
17.25007874
 30
0.0
 11
16.14560675849807
 21
17.75007873999999
 31
0.0
  0
INSERT
  5
83F
330
1F
100
AcDbEntity
  8
vacuum-cup
100
AcDbBlockReference
  2
vac-cup-5-top
 10
12.7640664622445
 20
16.50007873999999
 30
0.0
 41
-1.0
  0
INSERT
  5
840
330
1F
100
AcDbEntity
  8
handle
100
AcDbBlockReference
  2
10-32-THREAD
 10
16.02060675849807
 20
18.37507873999999
 30
0.0
 41
-1.0
 50
180.0
  0
CIRCLE
  5
842
330
1F
100
AcDbEntity
  8
POST
100
AcDbCircle
 10
15.14560675849807
 20
18.50007874
 30
0.0
 40
0.1105
  0
LINE
  5
845
330
1F
100
AcDbEntity
  8
CENTER
100
AcDbLine
 10
15.14560675849807
 20
18.25007873999999
 30
0.0
 11
15.14560675849807
 21
18.75007873999999
 31
0.0
  0
LINE
  5
846
330
1F
100
AcDbEntity
  8
CENTER
100
AcDbLine
 10
14.89560675849807
 20
18.50007874
 30
0.0
 11
15.39560675849807
 21
18.50007874
 31
0.0
  0
INSERT
  5
848
330
1F
100
AcDbEntity
  8
handle
100
AcDbBlockReference
  2
10-32-THREAD
 10
17.99555993849807
 20
18.37507873999999
 30
0.0
 41
-1.0
 50
180.0
  0
INSERT
  5
849
330
1F
100
AcDbEntity
  8
vacuum-cup
100
AcDbBlockReference
  2
vac-cup-5-top
 10
14.73901964224449
 20
16.50007873999999
 30
0.0
  0
CIRCLE
  5
84A
330
1F
100
AcDbEntity
  8
POST
100
AcDbCircle
 10
18.87055993849807
 20
18.50007874
 30
0.0
 40
0.1105
  0
LINE
  5
84B
330
1F
100
AcDbEntity
  8
CENTER
100
AcDbLine
 10
18.87055993849807
 20
18.25007873999999
 30
0.0
 11
18.87055993849807
 21
18.75007873999999
 31
0.0
  0
LINE
  5
84E
330
1F
100
AcDbEntity
  8
CENTER
100
AcDbLine
 10
18.62055993849807
 20
18.50007874
 30
0.0
 11
19.12055993849807
 21
18.50007874
 31
0.0
  0
INSERT
  5
84F
330
1F
100
AcDbEntity
  8
vacuum-cup
100
AcDbBlockReference
  2
vac-cup-5-top
 10
12.7640664622445
 20
14.75007874
 30
0.0
 50
180.0
  0
INSERT
  5
850
330
1F
100
AcDbEntity
  8
handle
100
AcDbBlockReference
  2
10-32-THREAD
 10
16.02060675849807
 20
16.62507874
 30
0.0
 41
-1.0
 50
180.0
  0
CIRCLE
  5
852
330
1F
100
AcDbEntity
  8
POST
100
AcDbCircle
 10
15.14560675849807
 20
16.50007873999999
 30
0.0
 40
0.1105
  0
LINE
  5
853
330
1F
100
AcDbEntity
  8
CENTER
100
AcDbLine
 10
14.89560675849807
 20
16.50007873999999
 30
0.0
 11
15.39560675849807
 21
16.50007873999999
 31
0.0
  0
LINE
  5
856
330
1F
100
AcDbEntity
  8
CENTER
100
AcDbLine
 10
15.14560675849807
 20
16.75007874
 30
0.0
 11
15.14560675849807
 21
16.25007874
 31
0.0
  0
LINE
  5
857
330
1F
100
AcDbEntity
  8
CENTER
100
AcDbLine
 10
16.39560675849807
 20
17.50007874
 30
0.0
 11
15.89560675849807
 21
17.50007874
 31
0.0
  0
CIRCLE
  5
858
330
1F
100
AcDbEntity
  8
POST
100
AcDbCircle
 10
16.14560675849807
 20
17.50007874
 30
0.0
 40
0.1105
  0
CIRCLE
  5
859
330
1F
100
AcDbEntity
  8
POST
100
AcDbCircle
 10
17.87055993849807
 20
17.50007874
 30
0.0
 40
0.1105
  0
INSERT
  5
85B
330
1F
100
AcDbEntity
  8
handle
100
AcDbBlockReference
  2
10-32-THREAD
 10
17.99555993849807
 20
16.62507874
 30
0.0
 41
-1.0
 50
180.0
  0
INSERT
  5
85C
330
1F
100
AcDbEntity
  8
vacuum-cup
100
AcDbBlockReference
  2
vac-cup-5-top
 10
14.73901964224449
 20
14.75007874
 30
0.0
 41
-1.0
 50
180.0
  0
LINE
  5
85D
330
1F
100
AcDbEntity
  8
CENTER
100
AcDbLine
 10
18.62055993849807
 20
16.50007873999999
 30
0.0
 11
19.12055993849807
 21
16.50007873999999
 31
0.0
  0
CIRCLE
  5
85E
330
1F
100
AcDbEntity
  8
POST
100
AcDbCircle
 10
18.87055993849807
 20
16.50007873999999
 30
0.0
 40
0.1105
  0
LINE
  5
861
330
1F
100
AcDbEntity
  8
CENTER
100
AcDbLine
 10
18.87055993849807
 20
16.75007874
 30
0.0
 11
18.87055993849807
 21
16.25007874
 31
0.0
  0
LINE
  5
862
330
1F
100
AcDbEntity
  8
CENTER
100
AcDbLine
 10
19.87055993849807
 20
17.25007874
 30
0.0
 11
19.87055993849807
 21
17.75007873999999
 31
0.0
  0
CIRCLE
  5
864
330
1F
100
AcDbEntity
  8
downstop
100
AcDbCircle
 10
17.29484305224449
 20
17.73145247999999
 30
0.0
 40
0.125
  0
CIRCLE
  5
867
330
1F
100
AcDbEntity
  8
downstop
100
AcDbCircle
 10
17.29484305224449
 20
17.73145247999999
 30
0.0
 40
0.043
  0
CIRCLE
  5
86C
330
1F
100
AcDbEntity
  8
POST
100
AcDbCircle
 10
19.87055993849807
 20
17.50007874
 30
0.0
 40
0.1105
  0
DIMENSION
  5
87C
330
1F
100
AcDbEntity
  8
DIM
100
AcDbDimension
  2
*D8
 10
11.00654029625357
 20
7.725707052010456
 30
0.0
 11
10.21154029625357
 21
7.725707052010456
 31
0.0
 70
    32
 71
     5
 42
0.7259630522445164
  3
SU1
100
AcDbAlignedDimension
 13
11.73250334849809
 23
7.338234862218527
 33
0.0
 14
11.00654029625357
 24
7.473252601971942
 34
0.0
100
AcDbRotatedDimension
  0
DIMENSION
  5
88A
330
1F
100
AcDbEntity
  8
DIM
100
AcDbDimension
  2
*D9
 10
11.00654029625357
 20
8.511868455806926
 30
0.0
 11
10.24154029625357
 21
8.511868455806926
 31
0.0
 70
    32
 71
     5
 42
0.9808838022445058
  3
SU1
100
AcDbAlignedDimension
 13
11.98742409849808
 23
7.398819777116941
 33
0.0
 14
11.00654029625357
 24
7.473252601971942
 34
0.0
100
AcDbRotatedDimension
  0
DIMENSION
  5
8B4
330
1F
100
AcDbEntity
  8
DIM
100
AcDbDimension
  2
*D10
 10
11.00654029625357
 20
8.919807826358962
 30
0.0
 11
12.57607352737582
 21
8.919807826358962
 31
0.0
 70
    32
 71
     5
 42
3.1390664622445
  3
SU1
100
AcDbAlignedDimension
 13
14.14560675849807
 23
5.348173861971941
 33
0.0
 14
11.00654029625357
 24
7.473252601971942
 34
0.0
100
AcDbRotatedDimension
  0
DIMENSION
  5
8F4
330
1F
100
AcDbEntity
  8
DIM
100
AcDbDimension
  2
*D11
 10
11.00654029625357
 20
9.239993350654351
 30
0.0
 11
12.63857352737582
 21
9.239993350654351
 31
0.0
 70
    32
 71
     5
 42
3.2640664622445
  3
SU1
100
AcDbAlignedDimension
 13
14.27060675849807
 23
6.167603517116942
 33
0.0
 14
11.00654029625357
 24
7.473252601971942
 34
0.0
100
AcDbRotatedDimension
  0
DIMENSION
  5
902
330
1F
100
AcDbEntity
  8
DIM
100
AcDbDimension
  2
*D12
 10
11.00654029625357
 20
9.615627136311275
 30
0.0
 11
13.07607352737582
 21
9.615627136311275
 31
0.0
 70
    32
 71
     5
 42
4.1390664622445
  3
SU1
100
AcDbAlignedDimension
 13
15.14560675849807
 23
6.348173861971941
 33
0.0
 14
11.00654029625357
 24
7.473252601971942
 34
0.0
100
AcDbRotatedDimension
  0
DIMENSION
  5
910
330
1F
100
AcDbEntity
  8
DIM
100
AcDbDimension
  2
*D13
 10
11.00654029625357
 20
10.00042269781999
 30
0.0
 11
13.51357352737582
 21
10.00042269781999
 31
0.0
 70
    32
 71
     5
 42
5.0140664622445
  3
SU1
100
AcDbAlignedDimension
 13
16.02060675849807
 23
6.167603517116942
 33
0.0
 14
11.00654029625357
 24
7.473252601971942
 34
0.0
100
AcDbRotatedDimension
  0
DIMENSION
  5
91E
330
1F
100
AcDbEntity
  8
DIM
100
AcDbDimension
  2
*D14
 10
11.00654029625357
 20
10.35773293177333
 30
0.0
 11
13.57607352737582
 21
10.35773293177333
 31
0.0
 70
    32
 71
     5
 42
5.1390664622445
  3
SU1
100
AcDbAlignedDimension
 13
16.14560675849807
 23
5.348173861971941
 33
0.0
 14
11.00654029625357
 24
7.473252601971942
 34
0.0
100
AcDbRotatedDimension
  0
DIMENSION
  5
92C
330
1F
100
AcDbEntity
  8
DIM
100
AcDbDimension
  2
*D15
 10
11.00654029625357
 20
10.68755773546251
 30
0.0
 11
14.43855011737582
 21
10.68755773546251
 31
0.0
 70
    32
 71
     5
 42
6.864019642244496
  3
SU1
100
AcDbAlignedDimension
 13
17.87055993849807
 23
5.348173861971941
 33
0.0
 14
11.00654029625357
 24
7.473252601971942
 34
0.0
100
AcDbRotatedDimension
  0
DIMENSION
  5
93A
330
1F
100
AcDbEntity
  8
DIM
100
AcDbDimension
  2
*D16
 10
11.00654029625357
 20
11.04549649569988
 30
0.0
 11
14.50105011737582
 21
11.04549649569988
 31
0.0
 70
    32
 71
     5
 42
6.989019642244496
  3
SU1
100
AcDbAlignedDimension
 13
17.99555993849807
 23
6.167603517116942
 33
0.0
 14
11.00654029625357
 24
7.473252601971942
 34
0.0
100
AcDbRotatedDimension
  0
DIMENSION
  5
984
330
1F
100
AcDbEntity
  8
DIM
100
AcDbDimension
  2
*D17
 10
11.00654029625357
 20
11.37351845244672
 30
0.0
 11
14.93855011737582
 21
11.37351845244672
 31
0.0
 70
    32
 71
     5
 42
7.864019642244496
  3
SU1
100
AcDbAlignedDimension
 13
18.87055993849807
 23
6.348173861971941
 33
0.0
 14
11.00654029625357
 24
7.473252601971942
 34
0.0
100
AcDbRotatedDimension
  0
DIMENSION
  5
992
330
1F
100
AcDbEntity
  8
DIM
100
AcDbDimension
  2
*D18
 10
11.00654029625357
 20
11.72447876839251
 30
0.0
 11
15.37605011737582
 21
11.72447876839251
 31
0.0
 70
    32
 71
     5
 42
8.7390196422445
  3
SU1
100
AcDbAlignedDimension
 13
19.74555993849807
 23
6.167603517116942
 33
0.0
 14
11.00654029625357
 24
7.473252601971942
 34
0.0
100
AcDbRotatedDimension
  0
DIMENSION
  5
9A0
330
1F
100
AcDbEntity
  8
DIM
100
AcDbDimension
  2
*D19
 10
11.00654029625357
 20
12.06569012248017
 30
0.0
 11
15.43855011737582
 21
12.06569012248017
 31
0.0
 70
    32
 71
     5
 42
8.8640196422445
  3
SU1
100
AcDbAlignedDimension
 13
19.87055993849807
 23
5.348173861971941
 33
0.0
 14
11.00654029625357
 24
7.473252601971942
 34
0.0
100
AcDbRotatedDimension
  0
DIMENSION
  5
9E3
330
1F
100
AcDbEntity
  8
DIM
100
AcDbDimension
  2
*D20
 10
8.945061065508664
 20
7.473252601971943
 30
0.0
 11
9.560061065508662
 21
7.833252601971945
 31
0.0
 70
   160
 71
     5
 42
0.2687050000000113
  3
SU1
100
AcDbAlignedDimension
 13
11.60060580869974
 23
7.204547601971931
 33
0.0
 14
11.00654029625357
 24
7.473252601971942
 34
0.0
 50
90.0
100
AcDbRotatedDimension
  0
DIMENSION
  5
9F2
330
1F
100
AcDbEntity
  8
DIM
100
AcDbDimension
  2
*D21
 10
7.161685167259946
 20
7.473252601971943
 30
0.0
 11
7.161685167259944
 21
6.785713231971945
 31
0.0
 70
    32
 71
     5
 42
1.37507874
  3
SU1
100
AcDbAlignedDimension
 13
14.89560675849807
 23
6.098173861971941
 33
0.0
 14
11.00654029625357
 24
7.473252601971942
 34
0.0
 50
90.0
100
AcDbRotatedDimension
  0
DIMENSION
  5
A00
330
1F
100
AcDbEntity
  8
DIM
100
AcDbDimension
  2
*D22
 10
6.325025882719445
 20
7.473252601971943
 30
0.0
 11
6.325025882719443
 21
6.723213231971945
 31
0.0
 70
    32
 71
     5
 42
1.50007874
  3
SU1
100
AcDbAlignedDimension
 13
14.08692369903433
 23
5.973173861971941
 33
0.0
 14
11.00654029625357
 24
7.473252601971942
 34
0.0
 50
90.0
100
AcDbRotatedDimension
  0
DIMENSION
  5
A1C
330
1F
100
AcDbEntity
  8
DIM
100
AcDbDimension
  2
*D23
 10
5.706653209458352
 20
7.473252601971944
 30
0.0
 11
5.70665320945835
 21
6.285713231971945
 31
0.0
 70
    32
 71
     5
 42
2.375078740000001
  3
SU1
100
AcDbAlignedDimension
 13
13.89560675849807
 23
5.098173861971941
 33
0.0
 14
11.00654029625357
 24
7.473252601971942
 34
0.0
 50
90.0
100
AcDbRotatedDimension
  0
DIMENSION
  5
A2A
330
1F
100
AcDbEntity
  8
DIM
100
AcDbDimension
  2
*D24
 10
4.226108290688983
 20
7.473252601971944
 30
0.0
 11
4.226108290688982
 21
5.848213231971945
 31
0.0
 70
    32
 71
     5
 42
3.25007874
  3
SU1
100
AcDbAlignedDimension
 13
14.08692369903433
 23
4.223173861971941
 33
0.0
 14
11.00654029625357
 24
7.473252601971942
 34
0.0
 50
90.0
100
AcDbRotatedDimension
  0
DIMENSION
  5
A38
330
1F
100
AcDbEntity
  8
DIM
100
AcDbDimension
  2
*D25
 10
3.411180443305582
 20
7.473252601971945
 30
0.0
 11
3.411180443305581
 21
5.785713231971946
 31
0.0
 70
    32
 71
     5
 42
3.37507874
  3
SU1
100
AcDbAlignedDimension
 13
14.89560675849807
 23
4.098173861971941
 33
0.0
 14
11.00654029625357
 24
7.473252601971942
 34
0.0
 50
90.0
100
AcDbRotatedDimension
  0
DIMENSION
  5
A46
330
1F
100
AcDbEntity
  8
DIM
100
AcDbDimension
  2
*D26
 10
1.870465978415676
 20
7.473252601971946
 30
0.0
 11
1.870465978415674
 21
5.232605101971946
 31
0.0
 70
    32
 71
     5
 42
4.481294999999999
  3
SU1
100
AcDbAlignedDimension
 13
11.60060580869974
 23
2.991957601971943
 33
0.0
 14
11.00654029625357
 24
7.473252601971942
 34
0.0
 50
90.0
100
AcDbRotatedDimension
  0
DIMENSION
  5
A54
330
1F
100
AcDbEntity
  8
DIM
100
AcDbDimension
  2
*D27
 10
1.052350159033451
 20
7.473252601971946
 30
0.0
 11
1.05235015903345
 21
5.098252601971946
 31
0.0
 70
    32
 71
     5
 42
4.75
  3
SU1
100
AcDbAlignedDimension
 13
11.00654029625357
 23
2.723252601971942
 33
0.0
 14
11.00654029625357
 24
7.473252601971942
 34
0.0
 50
90.0
100
AcDbRotatedDimension
  0
DIMENSION
  5
C3A
330
1F
100
AcDbEntity
  8
DIM
100
AcDbDimension
  2
*D28
 10
19.78858817285019
 20
4.929541481817458
 30
0.0
 11
23.32447362910568
 21
8.377174348097778
 31
0.0
 70
   163
  1
C'BORE FOR #10 SHCS\P8X
 71
     5
 42
0.3749999999999929
  3
SU1$3
100
AcDbDiametricDimension
 15
19.95253170414595
 25
5.266806242126435
 35
0.0
 40
0.0
  0
INSERT
  5
C98
330
1F
100
AcDbEntity
  8
handle
100
AcDbBlockReference
  2
C-BORE-#6
 10
11.73250334849809
 20
7.204547601971931
 30
0.0
  0
INSERT
  5
C99
330
1F
100
AcDbEntity
  8
handle
100
AcDbBlockReference
  2
C-BORE-#6
 10
11.73250334849809
 20
2.991957601971943
 30
0.0
  0
LINE
  5
C9C
330
1F
100
AcDbEntity
  8
CENTER
100
AcDbLine
 10
11.73250334849809
 20
19.40744863609222
 30
0.0
 11
11.73250334849809
 21
19.7973438070998
 31
0.0
  0
CIRCLE
  5
C9D
330
1F
100
AcDbEntity
  8
0
100
AcDbCircle
 10
11.73250334849809
 20
19.60629499999999
 30
0.0
 40
0.085
  0
LINE
  5
C9F
330
1F
100
AcDbEntity
  8
CENTER
100
AcDbLine
 10
11.52696598051367
 20
19.60629499999999
 30
0.0
 11
11.92807369605293
 21
19.60629499999999
 31
0.0
  0
LINE
  5
CA0
330
1F
100
AcDbEntity
  8
CENTER
100
AcDbLine
 10
11.73250334849809
 20
15.19485863609223
 30
0.0
 11
11.73250334849809
 21
15.58475380709982
 31
0.0
  0
CIRCLE
  5
CA1
330
1F
100
AcDbEntity
  8
0
100
AcDbCircle
 10
11.73250334849809
 20
15.39370500000001
 30
0.0
 40
0.085
  0
LINE
  5
CA3
330
1F
100
AcDbEntity
  8
CENTER
100
AcDbLine
 10
11.52696598051367
 20
15.39370500000001
 30
0.0
 11
11.92807369605293
 21
15.39370500000001
 31
0.0
  0
DIMENSION
  5
CA4
330
1F
100
AcDbEntity
  8
DIM
100
AcDbDimension
  2
*D30
 10
11.66815070004258
 20
3.117022221816089
 30
0.0
 11
14.29589379260235
 21
1.624970219087018
 31
0.0
 70
   163
  1
C-BORE FOR #6 SHCS\P2X
 71
     5
 42
0.2812999999999999
  3
SU1$3
100
AcDbDiametricDimension
 15
11.79685599695359
 25
2.86689298212779
 35
0.0
 40
0.0
  0
CIRCLE
  5
D29
330
1F
100
AcDbEntity
  8
handle
100
AcDbCircle
 10
19.74555993849807
 20
18.37507873999999
 30
0.0
 40
0.21875
  0
CIRCLE
  5
D2A
330
1F
100
AcDbEntity
  8
handle
100
AcDbCircle
 10
19.74555993849808
 20
16.62507874
 30
0.0
 40
0.21875
  0
CIRCLE
  5
D2B
330
1F
100
AcDbEntity
  8
handle
100
AcDbCircle
 10
17.99555993849807
 20
18.37507873999999
 30
0.0
 40
0.21875
  0
CIRCLE
  5
D2C
330
1F
100
AcDbEntity
  8
handle
100
AcDbCircle
 10
17.99555993849807
 20
16.62507874
 30
0.0
 40
0.21875
  0
CIRCLE
  5
D2D
330
1F
100
AcDbEntity
  8
handle
100
AcDbCircle
 10
16.02060675849807
 20
18.37507873999999
 30
0.0
 40
0.21875
  0
CIRCLE
  5
D2E
330
1F
100
AcDbEntity
  8
handle
100
AcDbCircle
 10
16.02060675849807
 20
16.62507874
 30
0.0
 40
0.21875
  0
CIRCLE
  5
D2F
330
1F
100
AcDbEntity
  8
handle
100
AcDbCircle
 10
14.27060675849807
 20
16.62507874
 30
0.0
 40
0.21875
  0
CIRCLE
  5
D30
330
1F
100
AcDbEntity
  8
handle
100
AcDbCircle
 10
14.27060675849807
 20
18.37507873999999
 30
0.0
 40
0.21875
  0
DIMENSION
  5
D31
330
1F
100
AcDbEntity
  8
DIM
100
AcDbDimension
  2
*D31
 10
19.63206748286564
 20
16.43807332560106
 30
0.0
 11
23.28553258894179
 21
18.77532696500845
 31
0.0
 70
   163
  1
<> C'BORE, 0.068 DEEP\P8X
 71
     5
 42
0.4375000000000036
  3
SU1$3
100
AcDbDiametricDimension
 15
19.85905239413052
 25
16.81208415439894
 35
0.0
 40
0.0
  0
INSERT
  5
D56
330
1F
100
AcDbEntity
  8
handle
100
AcDbBlockReference
  2
10-32-THREAD
 10
11.75654029625357
 20
6.723252601971942
 30
0.0
  0
INSERT
  5
D57
330
1F
100
AcDbEntity
  8
handle
100
AcDbBlockReference
  2
10-32-THREAD
 10
11.75654029625357
 20
3.473252601971942
 30
0.0
 41
-1.0
 50
180.0
  0
INSERT
  5
D58
330
1F
100
AcDbEntity
  8
handle
100
AcDbBlockReference
  2
10-32-THREAD
 10
20.25654029625357
 20
6.973252601971942
 30
0.0
  0
INSERT
  5
D59
330
1F
100
AcDbEntity
  8
handle
100
AcDbBlockReference
  2
10-32-THREAD
 10
20.25654029625357
 20
3.223252601971942
 30
0.0
 41
-1.0
 50
180.0
  0
INSERT
  5
D5A
330
1F
100
AcDbEntity
  8
handle
100
AcDbBlockReference
  2
10-32-THREAD
 10
11.75654029625357
 20
19.125
 30
0.0
  0
INSERT
  5
D5B
330
1F
100
AcDbEntity
  8
handle
100
AcDbBlockReference
  2
10-32-THREAD
 10
11.75654029625357
 20
15.875
 30
0.0
 41
-1.0
 50
180.0
  0
INSERT
  5
D5C
330
1F
100
AcDbEntity
  8
handle
100
AcDbBlockReference
  2
10-32-THREAD
 10
20.25654029625357
 20
19.375
 30
0.0
  0
INSERT
  5
D5D
330
1F
100
AcDbEntity
  8
handle
100
AcDbBlockReference
  2
10-32-THREAD
 10
20.25654029625357
 20
15.625
 30
0.0
 41
-1.0
 50
180.0
  0
LWPOLYLINE
  5
D67
330
1F
100
AcDbEntity
  8
handle
100
AcDbPolyline
 90
        4
 70
     1
 43
0.0
 10
26.07607429242125
 20
2.723252601971942
 10
25.57607429242125
 20
2.723252601971942
 10
25.57607429242125
 20
7.473252601971944
 10
26.07607429242125
 20
7.473252601971944
  0
INSERT
  5
D68
330
1F
100
AcDbEntity
  8
handle
100
AcDbBlockReference
  2
6-32-THREAD
 10
25.82607429242125
 20
7.129502601971944
 30
0.0
  0
INSERT
  5
D69
330
1F
100
AcDbEntity
  8
handle
100
AcDbBlockReference
  2
6-32-THREAD
 10
25.82607429242125
 20
3.067002601971944
 30
0.0
 41
-1.0
 50
180.0
  0
DIMENSION
  5
D74
330
1F
100
AcDbEntity
  8
DIM
100
AcDbDimension
  2
*D32
 10
11.00654029625357
 20
8.124467987733105
 30
0.0
 11
10.22654029625357
 21
8.124467987733105
 31
0.0
 70
    32
 71
     5
 42
0.75
  3
SU1
100
AcDbAlignedDimension
 13
11.75654029625357
 23
6.917682257116943
 33
0.0
 14
11.00654029625357
 24
7.473252601971942
 34
0.0
100
AcDbRotatedDimension
  0
DIMENSION
  5
FDD
330
1F
100
AcDbEntity
  8
DIM
100
AcDbDimension
  2
*D33
 10
7.794450086343971
 20
7.473252601971943
 30
0.0
 11
8.394450086343969
 21
7.833252601971945
 31
0.0
 70
    32
 71
     5
 42
0.75
  3
SU1
100
AcDbAlignedDimension
 13
11.57285723678983
 23
6.723252601971942
 33
0.0
 14
11.00654029625357
 24
7.473252601971942
 34
0.0
 50
90.0
100
AcDbRotatedDimension
  0
DIMENSION
  5
100A
330
1F
100
AcDbEntity
  8
DIM
100
AcDbDimension
  2
*D34
 10
2.603308576418712
 20
7.473252601971945
 30
0.0
 11
2.60330857641871
 21
5.473252601971946
 31
0.0
 70
    32
 71
     5
 42
4.0
  3
SU1
100
AcDbAlignedDimension
 13
11.57285723678983
 23
3.473252601971942
 33
0.0
 14
11.00654029625357
 24
7.473252601971942
 34
0.0
 50
90.0
100
AcDbRotatedDimension
  0
DIMENSION
  5
1018
330
1F
100
AcDbEntity
  8
DIM
100
AcDbDimension
  2
*D35
 10
11.00654029625357
 20
12.41858437260773
 30
0.0
 11
15.63154029625357
 21
12.41858437260773
 31
0.0
 70
    32
 71
     5
 42
9.25
  3
SU1
100
AcDbAlignedDimension
 13
20.25654029625357
 23
7.167682257116943
 33
0.0
 14
11.00654029625357
 24
7.473252601971942
 34
0.0
100
AcDbRotatedDimension
  0
DIMENSION
  5
1026
330
1F
100
AcDbEntity
  8
DIM
100
AcDbDimension
  2
*D36
 10
11.00654028226019
 20
14.59261822408655
 30
0.0
 11
16.00654028226019
 21
14.59261822408655
 31
0.0
 70
    32
 71
     5
 42
10.0
  3
SU1
100
AcDbAlignedDimension
 13
21.00654028226018
 23
14.24854077459912
 33
0.0
 14
11.00654028226019
 24
14.24854077459912
 34
0.0
100
AcDbRotatedDimension
  0
DIMENSION
  5
1049
330
1F
100
AcDbEntity
  8
DIM
100
AcDbDimension
  2
*D37
 10
26.31353993398446
 20
7.473252601971944
 30
0.0
 11
26.92853993398446
 21
7.833252601971949
 31
0.0
 70
    32
 71
     5
 42
0.3437500000000009
  3
SU1
100
AcDbAlignedDimension
 13
25.94929032781867
 23
7.129502601971944
 33
0.0
 14
26.07607429242125
 24
7.473252601971944
 34
0.0
 50
90.0
100
AcDbRotatedDimension
  0
DIMENSION
  5
1058
330
1F
100
AcDbEntity
  8
DIM
100
AcDbDimension
  2
*D38
 10
27.19645458423845
 20
7.473252601971944
 30
0.0
 11
27.19645458423845
 21
5.270127601971949
 31
0.0
 70
    32
 71
     5
 42
4.40625
  3
SU1
100
AcDbAlignedDimension
 13
25.94929032781867
 23
3.067002601971944
 33
0.0
 14
26.07607429242125
 24
7.473252601971944
 34
0.0
 50
90.0
100
AcDbRotatedDimension
  0
DIMENSION
  5
1066
330
1F
100
AcDbEntity
  8
DIM
100
AcDbDimension
  2
*D39
 10
25.57607429242125
 20
7.985644814382723
 30
0.0
 11
24.79607429242125
 21
7.985644814382723
 31
0.0
 70
    32
 71
     5
 42
0.25
  3
SU1
100
AcDbAlignedDimension
 13
25.82607429242125
 23
7.26318986221854
 33
0.0
 14
25.57607429242125
 24
7.473252601971944
 34
0.0
100
AcDbRotatedDimension
  0
DIMENSION
  5
1074
330
1F
100
AcDbEntity
  8
DIM
100
AcDbDimension
  2
*D40
 10
25.87854173094667
 20
3.111815188313089
 30
0.0
 11
23.22700884681967
 21
2.422953190801921
 31
0.0
 70
   163
  1
6-32 TAP, .375 DEEP\P4X
 71
     5
 42
0.1380000000000052
  3
SU1$3
100
AcDbDiametricDimension
 15
25.77360685389584
 25
3.022190015630803
 35
0.0
 40
0.0
  0
DIMENSION
  5
11B0
330
1F
100
AcDbEntity
  8
DIM
100
AcDbDimension
  2
*D41
 10
21.44765362655822
 20
7.473252601971942
 30
0.0
 11
22.03265362655822
 21
7.833252601971945
 31
0.0
 70
    32
 71
     5
 42
0.5
  3
SU1
100
AcDbAlignedDimension
 13
20.44650203189405
 23
6.973252601971942
 33
0.0
 14
21.00654029625357
 24
7.473252601971942
 34
0.0
 50
90.0
100
AcDbRotatedDimension
  0
DIMENSION
  5
11BF
330
1F
100
AcDbEntity
  8
DIM
100
AcDbDimension
  2
*D42
 10
22.40128270499727
 20
7.473252601971942
 30
0.0
 11
22.40128270499727
 21
5.348252601971945
 31
0.0
 70
    32
 71
     5
 42
4.25
  3
SU1
100
AcDbAlignedDimension
 13
20.44650203189405
 23
3.223252601971942
 33
0.0
 14
21.00654029625357
 24
7.473252601971942
 34
0.0
 50
90.0
100
AcDbRotatedDimension
  0
INSERT
  5
11D8
330
1F
100
AcDbEntity
  8
0
100
AcDbBlockReference
  2
6-32-THREAD
 10
12.88154028226019
 20
13.99854077459912
 30
0.0
  0
INSERT
  5
11D9
330
1F
100
AcDbEntity
  8
0
100
AcDbBlockReference
  2
6-32-THREAD
 10
19.75654028226019
 20
13.99854077459912
 30
0.0
  0
DIMENSION
  5
1328
330
1F
100
AcDbEntity
  8
DIM
100
AcDbDimension
  2
*D43
 10
11.00654028226019
 20
13.41174673089989
 30
0.0
 11
11.94404028226019
 21
13.41174673089989
 31
0.0
 70
    32
 71
     5
 42
1.875
  3
SU1
100
AcDbAlignedDimension
 13
12.88154028226019
 23
13.87055755629619
 33
0.0
 14
11.00654028226019
 24
13.74854077459912
 34
0.0
100
AcDbRotatedDimension
  0
DIMENSION
  5
1336
330
1F
100
AcDbEntity
  8
DIM
100
AcDbDimension
  2
*D44
 10
11.00654028226019
 20
13.01440595285429
 30
0.0
 11
15.38154028226019
 21
13.01440595285429
 31
0.0
 70
    32
 71
     5
 42
8.75
  3
SU1
100
AcDbAlignedDimension
 13
19.75654028226019
 23
13.87055755629619
 33
0.0
 14
11.00654028226019
 24
13.74854077459912
 34
0.0
100
AcDbRotatedDimension
  0
DIMENSION
  5
134F
330
1F
100
AcDbEntity
  8
DIM
100
AcDbDimension
  2
*D45
 10
21.33133325192457
 20
14.24854077459912
 30
0.0
 11
21.93133325192457
 21
14.60854077459912
 31
0.0
 70
    32
 71
     5
 42
0.2500000000000018
  3
SU1
100
AcDbAlignedDimension
 13
19.87975631765761
 23
13.99854077459912
 33
0.0
 14
21.00654028226018
 24
14.24854077459912
 34
0.0
 50
90.0
100
AcDbRotatedDimension
  0
DIMENSION
  5
136E
330
1F
100
AcDbEntity
  8
DIM
100
AcDbDimension
  2
*D46
 10
19.70242778616269
 20
13.95572912003986
 30
0.0
 11
23.84722916164544
 21
15.81084270260975
 31
0.0
 70
   163
  1
6-32 TAP .375 DEEP\P4X
 71
     5
 42
0.1380000000000123
  3
SU1$3
100
AcDbDiametricDimension
 15
19.81065277835766
 25
14.04135242915835
 35
0.0
 40
0.0
  0
LINE
  5
1392
330
1F
100
AcDbEntity
  8
TEXT
100
AcDbLine
 10
26.1080494845343
 20
19.55229554512702
 30
0.0
 11
26.1080494845343
 21
18.54564610090719
 31
0.0
  0
LINE
  5
1393
330
1F
100
AcDbEntity
  8
TEXT
100
AcDbLine
 10
26.49830190676567
 20
19.55229554512702
 30
0.0
 11
26.49830190676567
 21
18.54564610090719
 31
0.0
  0
LINE
  5
1394
330
1F
100
AcDbEntity
  8
TEXT
100
AcDbLine
 10
29.23830190676567
 20
19.55229554512702
 30
0.0
 11
29.23830190676567
 21
18.54564610090719
 31
0.0
  0
LINE
  5
1395
330
1F
100
AcDbEntity
  8
TEXT
100
AcDbLine
 10
30.11830190676567
 20
19.55229554512702
 30
0.0
 11
30.11830190676567
 21
18.54564610090719
 31
0.0
  0
TEXT
  5
1396
330
1F
100
AcDbEntity
  8
TEXT
100
AcDbText
 10
26.20507614955917
 20
19.30708676969821
 30
0.0
 40
0.18
  1
A
100
AcDbText
  0
TEXT
  5
1397
330
1F
100
AcDbEntity
  8
TEXT
100
AcDbText
 10
26.56823602614669
 20
19.30708676969821
 30
0.0
 40
0.125
  1
ADD TAPPED HOLES FOR
100
AcDbText
  0
TEXT
  5
1398
330
1F
100
AcDbEntity
  8
TEXT
100
AcDbText
 10
26.56823602614669
 20
19.09875343636488
 30
0.0
 40
0.125
  1
SIDE STOPS
100
AcDbText
  0
TEXT
  5
1399
330
1F
100
AcDbEntity
  8
TEXT
100
AcDbText
 10
29.24764782570884
 20
19.29380584224119
 30
0.0
 40
0.125
  1
08-19-03
100
AcDbText
  0
TEXT
  5
139A
330
1F
100
AcDbEntity
  8
TEXT
100
AcDbText
 10
30.84352682759343
 20
0.4631483383453415
 30
0.0
 40
0.18
  1
B
100
AcDbText
  0
INSERT
  5
13B6
330
1F
100
AcDbEntity
  8
handle
100
AcDbBlockReference
  2
10-32-THREAD
 10
11.50654029625357
 20
4.348252601971942
 30
0.0
  0
INSERT
  5
13B7
330
1F
100
AcDbEntity
  8
handle
100
AcDbBlockReference
  2
10-32-THREAD
 10
12.00654029625357
 20
4.348252601971942
 30
0.0
  0
DIMENSION
  5
13EA
330
1F
100
AcDbEntity
  8
DIM
100
AcDbDimension
  2
*D47
 10
5.025937356247609
 20
4.348252601971944
 30
0.0
 11
5.025937356247609
 21
5.910752601971945
 31
0.0
 70
    32
 71
     5
 42
3.125
  3
SU1
100
AcDbAlignedDimension
 13
11.00654029625357
 23
7.473252601971942
 33
0.0
 14
11.32285723678982
 24
4.348252601971942
 34
0.0
 50
90.0
100
AcDbRotatedDimension
  0
DIMENSION
  5
13F8
330
1F
100
AcDbEntity
  8
DIM
100
AcDbDimension
  2
*D48
 10
11.00654029625357
 20
2.260373507265171
 30
0.0
 11
10.24154029625357
 21
2.260373507265171
 31
0.0
 70
    32
 71
     5
 42
0.5
  3
SU1
100
AcDbAlignedDimension
 13
11.50654029625357
 23
4.150714985219465
 33
0.0
 14
11.00654029625357
 24
2.723252601971942
 34
0.0
100
AcDbRotatedDimension
  0
DIMENSION
  5
1406
330
1F
100
AcDbEntity
  8
DIM
100
AcDbDimension
  2
*D49
 10
11.00654029625357
 20
1.718342473023518
 30
0.0
 11
10.27154029625357
 21
1.718342473023518
 31
0.0
 70
    32
 71
     5
  3
SU1
100
AcDbAlignedDimension
 13
12.00654029625357
 23
4.150714985219465
 33
0.0
 14
11.00654029625357
 24
2.723252601971942
 34
0.0
100
AcDbRotatedDimension
  0
TEXT
  5
141C
330
1F
100
AcDbEntity
  8
TEXT
100
AcDbText
 10
26.56823602614669
 20
18.59936019685323
 30
0.0
 40
0.125
  1
RELIEVE VALVE BRACKET
100
AcDbText
  0
TEXT
  5
141D
330
1F
100
AcDbEntity
  8
TEXT
100
AcDbText
 10
26.56823602614669
 20
18.80769353018656
 30
0.0
 40
0.125
  1
ADD TAPPED HOLES FOR
100
AcDbText
  0
TEXT
  5
141E
330
1F
100
AcDbEntity
  8
TEXT
100
AcDbText
 10
26.20507614955917
 20
18.80769353018656
 30
0.0
 40
0.18
  1
B
100
AcDbText
  0
TEXT
  5
141F
330
1F
100
AcDbEntity
  8
TEXT
100
AcDbText
 10
29.24764782570884
 20
18.79441260272955
 30
0.0
 40
0.125
  1
10-21-03
100
AcDbText
  0
INSERT
  5
1422
330
1F
100
AcDbEntity
  8
handle
100
AcDbBlockReference
  2
10-32-THREAD
 10
12.00654029625357
 20
18.25
 30
0.0
 41
-1.0
 50
180.0
  0
INSERT
  5
1423
330
1F
100
AcDbEntity
  8
handle
100
AcDbBlockReference
  2
10-32-THREAD
 10
11.50654029625357
 20
18.25
 30
0.0
 41
-1.0
 50
180.0
  0
ENDSEC
  0
SECTION
  2
OBJECTS
  0
DICTIONARY
  5
C
330
0
100
AcDbDictionary
281
     1
  3
ACAD_GROUP
350
D
  3
ACAD_LAYOUT
350
1A
  3
ACAD_MLINESTYLE
350
17
  3
ACAD_PLOTSETTINGS
350
19
  3
ACAD_PLOTSTYLENAME
350
E
  3
AcadDim
350
EE
  0
DICTIONARY
  5
D
102
{ACAD_REACTORS
330
C
102
}
330
C
100
AcDbDictionary
281
     1
  0
DICTIONARY
  5
1A
102
{ACAD_REACTORS
330
C
102
}
330
C
100
AcDbDictionary
281
     1
  3
Layout1
350
1E
  3
Layout2
350
26
  3
Model
350
22
  0
DICTIONARY
  5
17
102
{ACAD_REACTORS
330
C
102
}
330
C
100
AcDbDictionary
281
     1
  3
Standard
350
18
  0
DICTIONARY
  5
19
102
{ACAD_REACTORS
330
C
102
}
330
C
100
AcDbDictionary
281
     1
  0
ACDBDICTIONARYWDFLT
  5
E
102
{ACAD_REACTORS
330
C
102
}
330
C
100
AcDbDictionary
281
     1
  3
Normal
350
F
100
AcDbDictionaryWithDefault
340
F
  0
XRECORD
  5
EE
102
{ACAD_REACTORS
330
C
102
}
330
C
100
AcDbXrecord
280
     1
 90
   990106
  3

 60
     0
 61
     0
 62
     2
 63
     2
 64
     0
 65
     0
 66
     0
 67
     3
 68
     1
 69
     0
 70
     0
 71
     0
 72
     0
 40
0.0
170
     2
340
0
  0
LAYOUT
  5
1E
102
{ACAD_REACTORS
330
1A
102
}
330
1A
100
AcDbPlotSettings
  1

  2

  4

  6

 40
0.0
 41
0.0
 42
0.0
 43
0.0
 44
0.0
 45
0.0
 46
0.0
 47
0.0
 48
0.0
 49
0.0
140
0.0
141
0.0
142
1.0
143
1.0
 70
   688
 72
     0
 73
     0
 74
     5
  7
style-1.ctb
 75
    16
147
1.0
148
0.0
149
0.0
100
AcDbLayout
  1
Layout1
 70
     1
 71
     1
 10
0.0
 20
0.0
 11
12.0
 21
9.0
 12
0.0
 22
0.0
 32
0.0
 14
1.000000000000000E+20
 24
1.000000000000000E+20
 34
1.000000000000000E+20
 15
-1.000000000000000E+20
 25
-1.000000000000000E+20
 35
-1.000000000000000E+20
146
0.0
 13
0.0
 23
0.0
 33
0.0
 16
1.0
 26
0.0
 36
0.0
 17
0.0
 27
1.0
 37
0.0
 76
     0
330
1B
  0
LAYOUT
  5
26
102
{ACAD_REACTORS
330
1A
102
}
330
1A
100
AcDbPlotSettings
  1

  2

  4

  6

 40
0.0
 41
0.0
 42
0.0
 43
0.0
 44
0.0
 45
0.0
 46
0.0
 47
0.0
 48
0.0
 49
0.0
140
0.0
141
0.0
142
1.0
143
1.0
 70
   688
 72
     0
 73
     0
 74
     5
  7
style-1.ctb
 75
    16
147
1.0
148
0.0
149
0.0
100
AcDbLayout
  1
Layout2
 70
     1
 71
     2
 10
0.0
 20
0.0
 11
12.0
 21
9.0
 12
0.0
 22
0.0
 32
0.0
 14
0.0
 24
0.0
 34
0.0
 15
0.0
 25
0.0
 35
0.0
146
0.0
 13
0.0
 23
0.0
 33
0.0
 16
1.0
 26
0.0
 36
0.0
 17
0.0
 27
1.0
 37
0.0
 76
     0
330
23
  0
LAYOUT
  5
22
102
{ACAD_REACTORS
330
1A
102
}
330
1A
100
AcDbPlotSettings
  1

  2
HP DesignJet 488CA (E_A0) by HP.pc3
  4
User265
  6

 40
4.995333194732666
 41
16.93336677551269
 42
4.99530029296875
 43
16.933349609375
 44
558.7153320312499
 45
863.4306640625
 46
20.32
 47
27.43199999999999
 48
0.0
 49
0.0
140
0.0
141
0.0
142
1.0
143
1.0
 70
 11956
 72
     0
 73
     1
 74
     1
  7
style-1.ctb
 75
    16
147
1.0
148
-17.0489613220199
149
-3.157948022938736
100
AcDbLayout
  1
Model
 70
     1
 71
     0
 10
0.0
 20
0.0
 11
12.0
 21
9.0
 12
0.0
 22
0.0
 32
0.0
 14
0.0
 24
0.0
 34
0.0
 15
0.0
 25
0.0
 35
0.0
146
0.0
 13
0.0
 23
0.0
 33
0.0
 16
1.0
 26
0.0
 36
0.0
 17
0.0
 27
1.0
 37
0.0
 76
     0
330
1F
  0
MLINESTYLE
  5
18
102
{ACAD_REACTORS
330
17
102
}
330
17
100
AcDbMlineStyle
  2
STANDARD
 70
     0
  3

 62
   256
 51
90.0
 52
90.0
 71
     2
 49
0.5
 62
   256
  6
BYLAYER
 49
-0.5
 62
   256
  6
BYLAYER
  0
ACDBPLACEHOLDER
  5
F
102
{ACAD_REACTORS
330
E
102
}
330
E
  0
ENDSEC
  0
EOF
