  0
SECTION
  2
HEADER
  9
$ACADVER
  1
AC1015
  9
$ACADMAINTVER
 70
     6
  9
$DWGCODEPAGE
  3
ANSI_1252
  9
$INSBASE
 10
0.0
 20
0.0
 30
0.0
  9
$EXTMIN
 10
6.348601884594245
 20
1.579304702438207
 30
-0.0000000349181948
  9
$EXTMAX
 10
260.3721095539828
 20
185.4918340592779
 30
0.0000000814935746
  9
$LIMMIN
 10
0.0
 20
0.0
  9
$LIMMAX
 10
254.1212218407091
 20
169.0773404427249
  9
$ORTHOMODE
 70
     0
  9
$REGENMODE
 70
     1
  9
$FILLMODE
 70
     1
  9
$QTEXTMODE
 70
     0
  9
$MIRRTEXT
 70
     1
  9
$LTSCALE
 40
1.0
  9
$ATTMODE
 70
     1
  9
$TEXTSIZE
 40
0.2
  9
$TRACEWID
 40
0.05
  9
$TEXTSTYLE
  7
Standard
  9
$CLAYER
  8
TEXT
  9
$CELTYPE
  6
ByLayer
  9
$CECOLOR
 62
   256
  9
$CELTSCALE
 40
1.0
  9
$DISPSILH
 70
     0
  9
$DIMSCALE
 40
15.0
  9
$DIMASZ
 40
0.18
  9
$DIMEXO
 40
0.0625
  9
$DIMDLI
 40
0.38
  9
$DIMRND
 40
0.0
  9
$DIMDLE
 40
0.0
  9
$DIMEXE
 40
0.18
  9
$DIMTP
 40
0.001
  9
$DIMTM
 40
0.001
  9
$DIMTXT
 40
0.18
  9
$DIMCEN
 40
0.09
  9
$DIMTSZ
 40
0.0
  9
$DIMTOL
 70
     0
  9
$DIMLIM
 70
     0
  9
$DIMTIH
 70
     1
  9
$DIMTOH
 70
     1
  9
$DIMSE1
 70
     0
  9
$DIMSE2
 70
     0
  9
$DIMTAD
 70
     0
  9
$DIMZIN
 70
     0
  9
$DIMBLK
  1

  9
$DIMASO
 70
     1
  9
$DIMSHO
 70
     1
  9
$DIMPOST
  1

  9
$DIMAPOST
  1
mm
  9
$DIMALT
 70
     0
  9
$DIMALTD
 70
     2
  9
$DIMALTF
 40
25.4
  9
$DIMLFAC
 40
1.0
  9
$DIMTOFL
 70
     0
  9
$DIMTVP
 40
0.0
  9
$DIMTIX
 70
     0
  9
$DIMSOXD
 70
     0
  9
$DIMSAH
 70
     0
  9
$DIMBLK1
  1

  9
$DIMBLK2
  1

  9
$DIMSTYLE
  2
SU1
  9
$DIMCLRD
 70
     0
  9
$DIMCLRE
 70
     0
  9
$DIMCLRT
 70
     0
  9
$DIMTFAC
 40
1.0
  9
$DIMGAP
 40
0.09
  9
$DIMJUST
 70
     0
  9
$DIMSD1
 70
     0
  9
$DIMSD2
 70
     0
  9
$DIMTOLJ
 70
     1
  9
$DIMTZIN
 70
     0
  9
$DIMALTZ
 70
     0
  9
$DIMALTTZ
 70
     0
  9
$DIMUPT
 70
     0
  9
$DIMDEC
 70
     2
  9
$DIMTDEC
 70
     2
  9
$DIMALTU
 70
     2
  9
$DIMALTTD
 70
     2
  9
$DIMTXSTY
  7
Standard
  9
$DIMAUNIT
 70
     0
  9
$DIMADEC
 70
     0
  9
$DIMALTRND
 40
0.0
  9
$DIMAZIN
 70
     0
  9
$DIMDSEP
 70
    46
  9
$DIMATFIT
 70
     0
  9
$DIMFRAC
 70
     0
  9
$DIMLDRBLK
  1

  9
$DIMLUNIT
 70
     2
  9
$DIMLWD
 70
    -2
  9
$DIMLWE
 70
    -2
  9
$DIMTMOVE
 70
     0
  9
$LUNITS
 70
     2
  9
$LUPREC
 70
     4
  9
$SKETCHINC
 40
0.1
  9
$FILLETRAD
 40
0.5
  9
$AUNITS
 70
     0
  9
$AUPREC
 70
     0
  9
$MENU
  1
.
  9
$ELEVATION
 40
0.0
  9
$PELEVATION
 40
0.0
  9
$THICKNESS
 40
0.0
  9
$LIMCHECK
 70
     0
  9
$CHAMFERA
 40
0.5
  9
$CHAMFERB
 40
0.5
  9
$CHAMFERC
 40
1.0
  9
$CHAMFERD
 40
0.0
  9
$SKPOLY
 70
     0
  9
$TDCREATE
 40
2453032.360585567
  9
$TDUCREATE
 40
2453032.693918900
  9
$TDUPDATE
 40
2453032.404509548
  9
$TDUUPDATE
 40
2453032.737842882
  9
$TDINDWG
 40
0.0439248843
  9
$TDUSRTIMER
 40
0.0439248843
  9
$USRTIMER
 70
     1
  9
$ANGBASE
 50
0.0
  9
$ANGDIR
 70
     0
  9
$PDMODE
 70
     0
  9
$PDSIZE
 40
0.0
  9
$PLINEWID
 40
0.0
  9
$SPLFRAME
 70
     0
  9
$SPLINETYPE
 70
     6
  9
$SPLINESEGS
 70
     8
  9
$HANDSEED
  5
586
  9
$SURFTAB1
 70
     6
  9
$SURFTAB2
 70
     6
  9
$SURFTYPE
 70
     6
  9
$SURFU
 70
     6
  9
$SURFV
 70
     6
  9
$UCSBASE
  2

  9
$UCSNAME
  2

  9
$UCSORG
 10
0.0
 20
0.0
 30
0.0
  9
$UCSXDIR
 10
1.0
 20
0.0
 30
0.0
  9
$UCSYDIR
 10
0.0
 20
1.0
 30
0.0
  9
$UCSORTHOREF
  2

  9
$UCSORTHOVIEW
 70
     0
  9
$UCSORGTOP
 10
0.0
 20
0.0
 30
0.0
  9
$UCSORGBOTTOM
 10
0.0
 20
0.0
 30
0.0
  9
$UCSORGLEFT
 10
0.0
 20
0.0
 30
0.0
  9
$UCSORGRIGHT
 10
0.0
 20
0.0
 30
0.0
  9
$UCSORGFRONT
 10
0.0
 20
0.0
 30
0.0
  9
$UCSORGBACK
 10
0.0
 20
0.0
 30
0.0
  9
$PUCSBASE
  2

  9
$PUCSNAME
  2

  9
$PUCSORG
 10
0.0
 20
0.0
 30
0.0
  9
$PUCSXDIR
 10
1.0
 20
0.0
 30
0.0
  9
$PUCSYDIR
 10
0.0
 20
1.0
 30
0.0
  9
$PUCSORTHOREF
  2

  9
$PUCSORTHOVIEW
 70
     0
  9
$PUCSORGTOP
 10
0.0
 20
0.0
 30
0.0
  9
$PUCSORGBOTTOM
 10
0.0
 20
0.0
 30
0.0
  9
$PUCSORGLEFT
 10
0.0
 20
0.0
 30
0.0
  9
$PUCSORGRIGHT
 10
0.0
 20
0.0
 30
0.0
  9
$PUCSORGFRONT
 10
0.0
 20
0.0
 30
0.0
  9
$PUCSORGBACK
 10
0.0
 20
0.0
 30
0.0
  9
$USERI1
 70
     0
  9
$USERI2
 70
     0
  9
$USERI3
 70
     0
  9
$USERI4
 70
     0
  9
$USERI5
 70
     0
  9
$USERR1
 40
0.0
  9
$USERR2
 40
0.0
  9
$USERR3
 40
0.0
  9
$USERR4
 40
0.0
  9
$USERR5
 40
0.0
  9
$WORLDVIEW
 70
     1
  9
$SHADEDGE
 70
     3
  9
$SHADEDIF
 70
    70
  9
$TILEMODE
 70
     1
  9
$MAXACTVP
 70
    64
  9
$PINSBASE
 10
0.0
 20
0.0
 30
0.0
  9
$PLIMCHECK
 70
     0
  9
$PEXTMIN
 10
1.000000000000000E+20
 20
1.000000000000000E+20
 30
1.000000000000000E+20
  9
$PEXTMAX
 10
-1.000000000000000E+20
 20
-1.000000000000000E+20
 30
-1.000000000000000E+20
  9
$PLIMMIN
 10
0.0
 20
0.0
  9
$PLIMMAX
 10
12.0
 20
9.0
  9
$UNITMODE
 70
     0
  9
$VISRETAIN
 70
     1
  9
$PLINEGEN
 70
     0
  9
$PSLTSCALE
 70
     1
  9
$TREEDEPTH
 70
  3020
  9
$CMLSTYLE
  2
Standard
  9
$CMLJUST
 70
     0
  9
$CMLSCALE
 40
1.0
  9
$PROXYGRAPHICS
 70
     1
  9
$MEASUREMENT
 70
     0
  9
$CELWEIGHT
370
    -1
  9
$ENDCAPS
280
     0
  9
$JOINSTYLE
280
     0
  9
$LWDISPLAY
290
     0
  9
$INSUNITS
 70
     1
  9
$HYPERLINKBASE
  1

  9
$STYLESHEET
  1
style-1.ctb
  9
$XEDIT
290
     1
  9
$CEPSNTYPE
380
     0
  9
$PSTYLEMODE
290
     1
  9
$FINGERPRINTGUID
  2
{FDEAD576-A652-11D2-9A35-0060089B3A3F}
  9
$VERSIONGUID
  2
{437445BA-8053-4AE8-B211-CF99AB15E9D6}
  9
$EXTNAMES
290
     1
  9
$PSVPSCALE
 40
0.0
  9
$OLESTARTUP
290
     0
  0
ENDSEC
  0
SECTION
  2
CLASSES
  0
CLASS
  1
ACDBDICTIONARYWDFLT
  2
AcDbDictionaryWithDefault
  3
AutoCAD 2000
 90
        0
280
     0
281
     0
  0
CLASS
  1
ACDBPLACEHOLDER
  2
AcDbPlaceHolder
  3
AutoCAD 2000
 90
        0
280
     0
281
     0
  0
CLASS
  1
LAYOUT
  2
AcDbLayout
  3
AutoCAD 2000
 90
        0
280
     0
281
     0
  0
ENDSEC
  0
SECTION
  2
TABLES
  0
TABLE
  2
VPORT
  5
8
330
0
100
AcDbSymbolTable
 70
     6
  0
VPORT
  5
585
330
8
100
AcDbSymbolTableRecord
100
AcDbViewportTableRecord
  2
*Active
 70
     0
 10
0.0
 20
0.0
 11
1.0
 21
1.0
 12
133.3525616604087
 22
93.52827064392915
 13
0.0
 23
0.0
 14
1.0
 24
1.0
 15
10.0
 25
10.0
 16
0.0
 26
0.0
 36
1.0
 17
0.0
 27
0.0
 37
0.0
 40
185.0761568700834
 41
1.629473684210526
 42
50.0
 43
0.0
 44
0.0
 50
0.0
 51
0.0
 71
     0
 72
   100
 73
     1
 74
     3
 75
     1
 76
     1
 77
     0
 78
     0
281
     0
 65
     1
110
0.0
120
0.0
130
0.0
111
1.0
121
0.0
131
0.0
112
0.0
122
1.0
132
0.0
 79
     0
146
0.0
  0
ENDTAB
  0
TABLE
  2
LTYPE
  5
5
330
0
100
AcDbSymbolTable
 70
     3
  0
LTYPE
  5
14
330
5
100
AcDbSymbolTableRecord
100
AcDbLinetypeTableRecord
  2
ByBlock
 70
     0
  3

 72
    65
 73
     0
 40
0.0
  0
LTYPE
  5
15
330
5
100
AcDbSymbolTableRecord
100
AcDbLinetypeTableRecord
  2
ByLayer
 70
     0
  3

 72
    65
 73
     0
 40
0.0
  0
LTYPE
  5
16
330
5
100
AcDbSymbolTableRecord
100
AcDbLinetypeTableRecord
  2
Continuous
 70
     0
  3
Solid line
 72
    65
 73
     0
 40
0.0
  0
LTYPE
  5
48
330
5
100
AcDbSymbolTableRecord
100
AcDbLinetypeTableRecord
  2
CENTER
 70
     0
  3
____ _ ____ _ ____ _ ____ _ ____ _ ____ _ ____ 
 72
    65
 73
     4
 40
2.0
 49
1.25
 74
     0
 49
-0.25
 74
     0
 49
0.25
 74
     0
 49
-0.25
 74
     0
  0
LTYPE
  5
F9
330
5
100
AcDbSymbolTableRecord
100
AcDbLinetypeTableRecord
  2
HIDDEN
 70
     0
  3
Hidden __ __ __ __ __ __ __ __ __ __ __ __ __ _
 72
    65
 73
     2
 40
0.375
 49
0.25
 74
     0
 49
-0.125
 74
     0
  0
ENDTAB
  0
TABLE
  2
LAYER
  5
2
330
0
100
AcDbSymbolTable
 70
    22
  0
LAYER
  5
10
330
2
100
AcDbSymbolTableRecord
100
AcDbLayerTableRecord
  2
0
 70
     0
 62
     7
  6
Continuous
370
    -3
390
F
  0
LAYER
  5
49
330
2
100
AcDbSymbolTableRecord
100
AcDbLayerTableRecord
  2
TEXT
 70
     0
 62
     7
  6
Continuous
370
    -3
390
F
  0
LAYER
  5
4A
330
2
100
AcDbSymbolTableRecord
100
AcDbLayerTableRecord
  2
BORDER
 70
     0
 62
     8
  6
Continuous
370
    -3
390
F
  0
LAYER
  5
A1
330
2
100
AcDbSymbolTableRecord
100
AcDbLayerTableRecord
  2
Defpoints
 70
     0
 62
     7
  6
Continuous
290
     0
370
    -3
390
F
  0
LAYER
  5
D8
330
2
100
AcDbSymbolTableRecord
100
AcDbLayerTableRecord
  2
DIM
 70
     0
 62
     3
  6
Continuous
370
    -3
390
F
  0
LAYER
  5
D9
330
2
100
AcDbSymbolTableRecord
100
AcDbLayerTableRecord
  2
CENTER
 70
     0
 62
     1
  6
CENTER
370
    -3
390
F
  0
LAYER
  5
251
330
2
100
AcDbSymbolTableRecord
100
AcDbLayerTableRecord
  2
AXE
 70
     0
 62
     3
  6
CENTER
370
    -3
390
F
  0
LAYER
  5
252
330
2
100
AcDbSymbolTableRecord
100
AcDbLayerTableRecord
  2
ROBERT
 70
     0
 62
   134
  6
Continuous
370
    -3
390
F
  0
LAYER
  5
253
330
2
100
AcDbSymbolTableRecord
100
AcDbLayerTableRecord
  2
HYBRID
 70
     0
 62
   153
  6
Continuous
370
    -3
390
F
  0
LAYER
  5
254
330
2
100
AcDbSymbolTableRecord
100
AcDbLayerTableRecord
  2
CONTACT
 70
     0
 62
    20
  6
Continuous
370
    -3
390
F
  0
LAYER
  5
255
330
2
100
AcDbSymbolTableRecord
100
AcDbLayerTableRecord
  2
OUTER_BAR
 70
     0
 62
    30
  6
Continuous
370
    -3
390
F
  0
LAYER
  5
256
330
2
100
AcDbSymbolTableRecord
100
AcDbLayerTableRecord
  2
KAPTON_CIRCUIT
 70
     0
 62
   210
  6
Continuous
370
    -3
390
F
  0
LAYER
  5
257
330
2
100
AcDbSymbolTableRecord
100
AcDbLayerTableRecord
  2
PA
 70
     0
 62
    74
  6
Continuous
370
    -3
390
F
  0
LAYER
  5
258
330
2
100
AcDbSymbolTableRecord
100
AcDbLayerTableRecord
  2
HYB_PLATE
 70
     0
 62
     4
  6
Continuous
370
    -3
390
F
  0
LAYER
  5
259
330
2
100
AcDbSymbolTableRecord
100
AcDbLayerTableRecord
  2
SPRING
 70
     0
 62
   214
  6
Continuous
370
    -3
390
F
  0
LAYER
  5
25A
330
2
100
AcDbSymbolTableRecord
100
AcDbLayerTableRecord
  2
OUT_CAB
 70
     0
 62
     7
  6
Continuous
370
    -3
390
F
  0
LAYER
  5
270
330
2
100
AcDbSymbolTableRecord
100
AcDbLayerTableRecord
  2
BLUE
 70
     0
 62
     5
  6
Continuous
370
    -3
390
F
  0
LAYER
  5
271
330
2
100
AcDbSymbolTableRecord
100
AcDbLayerTableRecord
  2
RED
 70
     0
 62
     1
  6
Continuous
370
    -3
390
F
  0
LAYER
  5
272
330
2
100
AcDbSymbolTableRecord
100
AcDbLayerTableRecord
  2
MAGNETA
 70
     0
 62
     6
  6
Continuous
370
    -3
390
F
  0
LAYER
  5
273
330
2
100
AcDbSymbolTableRecord
100
AcDbLayerTableRecord
  2
WHITE
 70
     0
 62
     7
  6
Continuous
370
    -3
390
F
  0
LAYER
  5
274
330
2
100
AcDbSymbolTableRecord
100
AcDbLayerTableRecord
  2
LT
 70
     0
 62
     7
  6
Continuous
370
    -3
390
F
  0
LAYER
  5
275
330
2
100
AcDbSymbolTableRecord
100
AcDbLayerTableRecord
  2
glue
 70
     0
 62
     4
  6
Continuous
370
    -3
390
F
  0
ENDTAB
  0
TABLE
  2
STYLE
  5
3
330
0
100
AcDbSymbolTable
 70
     3
  0
STYLE
  5
11
330
3
100
AcDbSymbolTableRecord
100
AcDbTextStyleTableRecord
  2
Standard
 70
     0
 40
0.0
 41
1.0
 50
0.0
 71
     0
 42
0.2
  3
txt
  4

  0
STYLE
  5
4B
330
3
100
AcDbSymbolTableRecord
100
AcDbTextStyleTableRecord
  2
ADESK2
 70
     0
 40
0.0
 41
1.0
 50
0.0
 71
     0
 42
0.065
  3
romans
  4

  0
STYLE
  5
F8
330
3
100
AcDbSymbolTableRecord
100
AcDbTextStyleTableRecord
  2

 70
     1
 40
0.0
 41
1.0
 50
0.0
 71
     0
 42
0.2
  3
ltypeshp.shx
  4

  0
ENDTAB
  0
TABLE
  2
VIEW
  5
6
330
0
100
AcDbSymbolTable
 70
     0
  0
ENDTAB
  0
TABLE
  2
UCS
  5
7
330
0
100
AcDbSymbolTable
 70
     0
  0
ENDTAB
  0
TABLE
  2
APPID
  5
9
330
0
100
AcDbSymbolTable
 70
     1
  0
APPID
  5
12
330
9
100
AcDbSymbolTableRecord
100
AcDbRegAppTableRecord
  2
ACAD
 70
     0
  0
ENDTAB
  0
TABLE
  2
DIMSTYLE
  5
A
330
0
100
AcDbSymbolTable
 70
     6
100
AcDbDimStyleTable
 71
     4
340
4C
340
DF
340
E0
340
27
  0
DIMSTYLE
105
27
330
A
100
AcDbSymbolTableRecord
100
AcDbDimStyleTableRecord
  2
Standard
 70
     0
340
11
  0
DIMSTYLE
105
4C
102
{ACAD_REACTORS
330
3B6
330
3C0
102
}
330
A
100
AcDbSymbolTableRecord
100
AcDbDimStyleTableRecord
  2
SU1
 70
     0
  4
mm
 40
15.0
 47
0.001
 48
0.001
271
     2
272
     2
289
     0
340
11
  0
DIMSTYLE
105
DF
330
A
100
AcDbSymbolTableRecord
100
AcDbDimStyleTableRecord
  2
SU1$4
 70
     0
  4
mm
 40
15.0
 47
0.001
 48
0.001
271
     2
272
     2
288
     1
289
     0
340
11
  0
DIMSTYLE
105
E0
330
A
100
AcDbSymbolTableRecord
100
AcDbDimStyleTableRecord
  2
SU1$3
 70
     0
  4
mm
 40
15.0
 47
0.001
 48
0.001
271
     2
272
     2
288
     1
289
     0
340
11
  0
DIMSTYLE
105
25B
330
A
100
AcDbSymbolTableRecord
100
AcDbDimStyleTableRecord
  2
ISO-25
 70
     0
 41
2.5
 42
0.625
 43
3.75
 44
1.25
 73
     0
 74
     0
 77
     1
 78
     8
140
2.5
141
2.5
143
0.03937007874016
147
0.625
171
     3
172
     1
271
     2
272
     2
274
     3
278
    44
283
     0
284
     8
340
11
  0
DIMSTYLE
105
25C
330
A
100
AcDbSymbolTableRecord
100
AcDbDimStyleTableRecord
  2
Copy of SU1
 70
     0
  4
mm
 41
5.0
 42
2.0
 43
5.0
 44
5.0
 47
0.001
 48
0.001
140
5.0
141
2.5
144
0.03937
147
1.0
271
     3
272
     3
288
     1
289
     0
340
11
  0
ENDTAB
  0
TABLE
  2
BLOCK_RECORD
  5
1
330
0
100
AcDbSymbolTable
 70
    13
  0
BLOCK_RECORD
  5
1F
330
1
100
AcDbSymbolTableRecord
100
AcDbBlockTableRecord
  2
*Model_Space
340
22
  0
BLOCK_RECORD
  5
1B
330
1
100
AcDbSymbolTableRecord
100
AcDbBlockTableRecord
  2
*Paper_Space
340
1E
  0
BLOCK_RECORD
  5
23
330
1
100
AcDbSymbolTableRecord
100
AcDbBlockTableRecord
  2
*Paper_Space0
340
26
  0
BLOCK_RECORD
  5
108
330
1
100
AcDbSymbolTableRecord
100
AcDbBlockTableRecord
  2
ROUND_40
340
0
102
{BLKREFS
331
12D
331
166
331
1A7
331
1FD
102
}
  0
BLOCK_RECORD
  5
10C
330
1
100
AcDbSymbolTableRecord
100
AcDbBlockTableRecord
  2
RECTANGLE_416
340
0
102
{BLKREFS
331
1E6
331
1E7
331
1E8
331
1E9
331
1EC
331
1EF
331
22E
331
22F
331
230
331
231
331
235
331
237
102
}
  0
BLOCK_RECORD
  5
110
330
1
100
AcDbSymbolTableRecord
100
AcDbBlockTableRecord
  2
RECTANGLE_523
340
0
102
{BLKREFS
331
15F
331
160
331
161
331
162
331
1AE
331
1AF
331
1B0
331
1B1
331
1E1
331
1E2
331
1E3
331
1E4
102
}
  0
BLOCK_RECORD
  5
114
330
1
100
AcDbSymbolTableRecord
100
AcDbBlockTableRecord
  2
RECTANGLE_661
340
0
102
{BLKREFS
331
1EB
331
1ED
331
233
331
234
102
}
  0
BLOCK_RECORD
  5
118
330
1
100
AcDbSymbolTableRecord
100
AcDbBlockTableRecord
  2
SQUARE_1992
340
0
102
{BLKREFS
331
1EE
331
22D
102
}
  0
BLOCK_RECORD
  5
11C
330
1
100
AcDbSymbolTableRecord
100
AcDbBlockTableRecord
  2
r-phi kapton-001
340
0
310
2800000020000000200000000100080000000000000400000000000000000000000000000000000000000000000080000080000000808000800000008000800080800000C0C0C000C0DCC000F0CAA6000020400000206000002080000020A0000020C0000020E00000400000004020000040400000406000004080000040A0
310
000040C0000040E00000600000006020000060400000606000006080000060A0000060C0000060E00000800000008020000080400000806000008080000080A0000080C0000080E00000A0000000A0200000A0400000A0600000A0800000A0A00000A0C00000A0E00000C0000000C0200000C0400000C0600000C0800000C0
310
A00000C0C00000C0E00000E0000000E0200000E0400000E0600000E0800000E0A00000E0C00000E0E00040000000400020004000400040006000400080004000A0004000C0004000E00040200000402020004020400040206000402080004020A0004020C0004020E000404000004040200040404000404060004040800040
310
40A0004040C0004040E00040600000406020004060400040606000406080004060A0004060C0004060E00040800000408020004080400040806000408080004080A0004080C0004080E00040A0000040A0200040A0400040A0600040A0800040A0A00040A0C00040A0E00040C0000040C0200040C0400040C0600040C08000
310
40C0A00040C0C00040C0E00040E0000040E0200040E0400040E0600040E0800040E0A00040E0C00040E0E00080000000800020008000400080006000800080008000A0008000C0008000E00080200000802020008020400080206000802080008020A0008020C0008020E00080400000804020008040400080406000804080
310
008040A0008040C0008040E00080600000806020008060400080606000806080008060A0008060C0008060E00080800000808020008080400080806000808080008080A0008080C0008080E00080A0000080A0200080A0400080A0600080A0800080A0A00080A0C00080A0E00080C0000080C0200080C0400080C0600080C0
310
800080C0A00080C0C00080C0E00080E0000080E0200080E0400080E0600080E0800080E0A00080E0C00080E0E000C0000000C0002000C0004000C0006000C0008000C000A000C000C000C000E000C0200000C0202000C0204000C0206000C0208000C020A000C020C000C020E000C0400000C0402000C0404000C0406000C0
310
408000C040A000C040C000C040E000C0600000C0602000C0604000C0606000C0608000C060A000C060C000C060E000C0800000C0802000C0804000C0806000C0808000C080A000C080C000C080E000C0A00000C0A02000C0A04000C0A06000C0A08000C0A0A000C0A0C000C0A0E000C0C00000C0C02000C0C04000C0C06000
310
C0C08000C0C0A000F0FBFF00A4A0A000808080000000FF0000FF000000FFFF00FF000000FF00FF00FFFF0000FFFFFF0000000000000000000000000000000000000000000000000000000000000000000000000000000000000000000000000000000000000000000000000000000000000000000000000000000000000000
310
00000000000000000000000000000000000000000000000000000000000000000000000000000000000000000000000000000000000000000000000000000000000000000000000000000000000000000000000000000000000000000000000000000000000000000000000000000000000000000000000000000000000000
310
00000000000000000000000000000000000000000000000000000000000000000000000000000000000000000000000000000000000000000000000000000000000000000000000000000000000000000000000027272727272727272727FA27272727272727272727172717FA000000000000272727A8A8A8A8FDFD27FAFA
310
27A8FDFDA8A8A8FDFDFD2A2727FAFA000000000027272727FAFDFDFDFD2727272727FDFDFDFDFA2727FEFE171727FDFDFDFD000000A80000FAFDFDFDFDFD00A800FDFDFDFDFDFAFD00FEEBEBEBEBFDFDFDFD000000A8000000000000FDFD00A800FD00000000000000FEEB0000EB00000000000000A8000000000000000000
310
A800FD00000000000000FEEB0000EB00000000000000A8000000000000000000FA000000000000000000FEEB0000EB00000000000000A8000000000000000000FD000000000000000000FEEB00FFEBFFFFFF00000000A8000000000000000000A800FD00000000000000FEEB00FFEB00FFFF00000000A8000000000000FDFD
310
00A800FD00000000000000FEEB00FFEBFFFFFF00000000A80000FAFDFDFDFDFD00A800FDFAFDFDFDFDFD00FEEBEBEBEBFDFDFDFD000027272727FDFDFDFDFD2727A82727FDFDFDFDFD27271717171727FDFDFDFD0000272727A8A8A8A8FDFD27FAFAA8A8FDFDA8A8A8FDFDFD2A1727FA000000000000002727272727272727
310
27272727272727272727272727172717FA0000000000000000000000000000000000000000000000000000000000000000000000000000000000000000000000000000000000000000000000000000000000000000000000000000000000000000000000000000000000000000000000000000000000000000000000000000
310
00000000000000000000000000000000000000000000000000000000000000000000000000000000000000000000000000000000000000000000000000000000000000000000000000000000000000000000000000000000000000000000000000000000000000000000000000000000000000000000000000000000000000
310
0000000000000000000000000000000000000000000000000000000000000000000000000000000000000000000000000000000000000000
102
{BLKREFS
331
24E
102
}
1001
ACAD
1000
DesignCenter Data
1002
{
1070
     1
1070
     4
1002
}
  0
BLOCK_RECORD
  5
24D
330
1
100
AcDbSymbolTableRecord
100
AcDbBlockTableRecord
  2
cmsmodule-002
340
0
102
{BLKREFS
331
25E
331
262
102
}
1001
ACAD
1000
DesignCenter Data
1002
{
1070
     1
1070
     4
1002
}
  0
BLOCK_RECORD
  5
263
330
1
100
AcDbSymbolTableRecord
100
AcDbBlockTableRecord
  2
*D9
340
0
  0
BLOCK_RECORD
  5
4DC
330
1
100
AcDbSymbolTableRecord
100
AcDbBlockTableRecord
  2
*D11
340
0
  0
BLOCK_RECORD
  5
4FD
330
1
100
AcDbSymbolTableRecord
100
AcDbBlockTableRecord
  2
a-border
340
0
102
{BLKREFS
331
547
102
}
  0
ENDTAB
  0
ENDSEC
  0
SECTION
  2
BLOCKS
  0
BLOCK
  5
20
330
1F
100
AcDbEntity
  8
0
100
AcDbBlockBegin
  2
*Model_Space
 70
     0
 10
0.0
 20
0.0
 30
0.0
  3
*Model_Space
  1

  0
ENDBLK
  5
21
330
1F
100
AcDbEntity
  8
0
100
AcDbBlockEnd
  0
BLOCK
  5
1C
330
1B
100
AcDbEntity
 67
     1
  8
0
100
AcDbBlockBegin
  2
*Paper_Space
 70
     0
 10
0.0
 20
0.0
 30
0.0
  3
*Paper_Space
  1

  0
ENDBLK
  5
1D
330
1B
100
AcDbEntity
 67
     1
  8
0
100
AcDbBlockEnd
  0
BLOCK
  5
24
330
23
100
AcDbEntity
  8
0
100
AcDbBlockBegin
  2
*Paper_Space0
 70
     0
 10
0.0
 20
0.0
 30
0.0
  3
*Paper_Space0
  1

  0
ENDBLK
  5
25
330
23
100
AcDbEntity
  8
0
100
AcDbBlockEnd
  0
BLOCK
  5
10A
330
108
100
AcDbEntity
  8
0
100
AcDbBlockBegin
  2
ROUND_40
 70
     0
 10
0.0
 20
0.0
 30
0.0
  3
ROUND_40
  1

  0
CIRCLE
  5
109
330
108
100
AcDbEntity
  8
0
100
AcDbCircle
 10
0.0
 20
0.0
 30
0.0
 40
1.650999999999999
  0
ENDBLK
  5
10B
330
108
100
AcDbEntity
  8
0
100
AcDbBlockEnd
  0
BLOCK
  5
10E
330
10C
100
AcDbEntity
  8
0
100
AcDbBlockBegin
  2
RECTANGLE_416
 70
     0
 10
0.0
 20
0.0
 30
0.0
  3
RECTANGLE_416
  1

  0
SOLID
  5
10D
330
10C
100
AcDbEntity
  8
0
100
AcDbTrace
 10
-0.635
 20
-1.016
 30
0.0
 11
-0.635
 21
1.016
 31
0.0
 12
0.635
 22
-1.016
 32
0.0
 13
0.635
 23
1.016
 33
0.0
  0
ENDBLK
  5
10F
330
10C
100
AcDbEntity
  8
0
100
AcDbBlockEnd
  0
BLOCK
  5
112
330
110
100
AcDbEntity
  8
0
100
AcDbBlockBegin
  2
RECTANGLE_523
 70
     0
 10
0.0
 20
0.0
 30
0.0
  3
RECTANGLE_523
  1

  0
SOLID
  5
111
330
110
100
AcDbEntity
  8
0
100
AcDbTrace
 10
-0.9525
 20
-0.5715
 30
0.0
 11
-0.9525
 21
0.5715
 31
0.0
 12
0.9525
 22
-0.5715
 32
0.0
 13
0.9525
 23
0.5715
 33
0.0
  0
ENDBLK
  5
113
330
110
100
AcDbEntity
  8
0
100
AcDbBlockEnd
  0
BLOCK
  5
116
330
114
100
AcDbEntity
  8
0
100
AcDbBlockBegin
  2
RECTANGLE_661
 70
     0
 10
0.0
 20
0.0
 30
0.0
  3
RECTANGLE_661
  1

  0
SOLID
  5
115
330
114
100
AcDbEntity
  8
0
100
AcDbTrace
 10
-1.396999999999999
 20
-0.6985000000000002
 30
0.0
 11
-1.396999999999999
 21
0.6985000000000002
 31
0.0
 12
1.396999999999999
 22
-0.6985000000000002
 32
0.0
 13
1.396999999999999
 23
0.6985000000000002
 33
0.0
  0
ENDBLK
  5
117
330
114
100
AcDbEntity
  8
0
100
AcDbBlockEnd
  0
BLOCK
  5
11A
330
118
100
AcDbEntity
  8
0
100
AcDbBlockBegin
  2
SQUARE_1992
 70
     0
 10
0.0
 20
0.0
 30
0.0
  3
SQUARE_1992
  1

  0
SOLID
  5
119
330
118
100
AcDbEntity
  8
0
100
AcDbTrace
 10
-1.75
 20
-1.75
 30
0.0
 11
-1.75
 21
1.75
 31
0.0
 12
1.75
 22
-1.75
 32
0.0
 13
1.75
 23
1.75
 33
0.0
  0
ENDBLK
  5
11B
330
118
100
AcDbEntity
  8
0
100
AcDbBlockEnd
  0
BLOCK
  5
24B
330
11C
100
AcDbEntity
  8
0
100
AcDbBlockBegin
  2
r-phi kapton-001
 70
     0
 10
0.0
 20
0.0
 30
0.0
  3
r-phi kapton-001
  1

  0
LWPOLYLINE
  5
11D
330
11C
100
AcDbEntity
  8
KAPTON_CIRCUIT
100
AcDbPolyline
 90
       30
 70
     0
 43
0.0
 10
164.8885227936591
 20
46.30000000000061
 10
118.4499999999999
 20
46.30000000000021
 10
106.4499999999999
 20
58.30000000000021
 10
63.95000000000002
 20
58.30000000000021
 10
61.95000000000002
 20
56.30000000000021
 10
8.950000000000017
 20
56.30000000000021
 10
1.450000000000017
 20
48.80000000000021
 10
-7.549999999999982
 20
48.80000000000021
 10
-15.04999999999998
 20
56.30000000000021
 10
-87.05000000000001
 20
56.30000000000021
 10
-87.05000000000001
 20
51.30000000000021
 10
-95.55000000000001
 20
51.30000000000021
 10
-95.55000000000001
 20
45.80000000000021
 10
-75.05000000000001
 20
45.80000000000021
 10
-67.55000000000001
 20
38.30000000000032
 10
-39.04999999999998
 20
38.30000000000032
 10
-35.04999999999998
 20
34.30000000000024
 10
-22.54999999999998
 20
34.30000000000024
 10
-22.54999999999998
 20
19.80000000000023
 10
-17.54999999999998
 20
19.80000000000023
 10
-17.54999999999998
 20
41.80000000000021
 10
16.95000000000001
 20
41.80000000000021
 10
16.95000000000001
 20
16.30000000000032
 10
22.95000000000001
 20
16.30000000000032
 10
22.95000000000001
 20
34.30000000000024
 10
75.95000000000002
 20
34.30000000000024
 10
85.45000000000001
 20
43.80000000000021
 10
108.4499999999999
 20
43.80000000000021
 10
114.9499999999999
 20
37.30000000000021
 10
164.8885227936591
 20
37.30000000000021
  0
LWPOLYLINE
  5
11E
330
11C
100
AcDbEntity
  8
KAPTON_CIRCUIT
100
AcDbPolyline
 90
       30
 70
     0
 43
0.0
 10
164.8885227936591
 20
-46.30000000000061
 10
118.4499999999999
 20
-46.30000000000021
 10
106.4499999999999
 20
-58.30000000000021
 10
63.95000000000002
 20
-58.30000000000021
 10
61.95000000000002
 20
-56.30000000000021
 10
8.950000000000017
 20
-56.30000000000021
 10
1.450000000000017
 20
-48.80000000000021
 10
-7.549999999999982
 20
-48.80000000000021
 10
-15.04999999999998
 20
-56.30000000000021
 10
-87.05000000000001
 20
-56.30000000000021
 10
-87.05000000000001
 20
-51.30000000000021
 10
-95.55000000000001
 20
-51.30000000000021
 10
-95.55000000000001
 20
-45.80000000000021
 10
-75.05000000000001
 20
-45.80000000000021
 10
-67.55000000000001
 20
-38.30000000000032
 10
-39.04999999999998
 20
-38.30000000000032
 10
-35.04999999999998
 20
-34.30000000000024
 10
-22.54999999999998
 20
-34.30000000000024
 10
-22.54999999999998
 20
-19.80000000000023
 10
-17.54999999999998
 20
-19.80000000000023
 10
-17.54999999999998
 20
-41.80000000000021
 10
16.95000000000001
 20
-41.80000000000021
 10
16.95000000000001
 20
-16.30000000000032
 10
22.95000000000001
 20
-16.30000000000032
 10
22.95000000000001
 20
-34.30000000000024
 10
75.95000000000002
 20
-34.30000000000024
 10
85.45000000000001
 20
-43.80000000000021
 10
108.4499999999999
 20
-43.80000000000021
 10
114.9499999999999
 20
-37.30000000000021
 10
164.8885227936591
 20
-37.30000000000021
  0
LWPOLYLINE
  5
11F
330
11C
100
AcDbEntity
  8
ROBERT
100
AcDbPolyline
 90
        5
 70
     1
 43
0.0
 10
-0.0499999999996419
 20
0.0
 10
-0.0499999999996419
 20
-48.1999999999999
 10
-94.56399999999973
 20
-48.19999999999973
 10
-94.56399999999973
 20
48.19599999999988
 10
-0.0499999999996419
 20
48.19599999999988
  0
LWPOLYLINE
  5
120
330
11C
100
AcDbEntity
  8
ROBERT
100
AcDbPolyline
 90
        5
 70
     1
 43
0.0
 10
-94.56399999999973
 20
0.0
 10
-94.56399999999973
 20
-48.19999999999973
 10
-0.0499999999996419
 20
-48.1999999999999
 10
-0.0499999999996419
 20
48.19599999999988
 10
-94.56399999999973
 20
48.19599999999988
  0
LWPOLYLINE
  5
121
330
11C
100
AcDbEntity
  8
CONTACT
100
AcDbPolyline
 90
        4
 70
     1
 43
0.0
 10
-9.999999999999431
 20
-44.00000000000011
 10
-9.999999999999431
 20
-60.00000000000011
 10
10.00000000000056
 20
-60.00000000000011
 10
10.00000000000056
 20
-44.00000000000011
  0
LWPOLYLINE
  5
122
330
11C
100
AcDbEntity
  8
OUTER_BAR
100
AcDbPolyline
 90
        4
 70
     1
 43
0.0
 10
13.00000000000056
 20
-60.00000000000011
 10
13.00000000000056
 20
-44.00000000000011
 10
-12.99999999999943
 20
-44.00000000000011
 10
-12.99999999999943
 20
-59.99999999999963
  0
CIRCLE
  5
123
330
11C
100
AcDbEntity
  8
OUTER_BAR
100
AcDbCircle
 10
0.0000000000001705
 20
-53.50000000000012
 30
0.0
 40
5.0
  0
LWPOLYLINE
  5
124
330
11C
100
AcDbEntity
  8
CONTACT
100
AcDbPolyline
 90
        4
 70
     1
 43
0.0
 10
-9.999999999999431
 20
43.99999999999988
 10
-9.999999999999431
 20
59.99999999999997
 10
10.00000000000056
 20
59.99999999999997
 10
10.00000000000056
 20
43.99999999999988
  0
LWPOLYLINE
  5
125
330
11C
100
AcDbEntity
  8
OUTER_BAR
100
AcDbPolyline
 90
        4
 70
     1
 43
0.0
 10
13.00000000000056
 20
59.99999999999997
 10
13.00000000000056
 20
43.99999999999988
 10
-12.99999999999943
 20
43.99999999999988
 10
-12.99999999999943
 20
59.99999999999952
  0
CIRCLE
  5
126
330
11C
100
AcDbEntity
  8
OUTER_BAR
100
AcDbCircle
 10
0.0000000000001705
 20
53.49999999999986
 30
0.0
 40
5.0
  0
LWPOLYLINE
  5
127
330
11C
100
AcDbEntity
  8
OUTER_BAR
100
AcDbPolyline
 90
       26
 70
     1
 43
0.0
 10
-35.99999999999943
 20
-41.80011682306764
 10
-35.99999999999983
 20
-40.30000000000021
 42
0.4142135623730951
 10
-36.99999999999983
 20
-39.30000000000021
 10
-57.49999999999983
 20
-39.30000000000021
 42
0.4142135623730951
 10
-58.49999999999983
 20
-40.30000000000021
 10
-58.49999999999943
 20
-45.80000000000021
 42
-0.4142135623730957
 10
-59.49999999999943
 20
-46.80000000000021
 10
-98.49999999999944
 20
-46.80000000000001
 42
0.4142135623730957
 10
-99.49999999999944
 20
-47.80000000000001
 10
-99.49999999999944
 20
-55.5857864376265
 42
0.198912367379656
 10
-99.20710678118602
 20
-56.29289321881322
 10
-95.79289321881322
 20
-59.70710678118649
 42
0.198912367379658
 10
-95.08578643762689
 20
-59.9999999999998
 10
109.5000000000001
 20
-60.00000000000011
 42
0.4142135623730879
 10
110.5000000000001
 20
-59.00000000000011
 10
110.5000000000005
 20
-45.80000000000021
 42
0.4142135623731026
 10
109.5000000000005
 20
-44.8000000000002
 10
64.50000000000014
 20
-44.8000000000002
 42
-0.4142135623730959
 10
63.50000000000014
 20
-43.80000000000021
 10
63.50000000000014
 20
-40.30000000000021
 42
0.4142135623730959
 10
62.50000000000014
 20
-39.30000000000021
 10
42.00000000000014
 20
-39.30000000000021
 42
0.414213562373098
 10
41.00000000000014
 20
-40.30000000000021
 10
41.00000000000014
 20
-41.80011682306764
 42
-0.4142135623730951
 10
40.00000000000014
 20
-42.80011682306763
 10
-34.99999999999943
 20
-42.80011682306763
 42
-0.4142135623730685
  0
LWPOLYLINE
  5
128
330
11C
100
AcDbEntity
  8
OUTER_BAR
100
AcDbPolyline
 90
       26
 70
     1
 43
0.0
 10
-35.99999999999943
 20
41.8001168230675
 10
-35.99999999999983
 20
40.3000000000001
 42
-0.4142135623730951
 10
-36.99999999999983
 20
39.3000000000001
 10
-57.49999999999983
 20
39.3000000000001
 42
-0.4142135623730951
 10
-58.49999999999983
 20
40.3000000000001
 10
-58.49999999999943
 20
45.80000000000009
 42
0.4142135623730957
 10
-59.49999999999943
 20
46.80000000000009
 10
-98.49999999999944
 20
46.80000000000009
 42
-0.4142135623730957
 10
-99.49999999999944
 20
47.8000000000001
 10
-99.49999999999944
 20
55.58578643762658
 42
-0.198912367379656
 10
-99.20710678118602
 20
56.2928932188133
 10
-95.79289321881322
 20
59.70710678118658
 42
-0.198912367379658
 10
-95.08578643762689
 20
59.99999999999997
 10
109.5000000000001
 20
59.99999999999997
 42
-0.4142135623730879
 10
110.5000000000001
 20
58.99999999999986
 10
110.5000000000005
 20
45.80000000000009
 42
-0.4142135623731026
 10
109.5000000000005
 20
44.8000000000001
 10
64.50000000000014
 20
44.8000000000001
 42
0.4142135623730959
 10
63.50000000000014
 20
43.80000000000009
 10
63.50000000000014
 20
40.3000000000001
 42
-0.4142135623730959
 10
62.50000000000014
 20
39.3000000000001
 10
42.00000000000014
 20
39.3000000000001
 42
-0.414213562373098
 10
41.00000000000014
 20
40.3000000000001
 10
41.00000000000014
 20
41.8001168230675
 42
0.4142135623730951
 10
40.00000000000014
 20
42.80011682306749
 10
-34.99999999999943
 20
42.80011682306749
 42
0.4142135623730685
  0
CIRCLE
  5
129
330
11C
100
AcDbEntity
  8
OUTER_BAR
100
AcDbCircle
 10
-89.99999999999984
 20
-53.50000000000012
 30
0.0
 40
1.25
  0
LWPOLYLINE
  5
12A
330
11C
100
AcDbEntity
  8
KAPTON_CIRCUIT
100
AcDbPolyline
 90
        2
 70
     0
 43
0.127
 10
-37.36599999999984
 20
-47.75000000000011
 10
-57.23799999999966
 20
-47.75000000000011
  0
LWPOLYLINE
  5
12B
330
11C
100
AcDbEntity
  8
KAPTON_CIRCUIT
100
AcDbPolyline
 90
        2
 70
     0
 43
0.127
 10
-55.29599999999965
 20
-39.2780000000003
 10
-39.30799999999985
 20
-39.2780000000003
  0
CIRCLE
  5
12C
330
11C
100
AcDbEntity
  8
KAPTON_CIRCUIT
100
AcDbCircle
 10
-62.99999999999982
 20
-41.30000000000032
 30
0.0
 40
1.0
  0
INSERT
  5
12D
330
11C
100
AcDbEntity
  8
KAPTON_CIRCUIT
100
AcDbBlockReference
  2
ROUND_40
 10
-62.99999999999982
 20
-41.30000000000032
 30
0.0
  0
LINE
  5
12E
330
11C
100
AcDbEntity
  8
AXE
100
AcDbLine
 10
-62.99999999999982
 20
-43.80000000000021
 30
0.0
 11
-62.99999999999982
 21
-36.4320971128873
 31
0.0
  0
LINE
  5
12F
330
11C
100
AcDbEntity
  8
AXE
100
AcDbLine
 10
-62.99999999999982
 20
-43.80000000000021
 30
0.0
 11
-62.99999999999982
 21
-36.4320971128873
 31
0.0
  0
LINE
  5
130
330
11C
100
AcDbEntity
  8
AXE
100
AcDbLine
 10
-64.70000000000013
 20
-41.30000000000032
 30
0.0
 11
-59.98978949234234
 21
-41.30000000000032
 31
0.0
  0
LINE
  5
131
330
11C
100
AcDbEntity
  8
AXE
100
AcDbLine
 10
-65.99999999999983
 20
-41.30000000000032
 30
0.0
 11
-59.98978949234234
 21
-41.30000000000032
 31
0.0
  0
LWPOLYLINE
  5
132
330
11C
100
AcDbEntity
  8
KAPTON_CIRCUIT
100
AcDbPolyline
 90
        2
 70
     0
 43
0.127
 10
-56.55037232502479
 20
-47.30248761230135
 10
-56.27337232502478
 20
-47.49648761230122
  0
LWPOLYLINE
  5
133
330
11C
100
AcDbEntity
  8
KAPTON_CIRCUIT
100
AcDbPolyline
 90
        2
 70
     0
 43
0.127
 10
-56.27337232502478
 20
-47.49648761230122
 10
-55.96837232502486
 20
-47.63848761230105
  0
LWPOLYLINE
  5
134
330
11C
100
AcDbEntity
  8
KAPTON_CIRCUIT
100
AcDbPolyline
 90
        2
 70
     0
 43
0.127
 10
-57.23799999999966
 20
-47.75000000000011
 10
-57.23799999999966
 20
-41.2200000000003
  0
LWPOLYLINE
  5
135
330
11C
100
AcDbEntity
  8
KAPTON_CIRCUIT
100
AcDbPolyline
 90
        2
 70
     0
 43
0.127
 10
-55.64037232502485
 20
-47.72648761230124
 10
-55.29837232502479
 20
-47.75648761230104
  0
LWPOLYLINE
  5
136
330
11C
100
AcDbEntity
  8
KAPTON_CIRCUIT
100
AcDbPolyline
 90
        2
 70
     0
 43
0.127
 10
-55.96837232502486
 20
-47.63848761230105
 10
-55.64037232502485
 20
-47.72648761230124
  0
LWPOLYLINE
  5
137
330
11C
100
AcDbEntity
  8
KAPTON_CIRCUIT
100
AcDbPolyline
 90
        2
 70
     0
 43
0.127
 10
-57.24037232502479
 20
-45.81448761230103
 10
-57.21037232502462
 20
-46.15648761230113
  0
LWPOLYLINE
  5
138
330
11C
100
AcDbEntity
  8
KAPTON_CIRCUIT
100
AcDbPolyline
 90
        2
 70
     0
 43
0.127
 10
-57.12237232502485
 20
-46.48448761230113
 10
-56.98037232502506
 20
-46.78948761230134
  0
LWPOLYLINE
  5
139
330
11C
100
AcDbEntity
  8
KAPTON_CIRCUIT
100
AcDbPolyline
 90
        2
 70
     0
 43
0.127
 10
-56.78637232502464
 20
-47.06648761230093
 10
-56.55037232502479
 20
-47.30248761230135
  0
LWPOLYLINE
  5
13A
330
11C
100
AcDbEntity
  8
KAPTON_CIRCUIT
100
AcDbPolyline
 90
        2
 70
     0
 43
0.127
 10
-56.98037232502506
 20
-46.78948761230134
 10
-56.78637232502464
 20
-47.06648761230093
  0
LWPOLYLINE
  5
13B
330
11C
100
AcDbEntity
  8
KAPTON_CIRCUIT
100
AcDbPolyline
 90
        2
 70
     0
 43
0.127
 10
-57.21037232502462
 20
-46.15648761230113
 10
-57.12237232502485
 20
-46.48448761230113
  0
LWPOLYLINE
  5
13C
330
11C
100
AcDbEntity
  8
KAPTON_CIRCUIT
100
AcDbPolyline
 90
        2
 70
     0
 43
0.127
 10
-57.20574238780304
 20
-40.87800000000021
 10
-57.11774238780328
 20
-40.55000000000021
  0
LWPOLYLINE
  5
13D
330
11C
100
AcDbEntity
  8
KAPTON_CIRCUIT
100
AcDbPolyline
 90
        2
 70
     0
 43
0.127
 10
-57.23574238780321
 20
-41.2200000000003
 10
-57.20574238780304
 20
-40.87800000000021
  0
LWPOLYLINE
  5
13E
330
11C
100
AcDbEntity
  8
KAPTON_CIRCUIT
100
AcDbPolyline
 90
        2
 70
     0
 43
0.127
 10
-55.96599999999972
 20
-39.3960000000003
 10
-55.63799999999972
 20
-39.3080000000001
  0
LWPOLYLINE
  5
13F
330
11C
100
AcDbEntity
  8
KAPTON_CIRCUIT
100
AcDbPolyline
 90
        2
 70
     0
 43
0.127
 10
-56.27099999999964
 20
-39.53800000000012
 10
-55.96599999999972
 20
-39.3960000000003
  0
LWPOLYLINE
  5
140
330
11C
100
AcDbEntity
  8
KAPTON_CIRCUIT
100
AcDbPolyline
 90
        2
 70
     0
 43
0.127
 10
-55.63799999999972
 20
-39.3080000000001
 10
-55.29599999999965
 20
-39.2780000000003
  0
LWPOLYLINE
  5
141
330
11C
100
AcDbEntity
  8
KAPTON_CIRCUIT
100
AcDbPolyline
 90
        2
 70
     0
 43
0.127
 10
-56.97799999999992
 20
-40.245
 10
-56.78399999999951
 20
-39.96800000000041
  0
LWPOLYLINE
  5
142
330
11C
100
AcDbEntity
  8
KAPTON_CIRCUIT
100
AcDbPolyline
 90
        2
 70
     0
 43
0.127
 10
-56.54799999999966
 20
-39.732
 10
-56.27099999999964
 20
-39.53800000000012
  0
LWPOLYLINE
  5
143
330
11C
100
AcDbEntity
  8
KAPTON_CIRCUIT
100
AcDbPolyline
 90
        2
 70
     0
 43
0.127
 10
-56.78399999999951
 20
-39.96800000000041
 10
-56.54799999999966
 20
-39.732
  0
LWPOLYLINE
  5
144
330
11C
100
AcDbEntity
  8
KAPTON_CIRCUIT
100
AcDbPolyline
 90
        2
 70
     0
 43
0.127
 10
-57.11999999999972
 20
-40.55000000000021
 10
-56.97799999999992
 20
-40.245
  0
LWPOLYLINE
  5
145
330
11C
100
AcDbEntity
  8
KAPTON_CIRCUIT
100
AcDbPolyline
 90
        2
 70
     0
 43
0.127
 10
-37.36599999999984
 20
-41.2200000000003
 10
-37.36599999999984
 20
-47.75000000000011
  0
LWPOLYLINE
  5
146
330
11C
100
AcDbEntity
  8
KAPTON_CIRCUIT
100
AcDbPolyline
 90
        2
 70
     0
 43
0.254
 10
-29.38199999999992
 20
-43.58199999999999
 10
-29.38199999999992
 20
-49.51800000000011
  0
LWPOLYLINE
  5
147
330
11C
100
AcDbEntity
  8
KAPTON_CIRCUIT
100
AcDbPolyline
 90
        2
 70
     0
 43
0.1
 10
-29.24999999999982
 20
-43.4499999999999
 10
-29.24999999999982
 20
-49.64999999999972
  0
LWPOLYLINE
  5
148
330
11C
100
AcDbEntity
  8
KAPTON_CIRCUIT
100
AcDbPolyline
 90
        2
 70
     0
 43
1.143
 10
-32.22000000000014
 20
-47.3400000000002
 10
-29.87999999999991
 20
-47.3400000000002
  0
LWPOLYLINE
  5
149
330
11C
100
AcDbEntity
  8
KAPTON_CIRCUIT
100
AcDbPolyline
 90
        2
 70
     0
 43
0.254
 10
-32.71799999999973
 20
-49.51800000000011
 10
-32.71799999999973
 20
-43.58199999999999
  0
LWPOLYLINE
  5
14A
330
11C
100
AcDbEntity
  8
KAPTON_CIRCUIT
100
AcDbPolyline
 90
        2
 70
     0
 43
1.143
 10
-32.22000000000014
 20
-44.08000000000001
 10
-32.22000000000014
 20
-49.02000000000001
  0
LWPOLYLINE
  5
14B
330
11C
100
AcDbEntity
  8
KAPTON_CIRCUIT
100
AcDbPolyline
 90
        2
 70
     0
 43
0.1
 10
-32.84999999999973
 20
-49.64999999999972
 10
-32.84999999999973
 20
-43.4499999999999
  0
LWPOLYLINE
  5
14C
330
11C
100
AcDbEntity
  8
KAPTON_CIRCUIT
100
AcDbPolyline
 90
        2
 70
     0
 43
1.143
 10
-29.87999999999991
 20
-49.02000000000001
 10
-29.87999999999991
 20
-44.08000000000001
  0
LWPOLYLINE
  5
14D
330
11C
100
AcDbEntity
  8
KAPTON_CIRCUIT
100
AcDbPolyline
 90
        2
 70
     0
 43
1.143
 10
-29.87999999999991
 20
-48.4319999999999
 10
-32.22000000000014
 20
-48.4319999999999
  0
LWPOLYLINE
  5
14E
330
11C
100
AcDbEntity
  8
KAPTON_CIRCUIT
100
AcDbPolyline
 90
        2
 70
     0
 43
1.143
 10
-32.22000000000014
 20
-49.02000000000001
 10
-29.87999999999991
 20
-49.02000000000001
  0
LWPOLYLINE
  5
14F
330
11C
100
AcDbEntity
  8
KAPTON_CIRCUIT
100
AcDbPolyline
 90
        2
 70
     0
 43
0.254
 10
-29.38199999999992
 20
-49.51800000000011
 10
-32.71799999999973
 20
-49.51800000000011
  0
LWPOLYLINE
  5
150
330
11C
100
AcDbEntity
  8
KAPTON_CIRCUIT
100
AcDbPolyline
 90
        2
 70
     0
 43
0.1
 10
-29.24999999999982
 20
-49.64999999999972
 10
-32.84999999999973
 20
-49.64999999999972
  0
LWPOLYLINE
  5
151
330
11C
100
AcDbEntity
  8
KAPTON_CIRCUIT
100
AcDbPolyline
 90
        2
 70
     0
 43
1.143
 10
-29.87999999999991
 20
-44.08000000000001
 10
-32.22000000000014
 20
-44.08000000000001
  0
LWPOLYLINE
  5
152
330
11C
100
AcDbEntity
  8
KAPTON_CIRCUIT
100
AcDbPolyline
 90
        2
 70
     0
 43
1.143
 10
-29.87999999999991
 20
-46.24800000000013
 10
-32.22000000000014
 20
-46.24800000000013
  0
LWPOLYLINE
  5
153
330
11C
100
AcDbEntity
  8
KAPTON_CIRCUIT
100
AcDbPolyline
 90
        2
 70
     0
 43
1.143
 10
-32.22000000000014
 20
-45.156
 10
-29.87999999999991
 20
-45.156
  0
LWPOLYLINE
  5
154
330
11C
100
AcDbEntity
  8
KAPTON_CIRCUIT
100
AcDbPolyline
 90
        2
 70
     0
 43
0.254
 10
-32.71799999999973
 20
-43.58199999999999
 10
-29.38199999999992
 20
-43.58199999999999
  0
LWPOLYLINE
  5
155
330
11C
100
AcDbEntity
  8
KAPTON_CIRCUIT
100
AcDbPolyline
 90
        2
 70
     0
 43
0.1
 10
-32.84999999999973
 20
-43.4499999999999
 10
-29.24999999999982
 20
-43.4499999999999
  0
LWPOLYLINE
  5
156
330
11C
100
AcDbEntity
  8
KAPTON_CIRCUIT
100
AcDbPolyline
 90
        2
 70
     0
 43
0.127
 10
-37.36256349180212
 20
-41.2200000000003
 10
-37.39256349180229
 20
-40.87800000000021
  0
LWPOLYLINE
  5
157
330
11C
100
AcDbEntity
  8
KAPTON_CIRCUIT
100
AcDbPolyline
 90
        2
 70
     0
 43
0.127
 10
-38.63456349180205
 20
-39.3960000000003
 10
-38.96256349180205
 20
-39.3080000000001
  0
LWPOLYLINE
  5
158
330
11C
100
AcDbEntity
  8
KAPTON_CIRCUIT
100
AcDbPolyline
 90
        2
 70
     0
 43
0.127
 10
-37.48056349180206
 20
-40.55000000000021
 10
-37.62256349180185
 20
-40.245
  0
LWPOLYLINE
  5
159
330
11C
100
AcDbEntity
  8
KAPTON_CIRCUIT
100
AcDbPolyline
 90
        2
 70
     0
 43
0.127
 10
-37.39256349180229
 20
-40.87800000000021
 10
-37.48056349180206
 20
-40.55000000000021
  0
LWPOLYLINE
  5
15A
330
11C
100
AcDbEntity
  8
KAPTON_CIRCUIT
100
AcDbPolyline
 90
        2
 70
     0
 43
0.127
 10
-37.81656349180227
 20
-39.96800000000041
 10
-38.05256349180211
 20
-39.732
  0
LWPOLYLINE
  5
15B
330
11C
100
AcDbEntity
  8
KAPTON_CIRCUIT
100
AcDbPolyline
 90
        2
 70
     0
 43
0.127
 10
-38.05256349180211
 20
-39.732
 10
-38.32956349180213
 20
-39.53800000000012
  0
LWPOLYLINE
  5
15C
330
11C
100
AcDbEntity
  8
KAPTON_CIRCUIT
100
AcDbPolyline
 90
        2
 70
     0
 43
0.127
 10
-37.62256349180185
 20
-40.245
 10
-37.81656349180227
 20
-39.96800000000041
  0
LWPOLYLINE
  5
15D
330
11C
100
AcDbEntity
  8
KAPTON_CIRCUIT
100
AcDbPolyline
 90
        2
 70
     0
 43
0.127
 10
-38.32956349180213
 20
-39.53800000000012
 10
-38.63456349180205
 20
-39.3960000000003
  0
LWPOLYLINE
  5
15E
330
11C
100
AcDbEntity
  8
KAPTON_CIRCUIT
100
AcDbPolyline
 90
        2
 70
     0
 43
0.127
 10
-38.96256349180205
 20
-39.3080000000001
 10
-39.30456349180213
 20
-39.2780000000003
  0
INSERT
  5
15F
330
11C
100
AcDbEntity
  8
KAPTON_CIRCUIT
100
AcDbBlockReference
  2
RECTANGLE_523
 10
-19.98199999999982
 20
-20.66399999999981
 30
0.0
  0
INSERT
  5
160
330
11C
100
AcDbEntity
  8
KAPTON_CIRCUIT
100
AcDbBlockReference
  2
RECTANGLE_523
 10
-19.98199999999982
 20
-22.51699999999988
 30
0.0
  0
INSERT
  5
161
330
11C
100
AcDbEntity
  8
KAPTON_CIRCUIT
100
AcDbBlockReference
  2
RECTANGLE_523
 10
-19.98199999999982
 20
22.51699999999988
 30
0.0
 41
-1.0
 50
180.0
  0
INSERT
  5
162
330
11C
100
AcDbEntity
  8
KAPTON_CIRCUIT
100
AcDbBlockReference
  2
RECTANGLE_523
 10
-19.98199999999982
 20
20.66399999999981
 30
0.0
 41
-1.0
 50
180.0
  0
CIRCLE
  5
163
330
11C
100
AcDbEntity
  8
OUTER_BAR
100
AcDbCircle
 10
-89.99999999999984
 20
53.49999999999986
 30
0.0
 40
1.25
  0
LWPOLYLINE
  5
164
330
11C
100
AcDbEntity
  8
KAPTON_CIRCUIT
100
AcDbPolyline
 90
        2
 70
     0
 43
0.127
 10
-55.29599999999965
 20
39.2780000000003
 10
-39.30799999999985
 20
39.2780000000003
  0
LWPOLYLINE
  5
165
330
11C
100
AcDbEntity
  8
KAPTON_CIRCUIT
100
AcDbPolyline
 90
        2
 70
     0
 43
0.127
 10
-37.36599999999984
 20
47.75000000000011
 10
-57.23799999999966
 20
47.75000000000011
  0
INSERT
  5
166
330
11C
100
AcDbEntity
  8
KAPTON_CIRCUIT
100
AcDbBlockReference
  2
ROUND_40
 10
-62.99999999999982
 20
41.30000000000032
 30
0.0
 41
-1.0
 50
180.0
  0
LINE
  5
167
330
11C
100
AcDbEntity
  8
AXE
100
AcDbLine
 10
-62.99999999999982
 20
43.80000000000009
 30
0.0
 11
-62.99999999999982
 21
36.43209711288719
 31
0.0
  0
LINE
  5
168
330
11C
100
AcDbEntity
  8
AXE
100
AcDbLine
 10
-62.99999999999982
 20
43.80000000000009
 30
0.0
 11
-62.99999999999982
 21
36.43209711288719
 31
0.0
  0
LINE
  5
169
330
11C
100
AcDbEntity
  8
AXE
100
AcDbLine
 10
-65.99999999999983
 20
41.30000000000009
 30
0.0
 11
-59.98978949234234
 21
41.30000000000009
 31
0.0
  0
LINE
  5
16A
330
11C
100
AcDbEntity
  8
AXE
100
AcDbLine
 10
-65.99999999999983
 20
41.30000000000009
 30
0.0
 11
-59.98978949234234
 21
41.30000000000009
 31
0.0
  0
CIRCLE
  5
16B
330
11C
100
AcDbEntity
  8
KAPTON_CIRCUIT
100
AcDbCircle
 10
-62.99999999999982
 20
41.30000000000032
 30
0.0
 40
1.0
  0
LWPOLYLINE
  5
16C
330
11C
100
AcDbEntity
  8
KAPTON_CIRCUIT
100
AcDbPolyline
 90
        2
 70
     0
 43
0.127
 10
-57.23799999999966
 20
47.75000000000011
 10
-57.23799999999966
 20
41.2200000000003
  0
LWPOLYLINE
  5
16D
330
11C
100
AcDbEntity
  8
KAPTON_CIRCUIT
100
AcDbPolyline
 90
        2
 70
     0
 43
0.127
 10
-56.78399999999951
 20
39.96800000000041
 10
-56.54799999999966
 20
39.732
  0
LWPOLYLINE
  5
16E
330
11C
100
AcDbEntity
  8
KAPTON_CIRCUIT
100
AcDbPolyline
 90
        2
 70
     0
 43
0.127
 10
-56.54799999999966
 20
39.732
 10
-56.27099999999964
 20
39.53800000000012
  0
LWPOLYLINE
  5
16F
330
11C
100
AcDbEntity
  8
KAPTON_CIRCUIT
100
AcDbPolyline
 90
        2
 70
     0
 43
0.127
 10
-55.63799999999972
 20
39.3080000000001
 10
-55.29599999999965
 20
39.2780000000003
  0
LWPOLYLINE
  5
170
330
11C
100
AcDbEntity
  8
KAPTON_CIRCUIT
100
AcDbPolyline
 90
        2
 70
     0
 43
0.127
 10
-56.27099999999964
 20
39.53800000000012
 10
-55.96599999999972
 20
39.3960000000003
  0
LWPOLYLINE
  5
171
330
11C
100
AcDbEntity
  8
KAPTON_CIRCUIT
100
AcDbPolyline
 90
        2
 70
     0
 43
0.127
 10
-55.96599999999972
 20
39.3960000000003
 10
-55.63799999999972
 20
39.3080000000001
  0
LWPOLYLINE
  5
172
330
11C
100
AcDbEntity
  8
KAPTON_CIRCUIT
100
AcDbPolyline
 90
        2
 70
     0
 43
0.127
 10
-57.11999999999972
 20
40.55000000000021
 10
-56.97799999999992
 20
40.245
  0
LWPOLYLINE
  5
173
330
11C
100
AcDbEntity
  8
KAPTON_CIRCUIT
100
AcDbPolyline
 90
        2
 70
     0
 43
0.127
 10
-56.97799999999992
 20
40.245
 10
-56.78399999999951
 20
39.96800000000041
  0
LWPOLYLINE
  5
174
330
11C
100
AcDbEntity
  8
KAPTON_CIRCUIT
100
AcDbPolyline
 90
        2
 70
     0
 43
0.127
 10
-57.23574238780321
 20
41.2200000000003
 10
-57.20574238780304
 20
40.87800000000021
  0
LWPOLYLINE
  5
175
330
11C
100
AcDbEntity
  8
KAPTON_CIRCUIT
100
AcDbPolyline
 90
        2
 70
     0
 43
0.127
 10
-57.20574238780304
 20
40.87800000000021
 10
-57.11774238780328
 20
40.55000000000021
  0
LWPOLYLINE
  5
176
330
11C
100
AcDbEntity
  8
KAPTON_CIRCUIT
100
AcDbPolyline
 90
        2
 70
     0
 43
0.127
 10
-57.21037232502462
 20
46.15648761230113
 10
-57.12237232502485
 20
46.48448761230113
  0
LWPOLYLINE
  5
177
330
11C
100
AcDbEntity
  8
KAPTON_CIRCUIT
100
AcDbPolyline
 90
        2
 70
     0
 43
0.127
 10
-56.98037232502506
 20
46.78948761230134
 10
-56.78637232502464
 20
47.06648761230093
  0
LWPOLYLINE
  5
178
330
11C
100
AcDbEntity
  8
KAPTON_CIRCUIT
100
AcDbPolyline
 90
        2
 70
     0
 43
0.127
 10
-56.78637232502464
 20
47.06648761230093
 10
-56.55037232502479
 20
47.30248761230135
  0
LWPOLYLINE
  5
179
330
11C
100
AcDbEntity
  8
KAPTON_CIRCUIT
100
AcDbPolyline
 90
        2
 70
     0
 43
0.127
 10
-57.12237232502485
 20
46.48448761230113
 10
-56.98037232502506
 20
46.78948761230134
  0
LWPOLYLINE
  5
17A
330
11C
100
AcDbEntity
  8
KAPTON_CIRCUIT
100
AcDbPolyline
 90
        2
 70
     0
 43
0.127
 10
-57.24037232502479
 20
45.81448761230103
 10
-57.21037232502462
 20
46.15648761230113
  0
LWPOLYLINE
  5
17B
330
11C
100
AcDbEntity
  8
KAPTON_CIRCUIT
100
AcDbPolyline
 90
        2
 70
     0
 43
0.127
 10
-55.96837232502486
 20
47.63848761230105
 10
-55.64037232502485
 20
47.72648761230124
  0
LWPOLYLINE
  5
17C
330
11C
100
AcDbEntity
  8
KAPTON_CIRCUIT
100
AcDbPolyline
 90
        2
 70
     0
 43
0.127
 10
-55.64037232502485
 20
47.72648761230124
 10
-55.29837232502479
 20
47.75648761230104
  0
LWPOLYLINE
  5
17D
330
11C
100
AcDbEntity
  8
KAPTON_CIRCUIT
100
AcDbPolyline
 90
        2
 70
     0
 43
0.127
 10
-56.27337232502478
 20
47.49648761230122
 10
-55.96837232502486
 20
47.63848761230105
  0
LWPOLYLINE
  5
17E
330
11C
100
AcDbEntity
  8
KAPTON_CIRCUIT
100
AcDbPolyline
 90
        2
 70
     0
 43
0.127
 10
-56.55037232502479
 20
47.30248761230135
 10
-56.27337232502478
 20
47.49648761230122
  0
LWPOLYLINE
  5
17F
330
11C
100
AcDbEntity
  8
KAPTON_CIRCUIT
100
AcDbPolyline
 90
        2
 70
     0
 43
1.143
 10
-29.87999999999991
 20
46.24800000000013
 10
-32.22000000000014
 20
46.24800000000013
  0
LWPOLYLINE
  5
180
330
11C
100
AcDbEntity
  8
KAPTON_CIRCUIT
100
AcDbPolyline
 90
        2
 70
     0
 43
1.143
 10
-29.87999999999991
 20
49.02000000000001
 10
-29.87999999999991
 20
44.08000000000001
  0
LWPOLYLINE
  5
181
330
11C
100
AcDbEntity
  8
KAPTON_CIRCUIT
100
AcDbPolyline
 90
        2
 70
     0
 43
0.1
 10
-32.84999999999973
 20
49.64999999999972
 10
-32.84999999999973
 20
43.4499999999999
  0
LWPOLYLINE
  5
182
330
11C
100
AcDbEntity
  8
KAPTON_CIRCUIT
100
AcDbPolyline
 90
        2
 70
     0
 43
1.143
 10
-32.22000000000014
 20
44.08000000000001
 10
-32.22000000000014
 20
49.02000000000001
  0
LWPOLYLINE
  5
183
330
11C
100
AcDbEntity
  8
KAPTON_CIRCUIT
100
AcDbPolyline
 90
        2
 70
     0
 43
0.254
 10
-32.71799999999973
 20
49.51800000000011
 10
-32.71799999999973
 20
43.58199999999999
  0
LWPOLYLINE
  5
184
330
11C
100
AcDbEntity
  8
KAPTON_CIRCUIT
100
AcDbPolyline
 90
        2
 70
     0
 43
0.1
 10
-29.24999999999982
 20
43.4499999999999
 10
-29.24999999999982
 20
49.64999999999972
  0
LWPOLYLINE
  5
185
330
11C
100
AcDbEntity
  8
KAPTON_CIRCUIT
100
AcDbPolyline
 90
        2
 70
     0
 43
0.254
 10
-29.38199999999992
 20
43.58199999999999
 10
-29.38199999999992
 20
49.51800000000011
  0
LWPOLYLINE
  5
186
330
11C
100
AcDbEntity
  8
KAPTON_CIRCUIT
100
AcDbPolyline
 90
        2
 70
     0
 43
0.127
 10
-37.36599999999984
 20
41.2200000000003
 10
-37.36599999999984
 20
47.75000000000011
  0
LWPOLYLINE
  5
187
330
11C
100
AcDbEntity
  8
KAPTON_CIRCUIT
100
AcDbPolyline
 90
        2
 70
     0
 43
0.1
 10
-32.84999999999973
 20
43.4499999999999
 10
-29.24999999999982
 20
43.4499999999999
  0
LWPOLYLINE
  5
188
330
11C
100
AcDbEntity
  8
KAPTON_CIRCUIT
100
AcDbPolyline
 90
        2
 70
     0
 43
0.254
 10
-32.71799999999973
 20
43.58199999999999
 10
-29.38199999999992
 20
43.58199999999999
  0
LWPOLYLINE
  5
189
330
11C
100
AcDbEntity
  8
KAPTON_CIRCUIT
100
AcDbPolyline
 90
        2
 70
     0
 43
1.143
 10
-32.22000000000014
 20
45.156
 10
-29.87999999999991
 20
45.156
  0
LWPOLYLINE
  5
18A
330
11C
100
AcDbEntity
  8
KAPTON_CIRCUIT
100
AcDbPolyline
 90
        2
 70
     0
 43
1.143
 10
-29.87999999999991
 20
44.08000000000001
 10
-32.22000000000014
 20
44.08000000000001
  0
LWPOLYLINE
  5
18B
330
11C
100
AcDbEntity
  8
KAPTON_CIRCUIT
100
AcDbPolyline
 90
        2
 70
     0
 43
0.127
 10
-37.81656349180227
 20
39.96800000000041
 10
-38.05256349180211
 20
39.732
  0
LWPOLYLINE
  5
18C
330
11C
100
AcDbEntity
  8
KAPTON_CIRCUIT
100
AcDbPolyline
 90
        2
 70
     0
 43
0.127
 10
-38.96256349180205
 20
39.3080000000001
 10
-39.30456349180213
 20
39.2780000000003
  0
LWPOLYLINE
  5
18D
330
11C
100
AcDbEntity
  8
KAPTON_CIRCUIT
100
AcDbPolyline
 90
        2
 70
     0
 43
0.127
 10
-38.32956349180213
 20
39.53800000000012
 10
-38.63456349180205
 20
39.3960000000003
  0
LWPOLYLINE
  5
18E
330
11C
100
AcDbEntity
  8
KAPTON_CIRCUIT
100
AcDbPolyline
 90
        2
 70
     0
 43
0.127
 10
-38.05256349180211
 20
39.732
 10
-38.32956349180213
 20
39.53800000000012
  0
LWPOLYLINE
  5
18F
330
11C
100
AcDbEntity
  8
KAPTON_CIRCUIT
100
AcDbPolyline
 90
        2
 70
     0
 43
0.127
 10
-38.63456349180205
 20
39.3960000000003
 10
-38.96256349180205
 20
39.3080000000001
  0
LWPOLYLINE
  5
190
330
11C
100
AcDbEntity
  8
KAPTON_CIRCUIT
100
AcDbPolyline
 90
        2
 70
     0
 43
0.127
 10
-37.62256349180185
 20
40.245
 10
-37.81656349180227
 20
39.96800000000041
  0
LWPOLYLINE
  5
191
330
11C
100
AcDbEntity
  8
KAPTON_CIRCUIT
100
AcDbPolyline
 90
        2
 70
     0
 43
0.127
 10
-37.39256349180229
 20
40.87800000000021
 10
-37.48056349180206
 20
40.55000000000021
  0
LWPOLYLINE
  5
192
330
11C
100
AcDbEntity
  8
KAPTON_CIRCUIT
100
AcDbPolyline
 90
        2
 70
     0
 43
0.127
 10
-37.48056349180206
 20
40.55000000000021
 10
-37.62256349180185
 20
40.245
  0
LWPOLYLINE
  5
193
330
11C
100
AcDbEntity
  8
KAPTON_CIRCUIT
100
AcDbPolyline
 90
        2
 70
     0
 43
0.127
 10
-37.36256349180212
 20
41.2200000000003
 10
-37.39256349180229
 20
40.87800000000021
  0
LWPOLYLINE
  5
194
330
11C
100
AcDbEntity
  8
KAPTON_CIRCUIT
100
AcDbPolyline
 90
        2
 70
     0
 43
0.1
 10
-29.24999999999982
 20
49.64999999999972
 10
-32.84999999999973
 20
49.64999999999972
  0
LWPOLYLINE
  5
195
330
11C
100
AcDbEntity
  8
KAPTON_CIRCUIT
100
AcDbPolyline
 90
        2
 70
     0
 43
0.254
 10
-29.38199999999992
 20
49.51800000000011
 10
-32.71799999999973
 20
49.51800000000011
  0
LWPOLYLINE
  5
196
330
11C
100
AcDbEntity
  8
KAPTON_CIRCUIT
100
AcDbPolyline
 90
        2
 70
     0
 43
1.143
 10
-32.22000000000014
 20
49.02000000000001
 10
-29.87999999999991
 20
49.02000000000001
  0
LWPOLYLINE
  5
197
330
11C
100
AcDbEntity
  8
KAPTON_CIRCUIT
100
AcDbPolyline
 90
        2
 70
     0
 43
1.143
 10
-29.87999999999991
 20
48.43199999999987
 10
-32.22000000000014
 20
48.43199999999987
  0
LWPOLYLINE
  5
198
330
11C
100
AcDbEntity
  8
KAPTON_CIRCUIT
100
AcDbPolyline
 90
        2
 70
     0
 43
1.143
 10
-32.22000000000014
 20
47.3400000000002
 10
-29.87999999999991
 20
47.3400000000002
  0
LINE
  5
199
330
11C
100
AcDbEntity
  8
AXE
100
AcDbLine
 10
134.0000000000002
 20
-60.63493730812351
 30
0.0
 11
134.0000000000002
 21
-49.1865594131705
 31
0.0
  0
LINE
  5
19A
330
11C
100
AcDbEntity
  8
AXE
100
AcDbLine
 10
119.0000000000001
 20
-60.63493730812351
 30
0.0
 11
119.0000000000001
 21
-49.1865594131705
 31
0.0
  0
LINE
  5
19B
330
11C
100
AcDbEntity
  8
AXE
100
AcDbLine
 10
0.0000000000005684
 20
-60.63493730812351
 30
0.0
 11
0.0000000000005684
 21
-48.98655941317073
 31
0.0
  0
LINE
  5
19C
330
11C
100
AcDbEntity
  8
AXE
100
AcDbLine
 10
8.00002164627827
 20
-60.634937308124
 30
0.0
 11
8.00002164627827
 21
-54.42222155100722
 31
0.0
  0
LWPOLYLINE
  5
19D
330
11C
100
AcDbEntity
  8
OUTER_BAR
100
AcDbPolyline
 90
       12
 70
     1
 43
0.0
 10
95.00000000000014
 20
0.0
 10
95.00000000000014
 20
58.99999999999986
 42
-0.414213562373094
 10
96.00000000000015
 20
59.99999999999997
 10
139.0000000000002
 20
59.99999999999997
 42
-0.4142135623730961
 10
140.0000000000001
 20
58.99999999999986
 10
140.0000000000001
 20
31.99999999999988
 10
140.0000000000001
 20
0.0
 10
140.0000000000001
 20
-32.0
 10
140.0000000000001
 20
-59.00000000000011
 42
-0.4142135623730961
 10
139.0000000000002
 20
-60.00000000000011
 10
96.00000000000015
 20
-60.00000000000011
 42
-0.4142135623730943
 10
95.00000000000014
 20
-59.00000000000011
  0
LWPOLYLINE
  5
19E
330
11C
100
AcDbEntity
  8
CONTACT
100
AcDbPolyline
 90
        5
 70
     1
 43
0.0
 10
130.0000000000002
 20
-60.00000000000011
 10
130.0000000000002
 20
-45.00000000000011
 10
102.0000000000001
 20
-45.00000000000011
 10
102.0000000000001
 20
-52.0
 10
110.0000000000002
 20
-60.00000000000011
  0
LWPOLYLINE
  5
19F
330
11C
100
AcDbEntity
  8
OUT_CAB
100
AcDbPolyline
 90
        4
 70
     1
 43
0.0
 10
124.5640000000023
 20
8.499999999999005
 10
124.5640000000023
 20
27.499999999999
 10
169.6140000000023
 20
27.49999999999948
 10
169.6140000000023
 20
8.499999999999488
  0
LINE
  5
1A0
330
11C
100
AcDbEntity
  8
AXE
100
AcDbLine
 10
116.201900120766
 20
-53.50000000000012
 30
0.0
 11
145.8459549762157
 21
-53.50000000000012
 31
0.0
  0
LWPOLYLINE
  5
1A1
330
11C
100
AcDbEntity
  8
ROBERT
100
AcDbPolyline
 90
        5
 70
     1
 43
0.0
 10
94.5640000000005
 20
0.0
 10
94.5640000000005
 20
-48.1999999999999
 10
0.0500000000003524
 20
-48.1999999999999
 10
0.0500000000003524
 20
48.19599999999988
 10
94.5640000000005
 20
48.19599999999988
  0
LWPOLYLINE
  5
1A2
330
11C
100
AcDbEntity
  8
ROBERT
100
AcDbPolyline
 90
        5
 70
     1
 43
0.0
 10
0.0500000000003524
 20
0.0
 10
0.0500000000003524
 20
-48.1999999999999
 10
94.5640000000005
 20
-48.1999999999999
 10
94.5640000000005
 20
48.19599999999988
 10
0.0500000000003524
 20
48.19599999999988
  0
LWPOLYLINE
  5
1A3
330
11C
100
AcDbEntity
  8
PA
100
AcDbPolyline
 90
       11
 70
     1
 43
0.0
 10
95.0640000000005
 20
48.19999999999978
 10
98.52750639286128
 20
48.19999999999978
 10
107.5640000000023
 20
48.19999999999978
 10
107.5640000000023
 20
34.80000000000009
 10
107.5640000000023
 20
31.80000000000009
 10
107.5640000000023
 20
0.0
 10
107.5640000000023
 20
-31.80000000000024
 10
107.5640000000023
 20
-34.80000000000023
 10
107.5640000000023
 20
-48.1999999999999
 10
98.52750639286128
 20
-48.1999999999999
 10
95.0640000000005
 20
-48.1999999999999
  0
LWPOLYLINE
  5
1A4
330
11C
100
AcDbEntity
  8
HYB_PLATE
100
AcDbPolyline
 90
       18
 70
     1
 43
0.0
 10
96.76399999999885
 20
42.99999999999949
 10
106.5640227118866
 20
42.99999999999949
 42
-0.4142135623730951
 10
107.5640227118866
 20
41.99999999999948
 10
107.5640227118871
 20
35.99999999999949
 42
0.4142135623730951
 10
108.5640227118871
 20
34.99999999999948
 10
131.8639999999983
 20
35.0
 42
-0.4142135623730951
 10
132.8639999999983
 20
33.99999999999988
 10
132.8639999999983
 20
0.0
 10
132.8639999999983
 20
-34.00000000000011
 42
-0.4142135623730951
 10
131.8639999999983
 20
-35.00000000000011
 10
108.5640227118871
 20
-35.00000000000011
 42
0.4142135623730951
 10
107.5640227118871
 20
-36.00000000000011
 10
107.5640227118871
 20
-42.00000000000011
 42
-0.4142135623730951
 10
106.5640227118871
 20
-43.00000000000011
 10
102.456522711887
 20
-43.00000000000011
 10
96.76399999999885
 20
-43.00000000000011
 42
-0.4142135623730975
 10
95.76399999999884
 20
-42.00000000000011
 10
95.76399999999884
 20
41.99999999999948
 42
-0.4142135623730951
  0
LINE
  5
1A5
330
11C
100
AcDbEntity
  8
AXE
100
AcDbLine
 10
71.50000000000014
 20
-41.30000000000032
 30
0.0
 11
65.48978949234308
 21
-41.30000000000032
 31
0.0
  0
CIRCLE
  5
1A6
330
11C
100
AcDbEntity
  8
KAPTON_CIRCUIT
100
AcDbCircle
 10
68.50000000000014
 20
-41.30000000000032
 30
0.0
 40
1.0
  0
INSERT
  5
1A7
330
11C
100
AcDbEntity
  8
KAPTON_CIRCUIT
100
AcDbBlockReference
  2
ROUND_40
 10
68.50000000000014
 20
-41.30000000000032
 30
0.0
  0
CIRCLE
  5
1A8
330
11C
100
AcDbEntity
  8
CONTACT
100
AcDbCircle
 10
0.0000000000001705
 20
-53.50000000000012
 30
0.0
 40
0.75
  0
CIRCLE
  5
1A9
330
11C
100
AcDbEntity
  8
OUTER_BAR
100
AcDbCircle
 10
0.0000000000001705
 20
-53.50000000000012
 30
0.0
 40
4.2
  0
LINE
  5
1AA
330
11C
100
AcDbEntity
  8
AXE
100
AcDbLine
 10
-2.763078232955507
 20
-53.50000000000012
 30
0.0
 11
3.427491103305982
 21
-53.50000000000012
 31
0.0
  0
LINE
  5
1AB
330
11C
100
AcDbEntity
  8
AXE
100
AcDbLine
 10
11.9622763578306
 20
-58.00000000000011
 30
0.0
 11
5.430628717823879
 21
-58.00000000000011
 31
0.0
  0
CIRCLE
  5
1AC
330
11C
100
AcDbEntity
  8
OUTER_BAR
100
AcDbCircle
 10
8.000021646278781
 20
-58.00000000000011
 30
0.0
 40
0.5
  0
LWPOLYLINE
  5
1AD
330
11C
100
AcDbEntity
  8
OUTER_BAR
100
AcDbPolyline
 90
        2
 70
     0
 43
0.0
 10
0.0499999999962029
 20
-42.80011682306763
 42
0.002336461352731
 10
-0.0499999999959187
 20
-42.80011682306763
  0
INSERT
  5
1AE
330
11C
100
AcDbEntity
  8
KAPTON_CIRCUIT
100
AcDbBlockReference
  2
RECTANGLE_523
 10
19.00700000000014
 20
-19.15299999999982
 30
0.0
  0
INSERT
  5
1AF
330
11C
100
AcDbEntity
  8
KAPTON_CIRCUIT
100
AcDbBlockReference
  2
RECTANGLE_523
 10
20.78899999999984
 20
-21.00000000000011
 30
0.0
  0
INSERT
  5
1B0
330
11C
100
AcDbEntity
  8
KAPTON_CIRCUIT
100
AcDbBlockReference
  2
RECTANGLE_523
 10
20.78899999999984
 20
-22.85300000000012
 30
0.0
  0
INSERT
  5
1B1
330
11C
100
AcDbEntity
  8
KAPTON_CIRCUIT
100
AcDbBlockReference
  2
RECTANGLE_523
 10
19.00700000000014
 20
-17.30000000000032
 30
0.0
  0
LWPOLYLINE
  5
1B2
330
11C
100
AcDbEntity
  8
KAPTON_CIRCUIT
100
AcDbPolyline
 90
        2
 70
     0
 43
0.127
 10
62.23600000000002
 20
-47.75000000000011
 10
42.36400000000017
 20
-47.75000000000011
  0
LWPOLYLINE
  5
1B3
330
11C
100
AcDbEntity
  8
KAPTON_CIRCUIT
100
AcDbPolyline
 90
        2
 70
     0
 43
0.127
 10
44.30600000000018
 20
-39.2780000000003
 10
60.29400000000001
 20
-39.2780000000003
  0
LWPOLYLINE
  5
1B4
330
11C
100
AcDbEntity
  8
KAPTON_CIRCUIT
100
AcDbPolyline
 90
        2
 70
     0
 43
0.127
 10
42.36400000000017
 20
-47.75000000000011
 10
42.36400000000017
 20
-41.2200000000003
  0
LWPOLYLINE
  5
1B5
330
11C
100
AcDbEntity
  8
KAPTON_CIRCUIT
100
AcDbPolyline
 90
        2
 70
     0
 43
0.254
 10
37.68000000000003
 20
-43.58199999999999
 10
37.68000000000003
 20
-49.51800000000011
  0
LWPOLYLINE
  5
1B6
330
11C
100
AcDbEntity
  8
KAPTON_CIRCUIT
100
AcDbPolyline
 90
        2
 70
     0
 43
0.1
 10
37.81200000000009
 20
-43.4499999999999
 10
37.81200000000009
 20
-49.64999999999972
  0
LWPOLYLINE
  5
1B7
330
11C
100
AcDbEntity
  8
KAPTON_CIRCUIT
100
AcDbPolyline
 90
        2
 70
     0
 43
1.143
 10
37.18199999999999
 20
-47.3400000000002
 10
34.84200000000029
 20
-47.3400000000002
  0
LWPOLYLINE
  5
1B8
330
11C
100
AcDbEntity
  8
KAPTON_CIRCUIT
100
AcDbPolyline
 90
        2
 70
     0
 43
0.254
 10
34.34400000000013
 20
-49.51800000000011
 10
34.34400000000013
 20
-43.58199999999999
  0
LWPOLYLINE
  5
1B9
330
11C
100
AcDbEntity
  8
KAPTON_CIRCUIT
100
AcDbPolyline
 90
        2
 70
     0
 43
1.143
 10
34.84200000000029
 20
-44.08000000000001
 10
34.84200000000029
 20
-49.02000000000001
  0
LWPOLYLINE
  5
1BA
330
11C
100
AcDbEntity
  8
KAPTON_CIRCUIT
100
AcDbPolyline
 90
        2
 70
     0
 43
0.1
 10
34.21200000000018
 20
-49.64999999999972
 10
34.21200000000018
 20
-43.4499999999999
  0
LWPOLYLINE
  5
1BB
330
11C
100
AcDbEntity
  8
KAPTON_CIRCUIT
100
AcDbPolyline
 90
        2
 70
     0
 43
1.143
 10
37.18199999999999
 20
-49.02000000000001
 10
37.18199999999999
 20
-44.08000000000001
  0
LWPOLYLINE
  5
1BC
330
11C
100
AcDbEntity
  8
KAPTON_CIRCUIT
100
AcDbPolyline
 90
        2
 70
     0
 43
1.143
 10
34.84200000000029
 20
-49.02000000000001
 10
37.18199999999999
 20
-49.02000000000001
  0
LWPOLYLINE
  5
1BD
330
11C
100
AcDbEntity
  8
KAPTON_CIRCUIT
100
AcDbPolyline
 90
        2
 70
     0
 43
1.143
 10
34.84200000000029
 20
-48.4319999999999
 10
37.18199999999999
 20
-48.4319999999999
  0
LWPOLYLINE
  5
1BE
330
11C
100
AcDbEntity
  8
KAPTON_CIRCUIT
100
AcDbPolyline
 90
        2
 70
     0
 43
0.254
 10
37.68000000000003
 20
-49.51800000000011
 10
34.34400000000013
 20
-49.51800000000011
  0
LWPOLYLINE
  5
1BF
330
11C
100
AcDbEntity
  8
KAPTON_CIRCUIT
100
AcDbPolyline
 90
        2
 70
     0
 43
0.1
 10
37.81200000000009
 20
-49.64999999999972
 10
34.21200000000018
 20
-49.64999999999972
  0
LWPOLYLINE
  5
1C0
330
11C
100
AcDbEntity
  8
KAPTON_CIRCUIT
100
AcDbPolyline
 90
        2
 70
     0
 43
1.143
 10
37.18199999999999
 20
-44.08000000000001
 10
34.84200000000029
 20
-44.08000000000001
  0
LWPOLYLINE
  5
1C1
330
11C
100
AcDbEntity
  8
KAPTON_CIRCUIT
100
AcDbPolyline
 90
        2
 70
     0
 43
1.143
 10
34.84200000000029
 20
-46.24800000000013
 10
37.18199999999999
 20
-46.24800000000013
  0
LWPOLYLINE
  5
1C2
330
11C
100
AcDbEntity
  8
KAPTON_CIRCUIT
100
AcDbPolyline
 90
        2
 70
     0
 43
1.143
 10
37.18199999999999
 20
-45.156
 10
34.84200000000029
 20
-45.156
  0
LWPOLYLINE
  5
1C3
330
11C
100
AcDbEntity
  8
KAPTON_CIRCUIT
100
AcDbPolyline
 90
        2
 70
     0
 43
0.254
 10
34.34400000000013
 20
-43.58199999999999
 10
37.68000000000003
 20
-43.58199999999999
  0
LWPOLYLINE
  5
1C4
330
11C
100
AcDbEntity
  8
KAPTON_CIRCUIT
100
AcDbPolyline
 90
        2
 70
     0
 43
0.1
 10
34.21200000000018
 20
-43.4499999999999
 10
37.81200000000009
 20
-43.4499999999999
  0
LWPOLYLINE
  5
1C5
330
11C
100
AcDbEntity
  8
KAPTON_CIRCUIT
100
AcDbPolyline
 90
        2
 70
     0
 43
0.127
 10
43.63600000000005
 20
-39.3960000000003
 10
43.96400000000002
 20
-39.3080000000001
  0
LWPOLYLINE
  5
1C6
330
11C
100
AcDbEntity
  8
KAPTON_CIRCUIT
100
AcDbPolyline
 90
        2
 70
     0
 43
0.127
 10
42.81800000000035
 20
-39.96800000000041
 10
43.05400000000028
 20
-39.732
  0
LWPOLYLINE
  5
1C7
330
11C
100
AcDbEntity
  8
KAPTON_CIRCUIT
100
AcDbPolyline
 90
        2
 70
     0
 43
0.127
 10
43.05400000000028
 20
-39.732
 10
43.33100000000032
 20
-39.53800000000012
  0
LWPOLYLINE
  5
1C8
330
11C
100
AcDbEntity
  8
KAPTON_CIRCUIT
100
AcDbPolyline
 90
        2
 70
     0
 43
0.127
 10
43.33100000000032
 20
-39.53800000000012
 10
43.63600000000005
 20
-39.3960000000003
  0
LWPOLYLINE
  5
1C9
330
11C
100
AcDbEntity
  8
KAPTON_CIRCUIT
100
AcDbPolyline
 90
        2
 70
     0
 43
0.127
 10
42.62399999999987
 20
-40.245
 10
42.81800000000035
 20
-39.96800000000041
  0
LWPOLYLINE
  5
1CA
330
11C
100
AcDbEntity
  8
KAPTON_CIRCUIT
100
AcDbPolyline
 90
        2
 70
     0
 43
0.127
 10
43.96400000000002
 20
-39.3080000000001
 10
44.30600000000018
 20
-39.2780000000003
  0
LWPOLYLINE
  5
1CB
330
11C
100
AcDbEntity
  8
KAPTON_CIRCUIT
100
AcDbPolyline
 90
        2
 70
     0
 43
0.127
 10
42.36400000000017
 20
-41.2200000000003
 10
42.39400000000038
 20
-40.87800000000021
  0
LWPOLYLINE
  5
1CC
330
11C
100
AcDbEntity
  8
KAPTON_CIRCUIT
100
AcDbPolyline
 90
        2
 70
     0
 43
0.127
 10
42.39400000000038
 20
-40.87800000000021
 10
42.48200000000005
 20
-40.55000000000021
  0
LWPOLYLINE
  5
1CD
330
11C
100
AcDbEntity
  8
KAPTON_CIRCUIT
100
AcDbPolyline
 90
        2
 70
     0
 43
0.127
 10
42.48200000000005
 20
-40.55000000000021
 10
42.62399999999987
 20
-40.245
  0
LINE
  5
1CE
330
11C
100
AcDbEntity
  8
KAPTON_CIRCUIT
100
AcDbLine
 10
48.80000000000032
 20
-38.30000000000032
 30
0.0
 11
48.80000000000032
 21
-38.30000000000032
 31
0.0
  0
LWPOLYLINE
  5
1CF
330
11C
100
AcDbEntity
  8
KAPTON_CIRCUIT
100
AcDbPolyline
 90
        2
 70
     0
 43
0.127
 10
62.23600000000002
 20
-41.2200000000003
 10
62.23600000000002
 20
-47.75000000000011
  0
LINE
  5
1D0
330
11C
100
AcDbEntity
  8
AXE
100
AcDbLine
 10
68.50000000000014
 20
-43.80000000000021
 30
0.0
 11
68.50000000000014
 21
-36.4320971128873
 31
0.0
  0
LWPOLYLINE
  5
1D1
330
11C
100
AcDbEntity
  8
KAPTON_CIRCUIT
100
AcDbPolyline
 90
        2
 70
     0
 43
0.127
 10
60.29400000000001
 20
-39.2780000000003
 10
60.63600000000005
 20
-39.3080000000001
  0
LWPOLYLINE
  5
1D2
330
11C
100
AcDbEntity
  8
KAPTON_CIRCUIT
100
AcDbPolyline
 90
        2
 70
     0
 43
0.127
 10
60.63600000000005
 20
-39.3080000000001
 10
60.96400000000002
 20
-39.3960000000003
  0
LWPOLYLINE
  5
1D3
330
11C
100
AcDbEntity
  8
KAPTON_CIRCUIT
100
AcDbPolyline
 90
        2
 70
     0
 43
0.127
 10
60.96400000000002
 20
-39.3960000000003
 10
61.26900000000038
 20
-39.53800000000012
  0
LWPOLYLINE
  5
1D4
330
11C
100
AcDbEntity
  8
KAPTON_CIRCUIT
100
AcDbPolyline
 90
        2
 70
     0
 43
0.127
 10
61.26900000000038
 20
-39.53800000000012
 10
61.54600000000002
 20
-39.732
  0
LWPOLYLINE
  5
1D5
330
11C
100
AcDbEntity
  8
KAPTON_CIRCUIT
100
AcDbPolyline
 90
        2
 70
     0
 43
0.127
 10
61.54600000000002
 20
-39.732
 10
61.78200000000029
 20
-39.96800000000041
  0
LWPOLYLINE
  5
1D6
330
11C
100
AcDbEntity
  8
KAPTON_CIRCUIT
100
AcDbPolyline
 90
        2
 70
     0
 43
0.127
 10
61.78200000000029
 20
-39.96800000000041
 10
61.97600000000031
 20
-40.245
  0
LWPOLYLINE
  5
1D7
330
11C
100
AcDbEntity
  8
KAPTON_CIRCUIT
100
AcDbPolyline
 90
        2
 70
     0
 43
0.127
 10
62.11800000000002
 20
-40.55000000000021
 10
62.20600000000032
 20
-40.87800000000021
  0
LWPOLYLINE
  5
1D8
330
11C
100
AcDbEntity
  8
KAPTON_CIRCUIT
100
AcDbPolyline
 90
        2
 70
     0
 43
0.127
 10
62.20600000000032
 20
-40.87800000000021
 10
62.23600000000002
 20
-41.2200000000003
  0
LWPOLYLINE
  5
1D9
330
11C
100
AcDbEntity
  8
KAPTON_CIRCUIT
100
AcDbPolyline
 90
        2
 70
     0
 43
0.127
 10
61.97600000000031
 20
-40.245
 10
62.11800000000002
 20
-40.55000000000021
  0
LINE
  5
1DA
330
11C
100
AcDbEntity
  8
KAPTON_CIRCUIT
100
AcDbLine
 10
0.0000000000001705
 20
-2.5
 30
0.0
 11
0.0000000000001705
 21
2.5
 31
0.0
  0
CIRCLE
  5
1DB
330
11C
100
AcDbEntity
  8
AXE
100
AcDbCircle
 10
0.0000000000001705
 20
0.0
 30
0.0
 40
1.856021621347791
  0
CIRCLE
  5
1DC
330
11C
100
AcDbEntity
  8
AXE
100
AcDbCircle
 10
0.0000000000001705
 20
0.0
 30
0.0
 40
1.856021621347791
  0
CIRCLE
  5
1DD
330
11C
100
AcDbEntity
  8
AXE
100
AcDbCircle
 10
0.0
 20
0.0
 30
0.0
 40
1.856021621347791
  0
CIRCLE
  5
1DE
330
11C
100
AcDbEntity
  8
AXE
100
AcDbCircle
 10
0.0
 20
0.0
 30
0.0
 40
1.856021621347791
  0
CIRCLE
  5
1DF
330
11C
100
AcDbEntity
  8
AXE
100
AcDbCircle
 10
0.0000000000001705
 20
0.0
 30
0.0
 40
1.856021621347791
  0
LINE
  5
1E0
330
11C
100
AcDbEntity
  8
KAPTON_CIRCUIT
100
AcDbLine
 10
-2.499999999999829
 20
0.0
 30
0.0
 11
2.50000000000017
 21
0.0
 31
0.0
  0
INSERT
  5
1E1
330
11C
100
AcDbEntity
  8
KAPTON_CIRCUIT
100
AcDbBlockReference
  2
RECTANGLE_523
 10
20.78899999999984
 20
22.85300000000012
 30
0.0
 41
-1.0
 50
180.0
  0
INSERT
  5
1E2
330
11C
100
AcDbEntity
  8
KAPTON_CIRCUIT
100
AcDbBlockReference
  2
RECTANGLE_523
 10
19.00700000000014
 20
17.30000000000032
 30
0.0
 41
-1.0
 50
180.0
  0
INSERT
  5
1E3
330
11C
100
AcDbEntity
  8
KAPTON_CIRCUIT
100
AcDbBlockReference
  2
RECTANGLE_523
 10
19.00700000000014
 20
19.15299999999982
 30
0.0
 41
-1.0
 50
180.0
  0
INSERT
  5
1E4
330
11C
100
AcDbEntity
  8
KAPTON_CIRCUIT
100
AcDbBlockReference
  2
RECTANGLE_523
 10
20.78899999999984
 20
21.00000000000011
 30
0.0
 41
-1.0
 50
180.0
  0
LWPOLYLINE
  5
1E5
330
11C
100
AcDbEntity
  8
HYBRID
100
AcDbPolyline
 90
        6
 70
     1
 43
0.0
 10
132.8640000000025
 20
0.0
 10
132.8640000000016
 20
29.99999999999988
 10
104.8640000000019
 20
29.99999999999988
 10
104.8640000000019
 20
0.0000000000003695
 10
104.8640000000019
 20
-30.00000000000011
 10
132.8640000000019
 20
-30.00000000000011
  0
INSERT
  5
1E6
330
11C
100
AcDbEntity
  8
KAPTON_CIRCUIT
100
AcDbBlockReference
  2
RECTANGLE_416
 10
86.57100000000005
 20
-52.28699999999992
 30
0.0
  0
INSERT
  5
1E7
330
11C
100
AcDbEntity
  8
KAPTON_CIRCUIT
100
AcDbBlockReference
  2
RECTANGLE_416
 10
86.59600000000015
 20
-55.716
 30
0.0
  0
INSERT
  5
1E8
330
11C
100
AcDbEntity
  8
KAPTON_CIRCUIT
100
AcDbBlockReference
  2
RECTANGLE_416
 10
83.37100000000029
 20
-52.28699999999992
 30
0.0
  0
INSERT
  5
1E9
330
11C
100
AcDbEntity
  8
KAPTON_CIRCUIT
100
AcDbBlockReference
  2
RECTANGLE_416
 10
83.39599999999988
 20
-55.716
 30
0.0
  0
LINE
  5
1EA
330
11C
100
AcDbEntity
  8
KAPTON_CIRCUIT
100
AcDbLine
 10
98.00000000000014
 20
-57.0
 30
0.0
 11
95.27139777660719
 21
-57.0
 31
0.0
  0
INSERT
  5
1EB
330
11C
100
AcDbEntity
  8
KAPTON_CIRCUIT
100
AcDbBlockReference
  2
RECTANGLE_661
 10
90.381
 20
-55.716
 30
0.0
  0
INSERT
  5
1EC
330
11C
100
AcDbEntity
  8
KAPTON_CIRCUIT
100
AcDbBlockReference
  2
RECTANGLE_416
 10
93.65800000000005
 20
-55.716
 30
0.0
  0
INSERT
  5
1ED
330
11C
100
AcDbEntity
  8
KAPTON_CIRCUIT
100
AcDbBlockReference
  2
RECTANGLE_661
 10
90.381
 20
-52.51599999999971
 30
0.0
  0
INSERT
  5
1EE
330
11C
100
AcDbEntity
  8
KAPTON_CIRCUIT
100
AcDbBlockReference
  2
SQUARE_1992
 10
100.16
 20
-55.716
 30
0.0
  0
INSERT
  5
1EF
330
11C
100
AcDbEntity
  8
KAPTON_CIRCUIT
100
AcDbBlockReference
  2
RECTANGLE_416
 10
96.85800000000032
 20
-55.716
 30
0.0
  0
LINE
  5
1F0
330
11C
100
AcDbEntity
  8
KAPTON_CIRCUIT
100
AcDbLine
 10
98.00000000000014
 20
-57.0
 30
0.0
 11
98.00000000000014
 21
-54.26179946201549
 31
0.0
  0
CIRCLE
  5
1F1
330
11C
100
AcDbEntity
  8
CONTACT
100
AcDbCircle
 10
119.0000000000001
 20
-53.50000000000012
 30
0.0
 40
0.75
  0
CIRCLE
  5
1F2
330
11C
100
AcDbEntity
  8
OUTER_BAR
100
AcDbCircle
 10
119.0000000000001
 20
-53.50000000000012
 30
0.0
 40
4.2
  0
LWPOLYLINE
  5
1F3
330
11C
100
AcDbEntity
  8
SPRING
100
AcDbPolyline
 90
       32
 70
     1
 43
0.0
 10
137.4500000000003
 20
-53.285786437627
 10
137.3500000000005
 20
-53.285786437627
 10
137.3500000000005
 20
-55.88578643762691
 10
137.4500000000003
 20
-55.88578643762691
 10
137.4500000000003
 20
-56.58578643762723
 10
137.3500000000005
 20
-56.58578643762723
 10
137.3500000000005
 20
-56.8857864376269
 42
-0.4142135623730475
 10
136.6500000000002
 20
-57.58578643762672
 10
133.5500000000008
 20
-57.58578643762672
 42
-0.4142135623730951
 10
131.8500000000009
 20
-55.88578643762691
 10
131.8500000000005
 20
-53.08578643762723
 42
-0.4142135623730951
 10
132.0500000000008
 20
-52.8857864376269
 10
132.6500000000001
 20
-52.8857864376269
 42
-0.4142135623730951
 10
132.85
 20
-53.08578643762672
 10
132.8500000000005
 20
-55.58578643762672
 10
132.85
 20
-55.88578643762691
 42
0.4142135623731427
 10
133.5500000000003
 20
-56.58578643762672
 10
133.6500000000002
 20
-56.58578643762672
 42
0.4142135623730475
 10
134.3500000000005
 20
-55.88578643762691
 10
134.3500000000005
 20
-55.58578643762672
 10
134.3500000000005
 20
-54.99705627484772
 42
-0.1989123673796147
 10
134.4085786437633
 20
-54.85563491861021
 10
135.2692388155429
 20
-53.99497474683051
 42
0.4142135623730612
 10
135.2692388155429
 20
-53.00502525316921
 10
134.4085786437633
 20
-52.14436508138951
 42
-0.1989123673796147
 10
134.3500000000005
 20
-52.00294372515239
 10
134.3500000000009
 20
-50.28578643762699
 42
-0.4142135623730951
 10
134.5500000000008
 20
-50.08578643762723
 10
136.6499999999998
 20
-50.08578643762672
 42
-0.4142135623730776
 10
137.35
 20
-50.785786437627
 10
137.3500000000005
 20
-52.58578643762723
 10
137.4500000000003
 20
-52.58578643762723
  0
CIRCLE
  5
1F4
330
11C
100
AcDbEntity
  8
AXE
100
AcDbCircle
 10
134.0000000000002
 20
-53.50000000000012
 30
0.0
 40
1.25
  0
CIRCLE
  5
1F5
330
11C
100
AcDbEntity
  8
OUTER_BAR
100
AcDbCircle
 10
134.0000000000002
 20
-53.50000000000012
 30
0.0
 40
1.5
  0
LINE
  5
1F6
330
11C
100
AcDbEntity
  8
AXE
100
AcDbLine
 10
136.3500000000005
 20
-57.96001103265201
 30
0.0
 11
136.3500000000005
 21
-49.1865594131705
 31
0.0
  0
LINE
  5
1F7
330
11C
100
AcDbEntity
  8
AXE
100
AcDbLine
 10
135.352665914265
 20
-56.6
 30
0.0
 11
137.7044135273246
 21
-56.6
 31
0.0
  0
CIRCLE
  5
1F8
330
11C
100
AcDbEntity
  8
SPRING
100
AcDbCircle
 10
136.3500000000005
 20
-56.6
 30
0.0
 40
0.5
  0
CIRCLE
  5
1F9
330
11C
100
AcDbEntity
  8
AXE
100
AcDbCircle
 10
136.3500000000005
 20
-56.6
 30
0.0
 40
0.5
  0
LINE
  5
1FA
330
11C
100
AcDbEntity
  8
AXE
100
AcDbLine
 10
135.352665914265
 20
-51.09999999999999
 30
0.0
 11
137.7044135273246
 21
-51.09999999999999
 31
0.0
  0
CIRCLE
  5
1FB
330
11C
100
AcDbEntity
  8
SPRING
100
AcDbCircle
 10
136.3500000000005
 20
-51.09999999999999
 30
0.0
 40
0.5
  0
CIRCLE
  5
1FC
330
11C
100
AcDbEntity
  8
AXE
100
AcDbCircle
 10
136.3500000000005
 20
-51.09999999999999
 30
0.0
 40
0.5
  0
INSERT
  5
1FD
330
11C
100
AcDbEntity
  8
KAPTON_CIRCUIT
100
AcDbBlockReference
  2
ROUND_40
 10
68.50000000000014
 20
41.30000000000032
 30
0.0
 41
-1.0
 50
180.0
  0
CIRCLE
  5
1FE
330
11C
100
AcDbEntity
  8
KAPTON_CIRCUIT
100
AcDbCircle
 10
68.50000000000014
 20
41.30000000000032
 30
0.0
 40
1.0
  0
LINE
  5
1FF
330
11C
100
AcDbEntity
  8
AXE
100
AcDbLine
 10
40.46169182312465
 20
41.29999999999969
 30
0.0
 11
30.71993431541361
 21
41.29999999999969
 31
0.0
  0
LINE
  5
200
330
11C
100
AcDbEntity
  8
AXE
100
AcDbLine
 10
0.0000000000005684
 20
60.63493730812334
 30
0.0
 11
0.0000000000005684
 21
48.98655941317056
 31
0.0
  0
CIRCLE
  5
201
330
11C
100
AcDbEntity
  8
OUTER_BAR
100
AcDbCircle
 10
0.0000000000001705
 20
53.49999999999986
 30
0.0
 40
4.2
  0
CIRCLE
  5
202
330
11C
100
AcDbEntity
  8
CONTACT
100
AcDbCircle
 10
0.0000000000001705
 20
53.49999999999986
 30
0.0
 40
0.75
  0
LINE
  5
203
330
11C
100
AcDbEntity
  8
AXE
100
AcDbLine
 10
-2.763078232955507
 20
53.49999999999986
 30
0.0
 11
3.427491103305982
 21
53.49999999999986
 31
0.0
  0
LWPOLYLINE
  5
204
330
11C
100
AcDbEntity
  8
KAPTON_CIRCUIT
100
AcDbPolyline
 90
        2
 70
     0
 43
0.127
 10
44.30600000000018
 20
39.2780000000003
 10
60.29400000000001
 20
39.2780000000003
  0
LWPOLYLINE
  5
205
330
11C
100
AcDbEntity
  8
KAPTON_CIRCUIT
100
AcDbPolyline
 90
        2
 70
     0
 43
0.127
 10
62.23600000000002
 20
47.75000000000011
 10
42.36400000000017
 20
47.75000000000011
  0
LWPOLYLINE
  5
206
330
11C
100
AcDbEntity
  8
KAPTON_CIRCUIT
100
AcDbPolyline
 90
        2
 70
     0
 43
1.143
 10
34.84200000000029
 20
46.24800000000013
 10
37.18199999999999
 20
46.24800000000013
  0
LWPOLYLINE
  5
207
330
11C
100
AcDbEntity
  8
KAPTON_CIRCUIT
100
AcDbPolyline
 90
        2
 70
     0
 43
1.143
 10
37.18199999999999
 20
49.02000000000001
 10
37.18199999999999
 20
44.08000000000001
  0
LWPOLYLINE
  5
208
330
11C
100
AcDbEntity
  8
KAPTON_CIRCUIT
100
AcDbPolyline
 90
        2
 70
     0
 43
0.1
 10
34.21200000000018
 20
49.64999999999972
 10
34.21200000000018
 20
43.4499999999999
  0
LWPOLYLINE
  5
209
330
11C
100
AcDbEntity
  8
KAPTON_CIRCUIT
100
AcDbPolyline
 90
        2
 70
     0
 43
1.143
 10
34.84200000000029
 20
44.08000000000001
 10
34.84200000000029
 20
49.02000000000001
  0
LWPOLYLINE
  5
20A
330
11C
100
AcDbEntity
  8
KAPTON_CIRCUIT
100
AcDbPolyline
 90
        2
 70
     0
 43
0.254
 10
34.34400000000013
 20
49.51800000000011
 10
34.34400000000013
 20
43.58199999999999
  0
LWPOLYLINE
  5
20B
330
11C
100
AcDbEntity
  8
KAPTON_CIRCUIT
100
AcDbPolyline
 90
        2
 70
     0
 43
0.1
 10
37.81200000000009
 20
43.4499999999999
 10
37.81200000000009
 20
49.64999999999972
  0
LWPOLYLINE
  5
20C
330
11C
100
AcDbEntity
  8
KAPTON_CIRCUIT
100
AcDbPolyline
 90
        2
 70
     0
 43
0.254
 10
37.68000000000003
 20
43.58199999999999
 10
37.68000000000003
 20
49.51800000000011
  0
LWPOLYLINE
  5
20D
330
11C
100
AcDbEntity
  8
KAPTON_CIRCUIT
100
AcDbPolyline
 90
        2
 70
     0
 43
0.127
 10
42.36400000000017
 20
47.75000000000011
 10
42.36400000000017
 20
41.2200000000003
  0
LINE
  5
20E
330
11C
100
AcDbEntity
  8
AXE
100
AcDbLine
 10
35.50000000000014
 20
43.80000000000009
 30
0.0
 11
35.50000000000014
 21
36.43209711288719
 31
0.0
  0
LWPOLYLINE
  5
20F
330
11C
100
AcDbEntity
  8
KAPTON_CIRCUIT
100
AcDbPolyline
 90
        2
 70
     0
 43
0.1
 10
34.21200000000018
 20
43.4499999999999
 10
37.81200000000009
 20
43.4499999999999
  0
LWPOLYLINE
  5
210
330
11C
100
AcDbEntity
  8
KAPTON_CIRCUIT
100
AcDbPolyline
 90
        2
 70
     0
 43
0.254
 10
34.34400000000013
 20
43.58199999999999
 10
37.68000000000003
 20
43.58199999999999
  0
LWPOLYLINE
  5
211
330
11C
100
AcDbEntity
  8
KAPTON_CIRCUIT
100
AcDbPolyline
 90
        2
 70
     0
 43
1.143
 10
37.18199999999999
 20
45.156
 10
34.84200000000029
 20
45.156
  0
LWPOLYLINE
  5
212
330
11C
100
AcDbEntity
  8
KAPTON_CIRCUIT
100
AcDbPolyline
 90
        2
 70
     0
 43
1.143
 10
37.18199999999999
 20
44.08000000000001
 10
34.84200000000029
 20
44.08000000000001
  0
LWPOLYLINE
  5
213
330
11C
100
AcDbEntity
  8
KAPTON_CIRCUIT
100
AcDbPolyline
 90
        2
 70
     0
 43
0.127
 10
42.81800000000035
 20
39.96800000000041
 10
43.05400000000028
 20
39.732
  0
LWPOLYLINE
  5
214
330
11C
100
AcDbEntity
  8
KAPTON_CIRCUIT
100
AcDbPolyline
 90
        2
 70
     0
 43
0.127
 10
43.96400000000002
 20
39.3080000000001
 10
44.30600000000018
 20
39.2780000000003
  0
LWPOLYLINE
  5
215
330
11C
100
AcDbEntity
  8
KAPTON_CIRCUIT
100
AcDbPolyline
 90
        2
 70
     0
 43
0.127
 10
43.33100000000032
 20
39.53800000000012
 10
43.63600000000005
 20
39.3960000000003
  0
LWPOLYLINE
  5
216
330
11C
100
AcDbEntity
  8
KAPTON_CIRCUIT
100
AcDbPolyline
 90
        2
 70
     0
 43
0.127
 10
43.05400000000028
 20
39.732
 10
43.33100000000032
 20
39.53800000000012
  0
LWPOLYLINE
  5
217
330
11C
100
AcDbEntity
  8
KAPTON_CIRCUIT
100
AcDbPolyline
 90
        2
 70
     0
 43
0.127
 10
43.63600000000005
 20
39.3960000000003
 10
43.96400000000002
 20
39.3080000000001
  0
LINE
  5
218
330
11C
100
AcDbEntity
  8
KAPTON_CIRCUIT
100
AcDbLine
 10
48.80000000000032
 20
38.30000000000032
 30
0.0
 11
48.80000000000032
 21
38.30000000000032
 31
0.0
  0
LWPOLYLINE
  5
219
330
11C
100
AcDbEntity
  8
KAPTON_CIRCUIT
100
AcDbPolyline
 90
        2
 70
     0
 43
0.127
 10
42.48200000000005
 20
40.55000000000021
 10
42.62399999999987
 20
40.245
  0
LWPOLYLINE
  5
21A
330
11C
100
AcDbEntity
  8
KAPTON_CIRCUIT
100
AcDbPolyline
 90
        2
 70
     0
 43
0.127
 10
42.39400000000038
 20
40.87800000000021
 10
42.48200000000005
 20
40.55000000000021
  0
LWPOLYLINE
  5
21B
330
11C
100
AcDbEntity
  8
KAPTON_CIRCUIT
100
AcDbPolyline
 90
        2
 70
     0
 43
0.127
 10
42.36400000000017
 20
41.2200000000003
 10
42.39400000000038
 20
40.87800000000021
  0
LWPOLYLINE
  5
21C
330
11C
100
AcDbEntity
  8
KAPTON_CIRCUIT
100
AcDbPolyline
 90
        2
 70
     0
 43
0.127
 10
42.62399999999987
 20
40.245
 10
42.81800000000035
 20
39.96800000000041
  0
LWPOLYLINE
  5
21D
330
11C
100
AcDbEntity
  8
KAPTON_CIRCUIT
100
AcDbPolyline
 90
        2
 70
     0
 43
0.1
 10
37.81200000000009
 20
49.64999999999972
 10
34.21200000000018
 20
49.64999999999972
  0
LWPOLYLINE
  5
21E
330
11C
100
AcDbEntity
  8
KAPTON_CIRCUIT
100
AcDbPolyline
 90
        2
 70
     0
 43
0.254
 10
37.68000000000003
 20
49.51800000000011
 10
34.34400000000013
 20
49.51800000000011
  0
LWPOLYLINE
  5
21F
330
11C
100
AcDbEntity
  8
KAPTON_CIRCUIT
100
AcDbPolyline
 90
        2
 70
     0
 43
1.143
 10
34.84200000000029
 20
48.43199999999987
 10
37.18199999999999
 20
48.43199999999987
  0
LWPOLYLINE
  5
220
330
11C
100
AcDbEntity
  8
KAPTON_CIRCUIT
100
AcDbPolyline
 90
        2
 70
     0
 43
1.143
 10
34.84200000000029
 20
49.02000000000001
 10
37.18199999999999
 20
49.02000000000001
  0
LWPOLYLINE
  5
221
330
11C
100
AcDbEntity
  8
KAPTON_CIRCUIT
100
AcDbPolyline
 90
        2
 70
     0
 43
1.143
 10
37.18199999999999
 20
47.3400000000002
 10
34.84200000000029
 20
47.3400000000002
  0
LWPOLYLINE
  5
222
330
11C
100
AcDbEntity
  8
KAPTON_CIRCUIT
100
AcDbPolyline
 90
        2
 70
     0
 43
0.127
 10
62.23600000000002
 20
41.2200000000003
 10
62.23600000000002
 20
47.75000000000011
  0
LWPOLYLINE
  5
223
330
11C
100
AcDbEntity
  8
KAPTON_CIRCUIT
100
AcDbPolyline
 90
        2
 70
     0
 43
0.127
 10
61.54600000000002
 20
39.732
 10
61.78200000000029
 20
39.96800000000041
  0
LWPOLYLINE
  5
224
330
11C
100
AcDbEntity
  8
KAPTON_CIRCUIT
100
AcDbPolyline
 90
        2
 70
     0
 43
0.127
 10
61.26900000000038
 20
39.53800000000012
 10
61.54600000000002
 20
39.732
  0
LWPOLYLINE
  5
225
330
11C
100
AcDbEntity
  8
KAPTON_CIRCUIT
100
AcDbPolyline
 90
        2
 70
     0
 43
0.127
 10
60.96400000000002
 20
39.3960000000003
 10
61.26900000000038
 20
39.53800000000012
  0
LWPOLYLINE
  5
226
330
11C
100
AcDbEntity
  8
KAPTON_CIRCUIT
100
AcDbPolyline
 90
        2
 70
     0
 43
0.127
 10
60.63600000000005
 20
39.3080000000001
 10
60.96400000000002
 20
39.3960000000003
  0
LWPOLYLINE
  5
227
330
11C
100
AcDbEntity
  8
KAPTON_CIRCUIT
100
AcDbPolyline
 90
        2
 70
     0
 43
0.127
 10
60.29400000000001
 20
39.2780000000003
 10
60.63600000000005
 20
39.3080000000001
  0
LWPOLYLINE
  5
228
330
11C
100
AcDbEntity
  8
KAPTON_CIRCUIT
100
AcDbPolyline
 90
        2
 70
     0
 43
0.127
 10
61.97600000000031
 20
40.245
 10
62.11800000000002
 20
40.55000000000021
  0
LWPOLYLINE
  5
229
330
11C
100
AcDbEntity
  8
KAPTON_CIRCUIT
100
AcDbPolyline
 90
        2
 70
     0
 43
0.127
 10
62.20600000000032
 20
40.87800000000021
 10
62.23600000000002
 20
41.2200000000003
  0
LWPOLYLINE
  5
22A
330
11C
100
AcDbEntity
  8
KAPTON_CIRCUIT
100
AcDbPolyline
 90
        2
 70
     0
 43
0.127
 10
62.11800000000002
 20
40.55000000000021
 10
62.20600000000032
 20
40.87800000000021
  0
LWPOLYLINE
  5
22B
330
11C
100
AcDbEntity
  8
KAPTON_CIRCUIT
100
AcDbPolyline
 90
        2
 70
     0
 43
0.127
 10
61.78200000000029
 20
39.96800000000041
 10
61.97600000000031
 20
40.245
  0
LWPOLYLINE
  5
22C
330
11C
100
AcDbEntity
  8
CONTACT
100
AcDbPolyline
 90
        5
 70
     1
 43
0.0
 10
130.0000000000002
 20
59.99999999999997
 10
130.0000000000002
 20
44.99999999999988
 10
102.0000000000001
 20
44.99999999999988
 10
102.0000000000001
 20
51.99999999999997
 10
110.0000000000002
 20
59.99999999999997
  0
INSERT
  5
22D
330
11C
100
AcDbEntity
  8
KAPTON_CIRCUIT
100
AcDbBlockReference
  2
SQUARE_1992
 10
100.16
 20
55.71599999999998
 30
0.0
 41
-1.0
 50
180.0
  0
INSERT
  5
22E
330
11C
100
AcDbEntity
  8
KAPTON_CIRCUIT
100
AcDbBlockReference
  2
RECTANGLE_416
 10
86.59600000000015
 20
55.71599999999998
 30
0.0
 41
-1.0
 50
180.0
  0
INSERT
  5
22F
330
11C
100
AcDbEntity
  8
KAPTON_CIRCUIT
100
AcDbBlockReference
  2
RECTANGLE_416
 10
86.57100000000005
 20
52.28699999999989
 30
0.0
 41
-1.0
 50
180.0
  0
INSERT
  5
230
330
11C
100
AcDbEntity
  8
KAPTON_CIRCUIT
100
AcDbBlockReference
  2
RECTANGLE_416
 10
83.37100000000029
 20
52.28699999999989
 30
0.0
 41
-1.0
 50
180.0
  0
INSERT
  5
231
330
11C
100
AcDbEntity
  8
KAPTON_CIRCUIT
100
AcDbBlockReference
  2
RECTANGLE_416
 10
83.39599999999988
 20
55.71599999999998
 30
0.0
 41
-1.0
 50
180.0
  0
LINE
  5
232
330
11C
100
AcDbEntity
  8
KAPTON_CIRCUIT
100
AcDbLine
 10
98.00000000000014
 20
56.99999999999997
 30
0.0
 11
95.27139777660719
 21
56.99999999999997
 31
0.0
  0
INSERT
  5
233
330
11C
100
AcDbEntity
  8
KAPTON_CIRCUIT
100
AcDbBlockReference
  2
RECTANGLE_661
 10
90.381
 20
52.51599999999971
 30
0.0
 41
-1.0
 50
180.0
  0
INSERT
  5
234
330
11C
100
AcDbEntity
  8
KAPTON_CIRCUIT
100
AcDbBlockReference
  2
RECTANGLE_661
 10
90.381
 20
55.71599999999998
 30
0.0
 41
-1.0
 50
180.0
  0
INSERT
  5
235
330
11C
100
AcDbEntity
  8
KAPTON_CIRCUIT
100
AcDbBlockReference
  2
RECTANGLE_416
 10
93.65800000000005
 20
55.71599999999998
 30
0.0
 41
-1.0
 50
180.0
  0
LINE
  5
236
330
11C
100
AcDbEntity
  8
KAPTON_CIRCUIT
100
AcDbLine
 10
98.00000000000014
 20
56.99999999999997
 30
0.0
 11
98.00000000000014
 21
54.26179946201549
 31
0.0
  0
INSERT
  5
237
330
11C
100
AcDbEntity
  8
KAPTON_CIRCUIT
100
AcDbBlockReference
  2
RECTANGLE_416
 10
96.85800000000032
 20
55.71599999999998
 30
0.0
 41
-1.0
 50
180.0
  0
LWPOLYLINE
  5
238
330
11C
100
AcDbEntity
  8
SPRING
100
AcDbPolyline
 90
       29
 70
     1
 43
0.0
 10
133.6535533905937
 20
56.58578643762658
 42
-0.4142135623730951
 10
134.3535533905934
 20
55.88578643762682
 10
134.3535533905934
 20
55.68578643762609
 42
0.414213562373012
 10
134.5535533905932
 20
55.48578643762616
 10
134.7500000000001
 20
55.48578643762616
 42
-0.4142135623730951
 10
135.2500000000002
 20
54.98578643762616
 10
135.2500000000002
 20
50.28578643762685
 42
0.4142135623730814
 10
135.4500000000003
 20
50.08578643762658
 10
136.6499999999998
 20
50.08578643762658
 42
0.4142135623730474
 10
137.3499999999995
 20
50.78578643762639
 10
137.3500000000005
 20
52.58578643762658
 10
137.4500000000003
 20
52.58578643762658
 10
137.4500000000003
 20
53.28578643762686
 10
137.3500000000005
 20
53.28578643762686
 10
137.3500000000005
 20
55.88578643762682
 10
137.4500000000003
 20
55.88578643762682
 10
137.4500000000003
 20
56.58578643762658
 10
137.3500000000005
 20
56.58578643762658
 10
137.3500000000005
 20
56.88578643762681
 42
0.4142135623730475
 10
136.6500000000002
 20
57.58578643762658
 10
133.5500000000008
 20
57.58578643762658
 42
0.4142135623730951
 10
131.8500000000005
 20
55.88578643762682
 10
131.8500000000005
 20
53.08578643762658
 42
0.4142135623730951
 10
132.0500000000003
 20
52.88578643762682
 10
132.6499999999998
 20
52.88578643762682
 42
0.4142135623730951
 10
132.85
 20
53.08578643762658
 10
132.8500000000005
 20
55.58578643762658
 10
132.85
 20
55.88578643762682
 42
-0.4142135623731427
 10
133.5500000000003
 20
56.58578643762658
  0
LINE
  5
239
330
11C
100
AcDbEntity
  8
AXE
100
AcDbLine
 10
136.35
 20
57.9600110326518
 30
0.0
 11
136.35
 21
49.18655941317038
 31
0.0
  0
LINE
  5
23A
330
11C
100
AcDbEntity
  8
AXE
100
AcDbLine
 10
134.0000000000002
 20
60.63493730812334
 30
0.0
 11
134.0000000000002
 21
49.18655941317038
 31
0.0
  0
CIRCLE
  5
23B
330
11C
100
AcDbEntity
  8
OUTER_BAR
100
AcDbCircle
 10
119.0000000000001
 20
53.49999999999986
 30
0.0
 40
4.2
  0
CIRCLE
  5
23C
330
11C
100
AcDbEntity
  8
CONTACT
100
AcDbCircle
 10
119.0000000000001
 20
53.49999999999986
 30
0.0
 40
0.75
  0
CIRCLE
  5
23D
330
11C
100
AcDbEntity
  8
AXE
100
AcDbCircle
 10
134.0000000000002
 20
53.49999999999986
 30
0.0
 40
1.25
  0
CIRCLE
  5
23E
330
11C
100
AcDbEntity
  8
OUTER_BAR
100
AcDbCircle
 10
134.0000000000002
 20
53.49999999999986
 30
0.0
 40
1.5
  0
CIRCLE
  5
23F
330
11C
100
AcDbEntity
  8
SPRING
100
AcDbCircle
 10
136.35
 20
51.09999999999977
 30
0.0
 40
0.5
  0
CIRCLE
  5
240
330
11C
100
AcDbEntity
  8
AXE
100
AcDbCircle
 10
136.35
 20
51.10000000000027
 30
0.0
 40
0.5
  0
LINE
  5
241
330
11C
100
AcDbEntity
  8
AXE
100
AcDbLine
 10
135.352665914265
 20
51.10000000000027
 30
0.0
 11
137.7044135273246
 21
51.10000000000027
 31
0.0
  0
LINE
  5
242
330
11C
100
AcDbEntity
  8
AXE
100
AcDbLine
 10
135.352665914265
 20
56.60000000000028
 30
0.0
 11
137.7044135273246
 21
56.60000000000028
 31
0.0
  0
CIRCLE
  5
243
330
11C
100
AcDbEntity
  8
SPRING
100
AcDbCircle
 10
136.35
 20
56.60000000000028
 30
0.0
 40
0.5
  0
CIRCLE
  5
244
330
11C
100
AcDbEntity
  8
AXE
100
AcDbCircle
 10
136.35
 20
56.60000000000028
 30
0.0
 40
0.5
  0
LWPOLYLINE
  5
245
330
11C
100
AcDbEntity
  8
KAPTON_CIRCUIT
100
AcDbPolyline
 90
        5
 70
     1
 43
0.0
 10
164.8885227936591
 20
-41.80000000000021
 10
164.8885227936591
 20
-36.30000000000023
 10
170.8885227936591
 20
-36.30000000000023
 10
170.8885227936591
 20
-47.3000000000002
 10
164.8885227936591
 20
-47.3000000000002
  0
LINE
  5
246
330
11C
100
AcDbEntity
  8
OUT_CAB
100
AcDbLine
 10
169.6140000000025
 20
7.249999999999488
 30
0.0
 11
169.6140000000023
 21
28.74999999999948
 31
0.0
  0
LINE
  5
247
330
11C
100
AcDbEntity
  8
OUT_CAB
100
AcDbLine
 10
160.1140000000023
 20
7.249999999999488
 30
0.0
 11
160.1140000000023
 21
28.74999999999948
 31
0.0
  0
LINE
  5
248
330
11C
100
AcDbEntity
  8
OUT_CAB
100
AcDbLine
 10
160.1140000000023
 20
7.249999999999488
 30
0.0
 11
169.6140000000023
 21
7.249999999999488
 31
0.0
  0
LINE
  5
249
330
11C
100
AcDbEntity
  8
OUT_CAB
100
AcDbLine
 10
160.1140000000023
 20
28.74999999999948
 30
0.0
 11
169.6140000000023
 21
28.74999999999948
 31
0.0
  0
LWPOLYLINE
  5
24A
330
11C
100
AcDbEntity
  8
KAPTON_CIRCUIT
100
AcDbPolyline
 90
        5
 70
     1
 43
0.0
 10
164.8885227936591
 20
41.80000000000021
 10
164.8885227936591
 20
36.30000000000023
 10
170.8885227936591
 20
36.30000000000023
 10
170.8885227936591
 20
47.3000000000002
 10
164.8885227936591
 20
47.3000000000002
  0
ENDBLK
  5
24C
330
11C
100
AcDbEntity
  8
0
100
AcDbBlockEnd
  0
BLOCK
  5
24F
330
24D
100
AcDbEntity
  8
0
100
AcDbBlockBegin
  2
cmsmodule-002
 70
     0
 10
0.0
 20
0.0
 30
0.0
  3
cmsmodule-002
  1

  0
INSERT
  5
24E
330
24D
100
AcDbEntity
  8
KAPTON_CIRCUIT
100
AcDbBlockReference
  2
r-phi kapton-001
 10
-0.0000000000001705
 20
0.0
 30
0.0
  0
ENDBLK
  5
250
330
24D
100
AcDbEntity
  8
0
100
AcDbBlockEnd
  0
BLOCK
  5
26E
330
263
100
AcDbEntity
  8
0
100
AcDbBlockBegin
  2
*D9
 70
     1
 10
0.0
 20
0.0
 30
0.0
  3
*D9
  1

  0
LINE
  5
264
330
263
100
AcDbEntity
  8
TEXT
 62
     0
370
    -2
100
AcDbLine
 10
2.054108140938536
 20
5.573555518185369
 30
0.0
 11
2.054108140938536
 21
6.687965897324012
 31
0.0
  0
LINE
  5
265
330
263
100
AcDbEntity
  8
TEXT
 62
     0
370
    -2
100
AcDbLine
 10
1.936038140938536
 20
6.269692716946941
 30
0.0
 11
1.936038140938536
 21
6.687965897324012
 31
0.0
  0
LINE
  5
266
330
263
100
AcDbEntity
  8
TEXT
 62
     0
370
    -2
100
AcDbLine
 10
2.144108140938536
 20
6.597965897324012
 30
0.0
 11
2.234108140938536
 21
6.597965897324012
 31
0.0
  0
LINE
  5
267
330
263
100
AcDbEntity
  8
TEXT
 62
     0
370
    -2
100
AcDbLine
 10
1.846038140938536
 20
6.597965897324012
 30
0.0
 11
1.756038140938536
 21
6.597965897324012
 31
0.0
  0
SOLID
  5
268
330
263
100
AcDbEntity
  8
TEXT
 62
     0
100
AcDbTrace
 10
2.144108140938536
 20
6.612965897324012
 30
0.0
 11
2.144108140938536
 21
6.582965897324013
 31
0.0
 12
2.054108140938536
 22
6.597965897324012
 32
0.0
 13
2.054108140938536
 23
6.597965897324012
 33
0.0
  0
SOLID
  5
269
330
263
100
AcDbEntity
  8
TEXT
 62
     0
100
AcDbTrace
 10
1.846038140938536
 20
6.612965897324012
 30
0.0
 11
1.846038140938536
 21
6.582965897324013
 31
0.0
 12
1.936038140938536
 22
6.597965897324012
 32
0.0
 13
1.936038140938536
 23
6.597965897324012
 33
0.0
  0
MTEXT
  5
26A
330
263
100
AcDbEntity
  8
TEXT
 62
     0
100
AcDbMText
 10
1.501038140938536
 20
6.597965897324012
 30
0.0
 40
0.09
 41
0.0
 71
     5
 72
     1
  1
\A1;3.00mm
 73
     1
 44
1.0
  0
POINT
  5
26B
330
263
100
AcDbEntity
  8
Defpoints
 62
     0
100
AcDbPoint
 10
2.054108140938536
 20
5.542305518185369
 30
0.0
  0
POINT
  5
26C
330
263
100
AcDbEntity
  8
Defpoints
 62
     0
100
AcDbPoint
 10
1.936038140938536
 20
6.238442716946941
 30
0.0
  0
POINT
  5
26D
330
263
100
AcDbEntity
  8
Defpoints
 62
     0
100
AcDbPoint
 10
1.936038140938536
 20
6.597965897324012
 30
0.0
  0
ENDBLK
  5
26F
330
263
100
AcDbEntity
  8
0
100
AcDbBlockEnd
  0
BLOCK
  5
4E7
330
4DC
100
AcDbEntity
  8
0
100
AcDbBlockBegin
  2
*D11
 70
     1
 10
0.0
 20
0.0
 30
0.0
  3
*D11
  1

  0
LINE
  5
577
330
4DC
100
AcDbEntity
  8
TEXT
 62
     0
370
    -2
100
AcDbLine
 10
118.5931159218867
 20
97.29109817671732
 30
0.0
 11
118.5931159218867
 21
128.5673718068388
 31
0.0
  0
LINE
  5
578
330
4DC
100
AcDbEntity
  8
TEXT
 62
     0
370
    -2
100
AcDbLine
 10
115.5941379218867
 20
114.9729830252612
 30
0.0
 11
115.5941379218867
 21
128.5673718068388
 31
0.0
  0
LINE
  5
579
330
4DC
100
AcDbEntity
  8
TEXT
 62
     0
370
    -2
100
AcDbLine
 10
121.2931159218867
 20
125.8673718068388
 30
0.0
 11
123.9931159218867
 21
125.8673718068388
 31
0.0
  0
LINE
  5
57A
330
4DC
100
AcDbEntity
  8
TEXT
 62
     0
370
    -2
100
AcDbLine
 10
112.8941379218867
 20
125.8673718068388
 30
0.0
 11
110.1941379218867
 21
125.8673718068388
 31
0.0
  0
SOLID
  5
57B
330
4DC
100
AcDbEntity
  8
TEXT
 62
     0
100
AcDbTrace
 10
121.2931159218867
 20
126.3173718068388
 30
0.0
 11
121.2931159218867
 21
125.4173718068388
 31
0.0
 12
118.5931159218867
 22
125.8673718068388
 32
0.0
 13
118.5931159218867
 23
125.8673718068388
 33
0.0
  0
SOLID
  5
57C
330
4DC
100
AcDbEntity
  8
TEXT
 62
     0
100
AcDbTrace
 10
112.8941379218867
 20
126.3173718068388
 30
0.0
 11
112.8941379218867
 21
125.4173718068388
 31
0.0
 12
115.5941379218867
 22
125.8673718068388
 32
0.0
 13
115.5941379218867
 23
125.8673718068388
 33
0.0
  0
MTEXT
  5
57D
330
4DC
100
AcDbEntity
  8
TEXT
 62
     0
100
AcDbMText
 10
105.2441379218867
 20
125.8673718068388
 30
0.0
 40
2.699999999999999
 41
0.0
 71
     5
 72
     1
  1
\A1;3.00
 73
     1
 44
1.0
  0
POINT
  5
57E
330
4DC
100
AcDbEntity
  8
Defpoints
 62
     0
100
AcDbPoint
 10
118.5931159218867
 20
96.35359817671732
 30
0.0
  0
POINT
  5
57F
330
4DC
100
AcDbEntity
  8
Defpoints
 62
     0
100
AcDbPoint
 10
115.5941379218867
 20
114.0354830252612
 30
0.0
  0
POINT
  5
580
330
4DC
100
AcDbEntity
  8
Defpoints
 62
     0
100
AcDbPoint
 10
115.5941379218867
 20
125.8673718068388
 30
0.0
  0
ENDBLK
  5
4E8
330
4DC
100
AcDbEntity
  8
0
100
AcDbBlockEnd
  0
BLOCK
  5
545
330
4FD
100
AcDbEntity
  8
0
100
AcDbBlockBegin
  2
a-border
 70
     2
 10
0.0
 20
0.0
 30
0.0
  3
a-border
  1

  0
ATTDEF
  5
4FE
330
4FD
100
AcDbEntity
  8
TEXT
100
AcDbText
 10
8.896344406931433
 20
0.2313
 30
0.0
 40
0.06
  1

100
AcDbAttributeDefinition
  3
Enter File Name
  2
FILE
 70
     0
  0
ATTDEF
  5
4FF
330
4FD
100
AcDbEntity
  8
TEXT
100
AcDbText
 10
7.8768
 20
0.4075
 30
0.0
 40
0.03
  1

100
AcDbAttributeDefinition
  3
Enter the Date
  2
DATE
 70
     0
  0
ATTDEF
  5
500
330
4FD
100
AcDbEntity
  8
TEXT
100
AcDbText
 10
7.381999999999999
 20
0.4188
 30
0.0
 40
0.06
  1
S. KYRE
100
AcDbAttributeDefinition
  3
Enter Your Name
  2
NAME
 70
     0
  0
ATTDEF
  5
501
330
4FD
100
AcDbEntity
  8
TEXT
100
AcDbText
 10
8.3488
 20
0.0891
 30
0.0
 40
0.06
  1

100
AcDbAttributeDefinition
  3
Enter Drawing Scale
  2
SCALE
 70
     0
  0
ATTDEF
  5
502
330
4FD
100
AcDbEntity
  8
TEXT
100
AcDbText
 10
8.3602
 20
0.2256
 30
0.0
 40
0.06
  1

100
AcDbAttributeDefinition
  3
Enter Drawing Directory
  2
DIRECTORY
 70
     0
  0
TEXT
  5
503
330
4FD
100
AcDbEntity
  8
TEXT
100
AcDbText
 10
9.806017901868278
 20
0.1221884730513363
 30
0.0
 40
0.0325
  1
OF
  7
ADESK2
100
AcDbText
  0
TEXT
  5
504
330
4FD
100
AcDbEntity
  8
TEXT
100
AcDbText
 10
7.926233901868277
 20
0.4874754730513367
 30
0.0
 40
0.0325
  1
DATE
  7
ADESK2
100
AcDbText
  0
LINE
  5
505
330
4FD
100
AcDbEntity
  8
TEXT
100
AcDbLine
 10
7.864524401868278
 20
0.5457504730513368
 30
0.0
 11
7.864524401868278
 21
0.0625
 31
0.0
  0
TEXT
  5
506
330
4FD
100
AcDbEntity
  8
TEXT
100
AcDbText
 10
7.154532401868278
 20
0.1782504730513361
 30
0.0
 40
0.0325
  1
DESIGN
  7
ADESK2
100
AcDbText
  0
TEXT
  5
507
330
4FD
100
AcDbEntity
  8
TEXT
100
AcDbText
 10
7.154532401868278
 20
0.3357504730513368
 30
0.0
 40
0.0325
  1
CHECKED
  7
ADESK2
100
AcDbText
  0
LINE
  5
508
330
4FD
100
AcDbEntity
  8
TEXT
100
AcDbLine
 10
7.114532401868278
 20
0.5457504730513368
 30
0.0
 11
8.114532401868279
 21
0.5457504730513368
 31
0.0
  0
TEXT
  5
509
330
4FD
100
AcDbEntity
  8
TEXT
100
AcDbText
 10
9.848673055561846
 20
7.044547729948104
 30
0.0
 40
0.0325
  1
APPROVED
  7
ADESK2
100
AcDbText
  0
TEXT
  5
50A
330
4FD
100
AcDbEntity
  8
TEXT
100
AcDbText
 10
9.451823055561847
 20
7.044547729948104
 30
0.0
 40
0.0325
  1
DATE
  7
ADESK2
100
AcDbText
  0
TEXT
  5
50B
330
4FD
100
AcDbEntity
  8
TEXT
100
AcDbText
 10
8.418973055561847
 20
7.044547729948104
 30
0.0
 40
0.0325
  1
DESCRIPTION
  7
ADESK2
100
AcDbText
  0
TEXT
  5
50C
330
4FD
100
AcDbEntity
  8
TEXT
100
AcDbText
 10
7.768023055561846
 20
7.044547729948104
 30
0.0
 40
0.0325
  1
REV
  7
ADESK2
100
AcDbText
  0
TEXT
  5
50D
330
4FD
100
AcDbEntity
  8
TEXT
100
AcDbText
 10
8.833073055561845
 20
7.165647729948104
 30
0.0
 40
0.0325
  1
REVISIONS
  7
ADESK2
100
AcDbText
  0
LINE
  5
50E
330
4FD
100
AcDbEntity
  8
TEXT
100
AcDbLine
 10
9.727973055561847
 20
6.999397729948103
 30
0.0
 11
9.727973055561847
 21
7.124397729948103
 31
0.0
  0
LINE
  5
50F
330
4FD
100
AcDbEntity
  8
TEXT
100
AcDbLine
 10
9.287973055561847
 20
6.999397729948103
 30
0.0
 11
9.287973055561847
 21
7.124397729948103
 31
0.0
  0
LINE
  5
510
330
4FD
100
AcDbEntity
  8
TEXT
100
AcDbLine
 10
7.917973055561846
 20
6.999397729948103
 30
0.0
 11
7.917973055561846
 21
7.124397729948103
 31
0.0
  0
LINE
  5
511
330
4FD
100
AcDbEntity
  8
TEXT
100
AcDbLine
 10
7.722846844446165
 20
7.279429703003084
 30
0.0
 11
7.722846844446165
 21
6.999397729948103
 31
0.0
  0
LINE
  5
512
330
4FD
100
AcDbEntity
  8
TEXT
100
AcDbLine
 10
7.722846844446165
 20
6.999397729948103
 30
0.0
 11
10.25
 21
6.999397729948104
 31
0.0
  0
LINE
  5
513
330
4FD
100
AcDbEntity
  8
TEXT
100
AcDbLine
 10
7.722846844446165
 20
7.124397729948103
 30
0.0
 11
10.25
 21
7.124397729948104
 31
0.0
  0
TEXT
  5
514
330
4FD
100
AcDbEntity
  8
TEXT
100
AcDbText
 10
10.08978240186827
 20
0.3337004730513362
 30
0.0
 40
0.0325
  1
REV
  7
ADESK2
100
AcDbText
  0
TEXT
  5
515
330
4FD
100
AcDbEntity
  8
TEXT
100
AcDbText
 10
8.900032401868278
 20
0.3337004730513362
 30
0.0
 40
0.0325
  1
DWG NO.
  7
ADESK2
100
AcDbText
  0
TEXT
  5
516
330
4FD
100
AcDbEntity
  8
TEXT
100
AcDbText
 10
8.158482401868278
 20
0.3337004730513362
 30
0.0
 40
0.0325
  1
SIZE
  7
ADESK2
100
AcDbText
  0
TEXT
  5
517
330
4FD
100
AcDbEntity
  8
TEXT
100
AcDbText
 10
9.390932401868278
 20
0.1220004730513366
 30
0.0
 40
0.0325
  1
SHEET
  7
ADESK2
100
AcDbText
  0
TEXT
  5
518
330
4FD
100
AcDbEntity
  8
TEXT
100
AcDbText
 10
8.140682401868277
 20
0.1220004730513366
 30
0.0
 40
0.0325
  1
SCALE
  7
ADESK2
100
AcDbText
  0
LINE
  5
519
330
4FD
100
AcDbEntity
  8
TEXT
100
AcDbLine
 10
10.04953240186827
 20
0.200750473051337
 30
0.0
 11
10.04953240186827
 21
0.3907504730513365
 31
0.0
  0
LINE
  5
51A
330
4FD
100
AcDbEntity
  8
TEXT
100
AcDbLine
 10
8.864532401868279
 20
0.200750473051337
 30
0.0
 11
8.864532401868279
 21
0.3907504730513365
 31
0.0
  0
LINE
  5
51B
330
4FD
100
AcDbEntity
  8
TEXT
100
AcDbLine
 10
8.304532401868277
 20
0.200750473051337
 30
0.0
 11
8.304532401868277
 21
0.3907504730513365
 31
0.0
  0
LINE
  5
51C
330
4FD
100
AcDbEntity
  8
TEXT
100
AcDbLine
 10
9.364532401868279
 20
0.0625
 30
0.0
 11
9.364532401868279
 21
0.200750473051337
 31
0.0
  0
LINE
  5
51D
330
4FD
100
AcDbEntity
  8
TEXT
100
AcDbLine
 10
8.614532401868279
 20
0.0625
 30
0.0
 11
8.614532401868279
 21
0.200750473051337
 31
0.0
  0
LINE
  5
51E
330
4FD
100
AcDbEntity
  8
BORDER
100
AcDbLine
 10
8.114532401868279
 20
0.0625
 30
0.0
 11
8.114532401868279
 21
0.9507504730513369
 31
0.0
  0
LINE
  5
51F
330
4FD
100
AcDbEntity
  8
BORDER
100
AcDbLine
 10
8.114532401868279
 20
0.700750473051337
 30
0.0
 11
10.25043121410005
 21
0.700750473051337
 31
0.0
  0
LINE
  5
520
330
4FD
100
AcDbEntity
  8
TEXT
100
AcDbLine
 10
8.114532401868279
 20
0.200750473051337
 30
0.0
 11
10.25043121410005
 21
0.200750473051337
 31
0.0
  0
LINE
  5
521
330
4FD
100
AcDbEntity
  8
TEXT
100
AcDbLine
 10
7.114532401868278
 20
0.3907504730513365
 30
0.0
 11
10.25043121410005
 21
0.3907504730513365
 31
0.0
  0
LINE
  5
522
330
4FD
100
AcDbEntity
  8
TEXT
100
AcDbLine
 10
7.114532401868278
 20
0.2332504730513367
 30
0.0
 11
8.114532401868279
 21
0.2332504730513367
 31
0.0
  0
LINE
  5
523
330
4FD
100
AcDbEntity
  8
BORDER
100
AcDbLine
 10
7.114532401868278
 20
0.9507504730513369
 30
0.0
 11
10.25043121410005
 21
0.9507504730513369
 31
0.0
  0
LINE
  5
524
330
4FD
100
AcDbEntity
  8
BORDER
100
AcDbLine
 10
7.114532401868278
 20
0.0625
 30
0.0
 11
7.114532401868278
 21
1.162073490813602
 31
0.0
  0
TEXT
  5
525
330
4FD
100
AcDbEntity
  8
TEXT
100
AcDbText
 10
7.148687401868278
 20
0.4899819730513367
 30
0.0
 40
0.0325
  1
DRAWN
  7
ADESK2
100
AcDbText
  0
TEXT
  5
526
330
4FD
100
AcDbEntity
  8
BORDER
100
AcDbText
 10
7.203514652868109
 20
1.024613929072771
 30
0.0
 40
0.075
  1
UNIVERSITY OF CALIFORNIA @ SANTA BARBARA
100
AcDbText
  0
LINE
  5
527
330
4FD
100
AcDbEntity
  8
BORDER
100
AcDbLine
 10
7.114012285752607
 20
1.162073490813602
 30
0.0
 11
10.25043121410005
 21
1.162073490813602
 31
0.0
  0
LINE
  5
528
330
4FD
100
AcDbEntity
  8
BORDER
100
AcDbLine
 10
10.25
 20
0.0625
 30
0.0
 11
10.25
 21
7.3025
 31
0.0
  0
LINE
  5
529
330
4FD
100
AcDbEntity
  8
BORDER
100
AcDbLine
 10
0.25
 20
7.3025
 30
0.0
 11
0.25
 21
0.0625
 31
0.0
  0
LINE
  5
52A
330
4FD
100
AcDbEntity
  8
BORDER
100
AcDbLine
 10
0.25
 20
0.0625
 30
0.0
 11
10.25
 21
0.0625
 31
0.0
  0
TEXT
  5
52B
330
4FD
100
AcDbEntity
  8
BORDER
100
AcDbText
 10
8.183852051433854
 20
0.2259812000243528
 30
0.0
 40
0.075
  1
A
100
AcDbText
  0
TEXT
  5
52C
330
4FD
100
AcDbEntity
  8
TEXT
100
AcDbText
 10
8.340068360089324
 20
0.3326771653542698
 30
0.0
 40
0.0375
  1
DIRECTORY
100
AcDbText
  0
LINE
  5
52D
330
4FD
100
AcDbEntity
  8
BORDER
100
AcDbLine
 10
0.25
 20
7.3025
 30
0.0
 11
10.25
 21
7.3025
 31
0.0
  0
TEXT
  5
52E
330
4FD
100
AcDbEntity
  8
BORDER
100
AcDbText
 10
8.458303959452241
 20
0.7877830678141449
 30
0.0
 40
0.075
  1
HIGH ENERGY PHYSICS
100
AcDbText
  0
TEXT
  5
52F
330
4FD
100
AcDbEntity
  8
TEXT
100
AcDbText
 10
7.229175259011135
 20
0.8925444730513369
 30
0.0
 40
0.0325
  1
UNLESS OTHERWISE SPECIFIED:
  7
ADESK2
 72
     1
 11
7.614532401868278
 21
0.8925444730513369
 31
0.0
100
AcDbText
  0
TEXT
  5
530
330
4FD
100
AcDbEntity
  8
TEXT
100
AcDbText
 10
7.266318116153993
 20
0.8399254730513369
 30
0.0
 40
0.0325
  1
DIMENSIONS ARE IN INCHES
  7
ADESK2
 72
     1
 11
7.614532401868278
 21
0.8399254730513369
 31
0.0
100
AcDbText
  0
TEXT
  5
531
330
4FD
100
AcDbEntity
  8
TEXT
100
AcDbText
 10
7.46518716377304
 20
0.787306473051337
 30
0.0
 40
0.0325
  1
TOLERANCES
  7
ADESK2
 72
     1
 11
7.614532401868278
 21
0.787306473051337
 31
0.0
100
AcDbText
  0
TEXT
  5
532
330
4FD
100
AcDbEntity
  8
TEXT
100
AcDbText
 10
7.272011401868279
 20
0.733371473051337
 30
0.0
 40
0.0325
  1
DECIMALS
  7
ADESK2
100
AcDbText
  0
TEXT
  5
533
330
4FD
100
AcDbEntity
  8
TEXT
100
AcDbText
 10
7.272011401868279
 20
0.680752473051337
 30
0.0
 40
0.0325
  1
.XX  %%P .05
  7
ADESK2
100
AcDbText
  0
TEXT
  5
534
330
4FD
100
AcDbEntity
  8
TEXT
100
AcDbText
 10
7.272011401868279
 20
0.628133473051337
 30
0.0
 40
0.0325
  1
.XXX %%P .005
  7
ADESK2
100
AcDbText
  0
TEXT
  5
535
330
4FD
100
AcDbEntity
  8
TEXT
100
AcDbText
 10
7.307330020915897
 20
0.576871973051337
 30
0.0
 40
0.0325
  1
DO NOT SCALE DRAWING
  7
ADESK2
 72
     1
 11
7.614532401868278
 21
0.576871973051337
 31
0.0
100
AcDbText
  0
TEXT
  5
536
330
4FD
100
AcDbEntity
  8
TEXT
100
AcDbText
 10
7.703959901868278
 20
0.733371473051337
 30
0.0
 40
0.0325
  1
ANGULAR
  7
ADESK2
100
AcDbText
  0
TEXT
  5
537
330
4FD
100
AcDbEntity
  8
TEXT
100
AcDbText
 10
7.703959901868278
 20
0.680752473051337
 30
0.0
 40
0.0325
  1
  %%P 0.5%%D
  7
ADESK2
100
AcDbText
  0
LINE
  5
538
330
4FD
100
AcDbEntity
  8
TEXT
100
AcDbLine
 10
1.53125
 20
6.9275
 30
0.0
 11
0.25
 21
6.9275
 31
0.0
  0
LINE
  5
539
330
4FD
100
AcDbEntity
  8
TEXT
100
AcDbLine
 10
1.53125
 20
7.0525
 30
0.0
 11
1.53125
 21
6.9275
 31
0.0
  0
TEXT
  5
53A
330
4FD
100
AcDbEntity
  8
TEXT
100
AcDbText
 10
0.34375
 20
6.959913795125819
 30
0.0
 40
0.05
  1
THIRD ANGLE PROJECTION
100
AcDbText
  0
LINE
  5
53B
330
4FD
100
AcDbEntity
  8
TEXT
100
AcDbLine
 10
1.065631518781287
 20
7.26448044872969
 30
0.0
 11
1.065631518781287
 21
7.07698044872969
 31
0.0
  0
LINE
  5
53C
330
4FD
100
AcDbEntity
  8
TEXT
100
AcDbLine
 10
0.8233106911879986
 20
7.12385544872969
 30
0.0
 11
0.8233106911879986
 21
7.21760544872969
 31
0.0
  0
LINE
  5
53D
330
4FD
100
AcDbEntity
  8
TEXT
100
AcDbLine
 10
0.8233106911879986
 20
7.12385544872969
 30
0.0
 11
1.065631518781287
 21
7.07698044872969
 31
0.0
  0
LINE
  5
53E
330
4FD
100
AcDbEntity
  8
TEXT
100
AcDbLine
 10
0.8233106911879986
 20
7.21760544872969
 30
0.0
 11
1.065631518781287
 21
7.26448044872969
 31
0.0
  0
LINE
  5
53F
330
4FD
100
AcDbEntity
  8
TEXT
  6
CENTER
100
AcDbLine
 10
0.5889356911879986
 20
7.056389515976311
 30
0.0
 11
0.5889356911879986
 21
7.290327922590398
 31
0.0
  0
LINE
  5
540
330
4FD
100
AcDbEntity
  8
TEXT
  6
CENTER
100
AcDbLine
 10
0.4719755965241177
 20
7.17073044872969
 30
0.0
 11
1.198310691187998
 21
7.17073044872969
 31
0.0
  0
CIRCLE
  5
541
330
4FD
100
AcDbEntity
  8
TEXT
100
AcDbCircle
 10
0.5889356911879986
 20
7.17073044872969
 30
0.0
 40
0.046875
  0
CIRCLE
  5
542
330
4FD
100
AcDbEntity
  8
TEXT
100
AcDbCircle
 10
0.5889356911879986
 20
7.17073044872969
 30
0.0
 40
0.09375
  0
LINE
  5
543
330
4FD
100
AcDbEntity
  8
TEXT
100
AcDbLine
 10
1.53125
 20
7.0525
 30
0.0
 11
1.53125
 21
7.3025
 31
0.0
  0
LINE
  5
544
330
4FD
100
AcDbEntity
  8
TEXT
100
AcDbLine
 10
0.25
 20
7.0525
 30
0.0
 11
1.53125
 21
7.0525
 31
0.0
  0
ENDBLK
  5
546
330
4FD
100
AcDbEntity
  8
0
100
AcDbBlockEnd
  0
ENDSEC
  0
SECTION
  2
ENTITIES
  0
LWPOLYLINE
  5
3AB
330
1F
100
AcDbEntity
  8
AXE
100
AcDbPolyline
 90
        2
 70
     0
 43
0.0
 10
116.0917109267387
 20
108.5354940252612
 10
144.0940659219167
 20
108.5354940252612
  0
LWPOLYLINE
  5
3AC
330
1F
100
AcDbEntity
  8
MAGNETA
100
AcDbPolyline
 90
        2
 70
     0
 43
0.0
 10
121.5941259218867
 20
106.7854755253052
 10
122.8315354470627
 20
107.2980545001452
  0
LWPOLYLINE
  5
3AD
330
1F
100
AcDbEntity
  8
MAGNETA
100
AcDbPolyline
 90
        2
 70
     0
 43
0.0
 10
121.5940799219787
 20
110.2855135252152
 10
122.7518386064567
 20
109.8059464843512
  0
LWPOLYLINE
  5
3AE
330
1F
100
AcDbEntity
  8
RED
100
AcDbPolyline
 90
        2
 70
     0
 43
0.0
 10
122.2518546064267
 20
111.6015128932112
 10
122.6178818743707
 20
111.2354786252812
  0
LWPOLYLINE
  5
3AF
330
1F
100
AcDbEntity
  8
RED
100
AcDbPolyline
 90
        2
 70
     0
 43
0.0
 10
118.7483066135367
 20
113.1354988252333
 10
122.7518386064567
 20
113.1354988252333
  0
LWPOLYLINE
  5
3B0
330
1F
100
AcDbEntity
  8
WHITE
100
AcDbPolyline
 90
        2
 70
     0
 43
0.0
 10
89.9452142198368
 20
101.3624743713292
 10
147.3972504732647
 20
101.360721020852
  0
LWPOLYLINE
  5
3B1
330
1F
100
AcDbEntity
  8
WHITE
100
AcDbPolyline
 90
        2
 70
     0
 43
0.0
 10
89.9444512213628
 20
91.86249337132927
 10
145.6768021696978
 20
91.86079178260461
  0
LWPOLYLINE
  5
3B2
330
1F
100
AcDbEntity
  8
WHITE
100
AcDbPolyline
 90
        2
 70
     0
 43
0.0
 10
89.94521821982875
 20
101.3625123712532
 10
139.1938837223007
 20
101.3610013742753
  0
LWPOLYLINE
  5
3B3
330
1F
100
AcDbEntity
  8
WHITE
100
AcDbPolyline
 90
        2
 70
     0
 43
0.0
 10
89.94448522129477
 20
91.86253137125328
 10
145.6768403375978
 20
91.86081870391053
  0
LWPOLYLINE
  5
3B4
330
1F
100
AcDbEntity
  8
MAGNETA
100
AcDbPolyline
 90
        2
 70
     0
 43
0.0
 10
116.5941359218867
 20
115.0354810252612
 10
152.6351784380546
 20
115.0354965401361
  0
LINE
  5
3B5
330
1F
100
AcDbEntity
  8
MAGNETA
100
AcDbLine
 10
121.5941259218867
 20
73.02499993292996
 30
0.0
 11
127.2922354472213
 21
76.92070579586566
 31
0.0
  0
DIMENSION
  5
3B6
330
1F
100
AcDbEntity
  8
TEXT
100
AcDbDimension
  2
*D11
 10
115.5941379218867
 20
125.8673718068388
 30
0.0
 11
105.2441379218867
 21
125.8673718068388
 31
0.0
 70
    32
 71
     5
 42
2.998978000000008
  3
SU1
100
AcDbAlignedDimension
 13
118.5931159218867
 23
96.35359817671732
 33
0.0
 14
115.5941379218867
 24
114.0354830252612
 34
0.0
100
AcDbRotatedDimension
  0
LWPOLYLINE
  5
3B7
330
1F
100
AcDbEntity
  8
AXE
100
AcDbPolyline
 90
        2
 70
     0
 43
0.0
 10
119.2441396218687
 20
104.6355008252632
 10
119.2441396218687
 20
107.6355178252172
  0
LWPOLYLINE
  5
3B8
330
1F
100
AcDbEntity
  8
AXE
100
AcDbPolyline
 90
        2
 70
     0
 43
0.0
 10
121.5941409218567
 20
101.0355400251992
 10
121.5941409218567
 20
116.0354490253212
  0
LWPOLYLINE
  5
3B9
330
1F
100
AcDbEntity
  8
RED
100
AcDbPolyline
 90
        2
 70
     0
 43
0.0
 10
120.7178306744807
 20
105.1355228252172
 10
120.8518334064747
 20
105.6355138252333
  0
LWPOLYLINE
  5
3BA
330
1F
100
AcDbEntity
  8
RED
100
AcDbPolyline
 90
        2
 70
     0
 43
0.0
 10
119.9512462076527
 20
105.4283992394632
 10
120.2441226218987
 20
106.1355058252472
  0
LWPOLYLINE
  5
3BB
330
1F
100
AcDbEntity
  8
RED
100
AcDbPolyline
 90
        2
 70
     0
 43
0.0
 10
119.2441706218067
 20
105.5555199852212
 10
119.6542958015547
 20
105.7253726455152
  0
LWPOLYLINE
  5
3BC
330
1F
100
AcDbEntity
  8
RED
100
AcDbPolyline
 90
        2
 70
     0
 43
0.0
 10
118.8340604420287
 20
105.7253886454832
 10
119.2441706218067
 20
105.5554969852672
  0
LWPOLYLINE
  5
3BD
330
1F
100
AcDbEntity
  8
RED
100
AcDbPolyline
 90
        2
 70
     0
 43
0.0
 10
118.2441266218987
 20
106.1355278252032
 10
118.5370190361127
 20
105.4283992394632
  0
LWPOLYLINE
  5
3BE
330
1F
100
AcDbEntity
  8
RED
100
AcDbPolyline
 90
        2
 70
     0
 43
0.0
 10
117.7482786135967
 20
105.6355138252333
 10
117.8822503456527
 20
105.1355078252472
  0
LWPOLYLINE
  5
3BF
330
1F
100
AcDbEntity
  8
MAGNETA
100
AcDbPolyline
 90
        2
 70
     0
 43
0.0
 10
115.5941379218867
 20
101.3619173724432
 10
115.5941379218867
 20
114.0354830252612
  0
LEADER
  5
3C0
330
1F
100
AcDbEntity
  8
TEXT
100
AcDbLeader
  3
SU1
 73
     0
 75
     1
 40
6.096
 41
28.57499999999999
 76
     3
 10
118.5931159218867
 20
96.35359817671732
 30
0.0
 10
105.3960001763716
 20
116.2513995341827
 30
0.0
 10
102.6960001763716
 20
116.2513995341827
 30
0.0
340
3C1
1001
ACAD
1000
DSTYLE
1002
{
1070
   147
1040
0.09
1070
    77
1070
     0
1002
}
  0
MTEXT
  5
3C1
102
{ACAD_REACTORS
330
3C0
102
}
330
1F
100
AcDbEntity
  8
TEXT
100
AcDbMText
 10
101.3460001763716
 20
116.2513995341827
 30
0.0
 40
2.285999999999999
 41
0.0
 71
     6
 72
     1
  1
Araldite epoxy\P4mm diameter
 73
     1
 44
1.0
  0
LWPOLYLINE
  5
3C2
330
1F
100
AcDbEntity
  8
MAGNETA
100
AcDbPolyline
 90
        2
 70
     0
 43
0.0
 10
83.16467878093479
 20
102.1126708709332
 10
92.1646767809028
 20
102.1126708709332
  0
LWPOLYLINE
  5
3C3
330
1F
100
AcDbEntity
  8
RED
100
AcDbPolyline
 90
        2
 70
     0
 43
0.0
 10
84.71977567073476
 20
101.6376888208992
 10
89.66977777071077
 20
101.6376888208992
  0
LWPOLYLINE
  5
3C4
330
1F
100
AcDbEntity
  8
RED
100
AcDbPolyline
 90
        2
 70
     0
 43
0.0
 10
85.19478072072276
 20
101.2126946708893
 10
89.19478772069281
 20
101.2126946708893
  0
LWPOLYLINE
  5
3C5
330
1F
100
AcDbEntity
  8
RED
100
AcDbPolyline
 90
        2
 70
     0
 43
0.0
 10
85.19478072072276
 20
92.0127010709133
 10
89.19478772069281
 20
92.0127010709133
  0
LWPOLYLINE
  5
3C6
330
1F
100
AcDbEntity
  8
RED
100
AcDbPolyline
 90
        2
 70
     0
 43
0.0
 10
84.71977567073476
 20
91.58770592090528
 10
89.66977777071077
 20
91.58770592090528
  0
LWPOLYLINE
  5
3C7
330
1F
100
AcDbEntity
  8
MAGNETA
100
AcDbPolyline
 90
        2
 70
     0
 43
0.0
 10
83.16467878093479
 20
91.1126928709333
 10
92.1646767809028
 20
91.1126928709333
  0
LWPOLYLINE
  5
3C8
330
1F
100
AcDbEntity
  8
RED
100
AcDbPolyline
 90
        2
 70
     0
 43
0.0
 10
84.71974967078674
 20
101.6377188208392
 10
89.66976677073274
 20
101.6377188208392
  0
LWPOLYLINE
  5
3C9
330
1F
100
AcDbEntity
  8
RED
100
AcDbPolyline
 90
        2
 70
     0
 43
0.0
 10
85.19475472077475
 20
101.2127246708293
 10
89.19476172074475
 20
101.2127246708293
  0
LWPOLYLINE
  5
3CA
330
1F
100
AcDbEntity
  8
MAGNETA
100
AcDbPolyline
 90
        2
 70
     0
 43
0.0
 10
83.16468378092473
 20
102.1126938708873
 10
92.16464978095677
 20
102.1126938708873
  0
LWPOLYLINE
  5
3CB
330
1F
100
AcDbEntity
  8
RED
100
AcDbPolyline
 90
        2
 70
     0
 43
0.0
 10
85.19475472077475
 20
92.01273107085327
 10
89.19476172074475
 20
92.01273107085327
  0
LWPOLYLINE
  5
3CC
330
1F
100
AcDbEntity
  8
RED
100
AcDbPolyline
 90
        2
 70
     0
 43
0.0
 10
84.71974967078674
 20
91.58773592084527
 10
89.66976677073274
 20
91.58773592084527
  0
LWPOLYLINE
  5
3CD
330
1F
100
AcDbEntity
  8
MAGNETA
100
AcDbPolyline
 90
        2
 70
     0
 43
0.0
 10
83.16468378092473
 20
91.11271587088728
 10
92.16464978095677
 20
91.11271587088728
  0
LWPOLYLINE
  5
3CE
330
1F
100
AcDbEntity
  8
RED
100
AcDbPolyline
 90
        2
 70
     0
 43
0.0
 10
84.71977567073476
 20
91.58770592090528
 10
84.71977567073476
 20
101.6376888208992
  0
LWPOLYLINE
  5
3CF
330
1F
100
AcDbEntity
  8
RED
100
AcDbPolyline
 90
        2
 70
     0
 43
0.0
 10
85.19478072072276
 20
92.0127010709133
 10
85.19478072072276
 20
101.2126946708893
  0
LWPOLYLINE
  5
3D0
330
1F
100
AcDbEntity
  8
WHITE
100
AcDbPolyline
 90
        2
 70
     0
 43
0.0
 10
83.18471374086477
 20
91.86270737090131
 10
83.18497374034478
 20
101.3626883709013
  0
LWPOLYLINE
  5
3D1
330
1F
100
AcDbEntity
  8
MAGNETA
100
AcDbPolyline
 90
        2
 70
     0
 43
0.0
 10
83.16467878093479
 20
91.1126928709333
 10
83.16467878093479
 20
102.1126708709332
  0
LWPOLYLINE
  5
3D2
330
1F
100
AcDbEntity
  8
RED
100
AcDbPolyline
 90
        2
 70
     0
 43
0.0
 10
84.71974967078674
 20
91.58773592084527
 10
84.71974967078674
 20
101.6377188208392
  0
LWPOLYLINE
  5
3D3
330
1F
100
AcDbEntity
  8
RED
100
AcDbPolyline
 90
        2
 70
     0
 43
0.0
 10
85.19475472077475
 20
92.01273107085327
 10
85.19475472077475
 20
101.2127246708293
  0
LWPOLYLINE
  5
3D4
330
1F
100
AcDbEntity
  8
WHITE
100
AcDbPolyline
 90
        2
 70
     0
 43
0.0
 10
83.18471774085677
 20
91.86273737084126
 10
83.18500774027675
 20
101.3627183708412
  0
LWPOLYLINE
  5
3D5
330
1F
100
AcDbEntity
  8
MAGNETA
100
AcDbPolyline
 90
        2
 70
     0
 43
0.0
 10
83.16468378092473
 20
91.11271587088728
 10
83.16468378092473
 20
102.1126938708873
  0
LWPOLYLINE
  5
3D6
330
1F
100
AcDbEntity
  8
WHITE
100
AcDbPolyline
 90
        2
 70
     0
 43
0.0
 10
83.18471374086477
 20
91.86270737090131
 10
84.71980567067477
 20
91.8626613709933
  0
LWPOLYLINE
  5
3D7
330
1F
100
AcDbEntity
  8
WHITE
100
AcDbPolyline
 90
        2
 70
     0
 43
0.0
 10
83.18471774085677
 20
91.86273737084126
 10
84.71981067066476
 20
91.86269137093328
  0
LWPOLYLINE
  5
3D8
330
1F
100
AcDbEntity
  8
WHITE
100
AcDbPolyline
 90
        2
 70
     0
 43
0.0
 10
83.18497374034478
 20
101.3626883709013
 10
84.71992867042876
 20
101.3626423709933
  0
LWPOLYLINE
  5
3D9
330
1F
100
AcDbEntity
  8
WHITE
100
AcDbPolyline
 90
        2
 70
     0
 43
0.0
 10
83.18500774027675
 20
101.3627183708412
 10
84.71994767039076
 20
101.3626803709172
  0
LWPOLYLINE
  5
3DA
330
1F
100
AcDbEntity
  8
RED
100
AcDbPolyline
 90
        2
 70
     0
 43
0.0
 10
90.66977577071078
 20
92.58770392090527
 10
90.66977577071078
 20
100.6376838209132
  0
LWPOLYLINE
  5
3DB
330
1F
100
AcDbEntity
  8
RED
100
AcDbPolyline
 90
        2
 70
     0
 43
0.0
 10
90.19477072072277
 20
93.01269907091329
 10
90.19477072072277
 20
100.2126966708893
  0
LWPOLYLINE
  5
3DC
330
1F
100
AcDbEntity
  8
RED
100
AcDbPolyline
 90
        2
 70
     0
 43
0.0
 10
87.19479172069281
 20
93.01269907091329
 10
87.19479172069281
 20
100.2126966708893
  0
LWPOLYLINE
  5
3DD
330
1F
100
AcDbEntity
  8
RED
100
AcDbPolyline
 90
        2
 70
     0
 43
0.0
 10
88.1947897206928
 20
93.01269907091329
 10
88.1947897206928
 20
100.2126966708893
  0
LWPOLYLINE
  5
3DE
330
1F
100
AcDbEntity
  8
RED
100
AcDbPolyline
 90
        2
 70
     0
 43
0.0
 10
90.66974977076275
 20
92.58773392084526
 10
90.66974977076275
 20
100.6377138208532
  0
LWPOLYLINE
  5
3DF
330
1F
100
AcDbEntity
  8
RED
100
AcDbPolyline
 90
        2
 70
     0
 43
0.0
 10
87.19478072071478
 20
93.0127290708533
 10
87.19478072071478
 20
100.2127186708452
  0
LWPOLYLINE
  5
3E0
330
1F
100
AcDbEntity
  8
RED
100
AcDbPolyline
 90
        2
 70
     0
 43
0.0
 10
88.19477872071477
 20
93.0127290708533
 10
88.19477872071477
 20
100.2127186708452
  0
LWPOLYLINE
  5
3E1
330
1F
100
AcDbEntity
  8
RED
100
AcDbPolyline
 90
        2
 70
     0
 43
0.0
 10
90.19474472077474
 20
93.0127290708533
 10
90.19474472077474
 20
100.2127186708452
  0
LWPOLYLINE
  5
3E2
330
1F
100
AcDbEntity
  8
RED
100
AcDbPolyline
 90
        2
 70
     0
 43
0.0
 10
89.66979277068077
 20
91.58770592090528
 10
90.66977577071078
 20
92.58770392090527
  0
LWPOLYLINE
  5
3E3
330
1F
100
AcDbEntity
  8
RED
100
AcDbPolyline
 90
        2
 70
     0
 43
0.0
 10
89.19478772069281
 20
92.0127010709133
 10
90.19477072072277
 20
93.01269907091329
  0
LWPOLYLINE
  5
3E4
330
1F
100
AcDbEntity
  8
RED
100
AcDbPolyline
 90
        2
 70
     0
 43
0.0
 10
89.66976677073274
 20
91.58772892085929
 10
90.66974977076275
 20
92.58772692085928
  0
LWPOLYLINE
  5
3E5
330
1F
100
AcDbEntity
  8
RED
100
AcDbPolyline
 90
        2
 70
     0
 43
0.0
 10
89.19474672077475
 20
92.01273107085327
 10
90.19474472077474
 20
93.01273607083926
  0
LWPOLYLINE
  5
3E6
330
1F
100
AcDbEntity
  8
MAGNETA
100
AcDbPolyline
 90
        2
 70
     0
 43
0.0
 10
92.1646767809028
 20
91.1126928709333
 10
92.1646767809028
 20
91.86247037137526
  0
LWPOLYLINE
  5
3E7
330
1F
100
AcDbEntity
  8
MAGNETA
100
AcDbPolyline
 90
        2
 70
     0
 43
0.0
 10
92.16464978095677
 20
91.11271587088728
 10
92.16464978095677
 20
91.86250037131527
  0
LWPOLYLINE
  5
3E8
330
1F
100
AcDbEntity
  8
RED
100
AcDbPolyline
 90
        2
 70
     0
 43
0.0
 10
87.19479172069281
 20
93.01269907091329
 10
88.1947897206928
 20
93.01269907091329
  0
LWPOLYLINE
  5
3E9
330
1F
100
AcDbEntity
  8
RED
100
AcDbPolyline
 90
        2
 70
     0
 43
0.0
 10
87.19478072071478
 20
93.0127290708533
 10
88.19477872071477
 20
93.0127290708533
  0
LWPOLYLINE
  5
3EA
330
1F
100
AcDbEntity
  8
RED
100
AcDbPolyline
 90
        2
 70
     0
 43
0.0
 10
89.66977777071077
 20
101.6376888208992
 10
90.66977577071078
 20
100.6376838209132
  0
LWPOLYLINE
  5
3EB
330
1F
100
AcDbEntity
  8
RED
100
AcDbPolyline
 90
        2
 70
     0
 43
0.0
 10
89.19478772069281
 20
101.2126946708893
 10
90.19477072072277
 20
100.2126966708893
  0
LWPOLYLINE
  5
3EC
330
1F
100
AcDbEntity
  8
RED
100
AcDbPolyline
 90
        2
 70
     0
 43
0.0
 10
89.66976677073274
 20
101.6377188208392
 10
90.66974977076275
 20
100.6377138208532
  0
LWPOLYLINE
  5
3ED
330
1F
100
AcDbEntity
  8
RED
100
AcDbPolyline
 90
        2
 70
     0
 43
0.0
 10
89.19476172074475
 20
101.2127246708293
 10
90.19474472077474
 20
100.2127186708452
  0
LWPOLYLINE
  5
3EE
330
1F
100
AcDbEntity
  8
RED
100
AcDbPolyline
 90
        2
 70
     0
 43
0.0
 10
87.19479172069281
 20
100.2126966708893
 10
88.1947897206928
 20
100.2126966708893
  0
LWPOLYLINE
  5
3EF
330
1F
100
AcDbEntity
  8
RED
100
AcDbPolyline
 90
        2
 70
     0
 43
0.0
 10
87.19478072071478
 20
100.2127186708452
 10
88.19477872071477
 20
100.2127186708452
  0
LWPOLYLINE
  5
3F0
330
1F
100
AcDbEntity
  8
MAGNETA
100
AcDbPolyline
 90
        2
 70
     0
 43
0.0
 10
92.1646767809028
 20
101.3623833715112
 10
92.1646767809028
 20
102.1126708709332
  0
LWPOLYLINE
  5
3F1
330
1F
100
AcDbEntity
  8
MAGNETA
100
AcDbPolyline
 90
        2
 70
     0
 43
0.0
 10
92.16464978095677
 20
101.3624133714512
 10
92.16464978095677
 20
102.1126938708873
  0
LWPOLYLINE
  5
3F2
330
1F
100
AcDbEntity
  8
MAGNETA
100
AcDbPolyline
 90
        2
 70
     0
 43
0.0
 10
115.5941379218867
 20
86.0355430252533
 10
115.5941379218867
 20
91.86154737322127
  0
LWPOLYLINE
  5
3F3
330
1F
100
AcDbEntity
  8
MAGNETA
100
AcDbPolyline
 90
        2
 70
     0
 43
0.0
 10
121.5941259218867
 20
73.02499993292996
 10
121.5941259218867
 20
84.0355510252453
  0
LWPOLYLINE
  5
3F4
330
1F
100
AcDbEntity
  8
MAGNETA
100
AcDbPolyline
 90
        2
 70
     0
 43
0.0
 10
116.0941519218567
 20
85.16951375731528
 10
116.5941359218867
 20
85.03554102526123
  0
LWPOLYLINE
  5
3F5
330
1F
100
AcDbEntity
  8
MAGNETA
100
AcDbPolyline
 90
        2
 70
     0
 43
0.0
 10
115.7281096539427
 20
85.53554002526125
 10
116.0941519218567
 20
85.16951375731528
  0
LWPOLYLINE
  5
3F6
330
1F
100
AcDbEntity
  8
MAGNETA
100
AcDbPolyline
 90
        2
 70
     0
 43
0.0
 10
115.5941229219167
 20
86.0355430252533
 10
115.7280946539727
 20
85.53554002526125
  0
LWPOLYLINE
  5
3F7
330
1F
100
AcDbEntity
  8
MAGNETA
100
AcDbPolyline
 90
        2
 70
     0
 43
0.0
 10
116.5941359218867
 20
85.03554102526123
 10
120.5941279218867
 20
85.03554102526123
  0
LWPOLYLINE
  5
3F8
330
1F
100
AcDbEntity
  8
MAGNETA
100
AcDbPolyline
 90
        2
 70
     0
 43
0.0
 10
120.5941279218867
 20
85.03554102526123
 10
121.0941119219167
 20
84.90156929320527
  0
LWPOLYLINE
  5
3F9
330
1F
100
AcDbEntity
  8
MAGNETA
100
AcDbPolyline
 90
        2
 70
     0
 43
0.0
 10
121.0941419218567
 20
84.90156229321931
 10
121.4601691898007
 20
84.53555002524529
  0
LWPOLYLINE
  5
3FA
330
1F
100
AcDbEntity
  8
MAGNETA
100
AcDbPolyline
 90
        2
 70
     0
 43
0.0
 10
121.4601541898307
 20
84.53554202526126
 10
121.5941409218567
 20
84.0355510252453
  0
CIRCLE
  5
3FB
330
1F
100
AcDbEntity
  8
glue
100
AcDbCircle
 10
118.5931159218867
 20
96.35359817671732
 30
0.0
 40
1.9939
  0
LWPOLYLINE
  5
3FC
330
1F
100
AcDbEntity
  8
RED
100
AcDbPolyline
 90
        2
 70
     0
 43
0.0
 10
119.2441856217767
 20
105.1354998252632
 10
119.9512762075927
 20
105.4283842394933
  0
LWPOLYLINE
  5
3FD
330
1F
100
AcDbEntity
  8
RED
100
AcDbPolyline
 90
        2
 70
     0
 43
0.0
 10
118.7483066135367
 20
104.6355088252472
 10
119.8518504064447
 20
104.6355088252472
  0
LWPOLYLINE
  5
3FE
330
1F
100
AcDbEntity
  8
RED
100
AcDbPolyline
 90
        2
 70
     0
 43
0.0
 10
118.2483536134447
 20
104.7694875572892
 10
118.7482916135667
 20
104.6355158252332
  0
LWPOLYLINE
  5
3FF
330
1F
100
AcDbEntity
  8
RED
100
AcDbPolyline
 90
        2
 70
     0
 43
0.0
 10
118.5370340360827
 20
105.4283992394632
 10
119.2441706218067
 20
105.1355078252472
  0
LWPOLYLINE
  5
400
330
1F
100
AcDbEntity
  8
RED
100
AcDbPolyline
 90
        2
 70
     0
 43
0.0
 10
117.8822503456527
 20
105.1355228252172
 10
118.2483226135067
 20
104.7694875572892
  0
LWPOLYLINE
  5
401
330
1F
100
AcDbEntity
  8
RED
100
AcDbPolyline
 90
        2
 70
     0
 43
0.0
 10
120.3518804063827
 20
104.7694655573332
 10
120.7179076743267
 20
105.1354998252632
  0
LWPOLYLINE
  5
402
330
1F
100
AcDbEntity
  8
RED
100
AcDbPolyline
 90
        2
 70
     0
 43
0.0
 10
119.8518204065047
 20
104.6355308252032
 10
120.3518494064447
 20
104.7694875572892
  0
LWPOLYLINE
  5
403
330
1F
100
AcDbEntity
  8
MAGNETA
100
AcDbPolyline
 90
        2
 70
     0
 43
0.0
 10
115.5941229219167
 20
114.0354990252292
 10
115.7280946539727
 20
114.5354900252453
  0
LWPOLYLINE
  5
404
330
1F
100
AcDbEntity
  8
RED
100
AcDbPolyline
 90
        2
 70
     0
 43
0.0
 10
120.3840603420227
 20
109.9707941546552
 10
120.4738281624867
 20
110.0769949422532
  0
LWPOLYLINE
  5
405
330
1F
100
AcDbEntity
  8
MAGNETA
100
AcDbPolyline
 90
        2
 70
     0
 43
0.0
 10
120.3566713968007
 20
109.7729265503912
 10
121.5941109219167
 20
110.2855065252292
  0
LWPOLYLINE
  5
406
330
1F
100
AcDbEntity
  8
RED
100
AcDbPolyline
 90
        2
 70
     0
 43
0.0
 10
117.7483086135367
 20
108.3355134252232
 10
117.7483086135367
 20
110.9354992252412
  0
LWPOLYLINE
  5
407
330
1F
100
AcDbEntity
  8
AXE
100
AcDbPolyline
 90
        2
 70
     0
 43
0.0
 10
117.7441426218687
 20
106.1355058252472
 10
120.7441366218687
 20
106.1355058252472
  0
LWPOLYLINE
  5
408
330
1F
100
AcDbEntity
  8
RED
100
AcDbPolyline
 90
        2
 70
     0
 43
0.0
 10
119.2441706218067
 20
107.1354958252632
 10
119.9512612076227
 20
106.8426044110472
  0
LWPOLYLINE
  5
409
330
1F
100
AcDbEntity
  8
RED
100
AcDbPolyline
 90
        2
 70
     0
 43
0.0
 10
119.2441706218067
 20
106.7154986652592
 10
119.6542648016167
 20
106.5456230050112
  0
LWPOLYLINE
  5
40A
330
1F
100
AcDbEntity
  8
RED
100
AcDbPolyline
 90
        2
 70
     0
 43
0.0
 10
118.2441576218367
 20
106.1355058252472
 10
118.5370490360527
 20
106.8426114110332
  0
LWPOLYLINE
  5
40B
330
1F
100
AcDbEntity
  8
RED
100
AcDbPolyline
 90
        2
 70
     0
 43
0.0
 10
118.6641547818407
 20
106.1355058252472
 10
118.8340304420887
 20
106.5456230050112
  0
LWPOLYLINE
  5
40C
330
1F
100
AcDbEntity
  8
RED
100
AcDbPolyline
 90
        2
 70
     0
 43
0.0
 10
118.5370950359607
 20
106.8425964110632
 10
119.2441556218367
 20
107.1354878252792
  0
LWPOLYLINE
  5
40D
330
1F
100
AcDbEntity
  8
RED
100
AcDbPolyline
 90
        2
 70
     0
 43
0.0
 10
118.8340604420287
 20
106.5456230050112
 10
119.2441856217767
 20
106.7154906652752
  0
LWPOLYLINE
  5
40E
330
1F
100
AcDbEntity
  8
RED
100
AcDbPolyline
 90
        2
 70
     0
 43
0.0
 10
118.6641397818707
 20
106.1355058252472
 10
118.8340304420887
 20
105.7253886454832
  0
LWPOLYLINE
  5
40F
330
1F
100
AcDbEntity
  8
RED
100
AcDbPolyline
 90
        2
 70
     0
 43
0.0
 10
117.7483086135367
 20
105.6355138252333
 10
117.7483086135367
 20
107.6355028252472
  0
LWPOLYLINE
  5
410
330
1F
100
AcDbEntity
  8
RED
100
AcDbPolyline
 90
        2
 70
     0
 43
0.0
 10
117.2483096135367
 20
107.6355028252472
 10
117.2483096135367
 20
108.3355134252232
  0
LWPOLYLINE
  5
411
330
1F
100
AcDbEntity
  8
RED
100
AcDbPolyline
 90
        2
 70
     0
 43
0.0
 10
117.2483096135367
 20
108.3355134252232
 10
117.7483086135367
 20
108.3355134252232
  0
LWPOLYLINE
  5
412
330
1F
100
AcDbEntity
  8
RED
100
AcDbPolyline
 90
        2
 70
     0
 43
0.0
 10
117.2483096135367
 20
107.6355028252472
 10
117.7483086135367
 20
107.6355028252472
  0
LWPOLYLINE
  5
413
330
1F
100
AcDbEntity
  8
RED
100
AcDbPolyline
 90
        2
 70
     0
 43
0.0
 10
120.3518494064447
 20
109.8355024252392
 10
120.3840763419907
 20
109.9707791546852
  0
LWPOLYLINE
  5
414
330
1F
100
AcDbEntity
  8
MAGNETA
100
AcDbPolyline
 90
        2
 70
     0
 43
0.0
 10
120.3518194065047
 20
109.7612155738132
 10
120.3566563968307
 20
109.7729645503152
  0
LWPOLYLINE
  5
415
330
1F
100
AcDbEntity
  8
RED
100
AcDbPolyline
 90
        2
 70
     0
 43
0.0
 10
119.6542958015547
 20
105.7253886454832
 10
119.8241714618027
 20
106.1355058252472
  0
LWPOLYLINE
  5
416
330
1F
100
AcDbEntity
  8
RED
100
AcDbPolyline
 90
        2
 70
     0
 43
0.0
 10
120.4738131625167
 20
107.1856517249512
 10
120.7298546504327
 20
107.0769789422972
  0
LWPOLYLINE
  5
417
330
1F
100
AcDbEntity
  8
MAGNETA
100
AcDbPolyline
 90
        2
 70
     0
 43
0.0
 10
120.3907293286847
 20
107.2839635283272
 10
121.5940959219467
 20
106.7855135252292
  0
LWPOLYLINE
  5
418
330
1F
100
AcDbEntity
  8
RED
100
AcDbPolyline
 90
        2
 70
     0
 43
0.0
 10
120.7298396504627
 20
107.0769939422672
 10
120.8196224708967
 20
106.9707771547012
  0
LWPOLYLINE
  5
419
330
1F
100
AcDbEntity
  8
RED
100
AcDbPolyline
 90
        2
 70
     0
 43
0.0
 10
120.3840603420227
 20
107.2918525125492
 10
120.4738281624867
 20
107.1856357249832
  0
LWPOLYLINE
  5
41A
330
1F
100
AcDbEntity
  8
RED
100
AcDbPolyline
 90
        2
 70
     0
 43
0.0
 10
119.9512312076827
 20
106.8426344109872
 10
120.2441226218987
 20
106.1355058252472
  0
LWPOLYLINE
  5
41B
330
1F
100
AcDbEntity
  8
RED
100
AcDbPolyline
 90
        2
 70
     0
 43
0.0
 10
119.6542648016167
 20
106.5456460049652
 10
119.8241554618347
 20
106.1354898252792
  0
LWPOLYLINE
  5
41C
330
1F
100
AcDbEntity
  8
RED
100
AcDbPolyline
 90
        2
 70
     0
 43
0.0
 10
120.8196224708967
 20
106.9707931546692
 10
120.8518334064747
 20
106.8355084252392
  0
LWPOLYLINE
  5
41D
330
1F
100
AcDbEntity
  8
RED
100
AcDbPolyline
 90
        2
 70
     0
 43
0.0
 10
120.3518344064747
 20
107.4271212420112
 10
120.3840603420227
 20
107.2918525125492
  0
LWPOLYLINE
  5
41E
330
1F
100
AcDbEntity
  8
RED
100
AcDbPolyline
 90
        2
 70
     0
 43
0.0
 10
120.8518484064447
 20
105.6355138252333
 10
120.8518484064447
 20
106.8355084252392
  0
LWPOLYLINE
  5
41F
330
1F
100
AcDbEntity
  8
RED
100
AcDbPolyline
 90
        2
 70
     0
 43
0.0
 10
120.3518494064447
 20
107.4271212420112
 10
120.3518494064447
 20
109.8355024252392
  0
LWPOLYLINE
  5
420
330
1F
100
AcDbEntity
  8
AXE
100
AcDbPolyline
 90
        2
 70
     0
 43
0.0
 10
117.7441426218687
 20
111.6354948252472
 10
120.7441366218687
 20
111.6354948252472
  0
LWPOLYLINE
  5
421
330
1F
100
AcDbEntity
  8
RED
100
AcDbPolyline
 90
        2
 70
     0
 43
0.0
 10
119.2441706218067
 20
110.6354658253092
 10
119.9512762075927
 20
110.9283962394473
  0
LWPOLYLINE
  5
422
330
1F
100
AcDbEntity
  8
RED
100
AcDbPolyline
 90
        2
 70
     0
 43
0.0
 10
119.2441706218067
 20
111.0555009852372
 10
119.6543258014947
 20
111.2253696454992
  0
LWPOLYLINE
  5
423
330
1F
100
AcDbEntity
  8
RED
100
AcDbPolyline
 90
        2
 70
     0
 43
0.0
 10
119.2441396218687
 20
112.6355078252172
 10
119.9512462076527
 20
112.3426154110032
  0
LWPOLYLINE
  5
424
330
1F
100
AcDbEntity
  8
RED
100
AcDbPolyline
 90
        2
 70
     0
 43
0.0
 10
119.2441556218367
 20
112.2154946652452
 10
119.6542798015867
 20
112.0456190049972
  0
LWPOLYLINE
  5
425
330
1F
100
AcDbEntity
  8
AXE
100
AcDbPolyline
 90
        2
 70
     0
 43
0.0
 10
119.2441396218687
 20
110.1354898252632
 10
119.2441396218687
 20
113.1354988252333
  0
LWPOLYLINE
  5
426
330
1F
100
AcDbEntity
  8
RED
100
AcDbPolyline
 90
        2
 70
     0
 43
0.0
 10
117.7483236135067
 20
112.1354778252793
 10
117.8822953455627
 20
112.6354848252632
  0
LWPOLYLINE
  5
427
330
1F
100
AcDbEntity
  8
RED
100
AcDbPolyline
 90
        2
 70
     0
 43
0.0
 10
118.2441416218687
 20
111.6354868252632
 10
118.5370340360827
 20
112.3425934110472
  0
LWPOLYLINE
  5
428
330
1F
100
AcDbEntity
  8
RED
100
AcDbPolyline
 90
        2
 70
     0
 43
0.0
 10
118.6641697818107
 20
111.6354948252472
 10
118.8340454420587
 20
112.0456190049972
  0
LWPOLYLINE
  5
429
330
1F
100
AcDbEntity
  8
RED
100
AcDbPolyline
 90
        2
 70
     0
 43
0.0
 10
117.8823573454387
 20
112.6354698252932
 10
118.2483686134147
 20
113.0014970932373
  0
LWPOLYLINE
  5
42A
330
1F
100
AcDbEntity
  8
RED
100
AcDbPolyline
 90
        2
 70
     0
 43
0.0
 10
118.5370800359907
 20
112.3425774110792
 10
119.2441706218067
 20
112.6355078252172
  0
LWPOLYLINE
  5
42B
330
1F
100
AcDbEntity
  8
RED
100
AcDbPolyline
 90
        2
 70
     0
 43
0.0
 10
118.8340154421187
 20
112.0456040050272
 10
119.2441856217767
 20
112.2154726652893
  0
LWPOLYLINE
  5
42C
330
1F
100
AcDbEntity
  8
RED
100
AcDbPolyline
 90
        2
 70
     0
 43
0.0
 10
118.2482926135667
 20
113.0015350931612
 10
118.7482916135667
 20
113.1355068252172
  0
LWPOLYLINE
  5
42D
330
1F
100
AcDbEntity
  8
RED
100
AcDbPolyline
 90
        2
 70
     0
 43
0.0
 10
118.5370490360527
 20
110.9283962394473
 10
119.2441706218067
 20
110.6354888252633
  0
LWPOLYLINE
  5
42E
330
1F
100
AcDbEntity
  8
RED
100
AcDbPolyline
 90
        2
 70
     0
 43
0.0
 10
118.8339994421507
 20
111.2253846454692
 10
119.2441396218687
 20
111.0555089852212
  0
LWPOLYLINE
  5
42F
330
1F
100
AcDbEntity
  8
RED
100
AcDbPolyline
 90
        2
 70
     0
 43
0.0
 10
118.2441116219287
 20
111.6355248251872
 10
118.5370340360827
 20
110.9284342393712
  0
LWPOLYLINE
  5
430
330
1F
100
AcDbEntity
  8
RED
100
AcDbPolyline
 90
        2
 70
     0
 43
0.0
 10
118.6640937819627
 20
111.6355248251872
 10
118.8339994421507
 20
111.2253926454532
  0
LWPOLYLINE
  5
431
330
1F
100
AcDbEntity
  8
RED
100
AcDbPolyline
 90
        2
 70
     0
 43
0.0
 10
117.7483086135367
 20
111.6354948252472
 10
117.7483086135367
 20
112.1354938252472
  0
LWPOLYLINE
  5
432
330
1F
100
AcDbEntity
  8
RED
100
AcDbPolyline
 90
        2
 70
     0
 43
0.0
 10
117.2483096135367
 20
110.9354992252412
 10
117.2483096135367
 20
111.6354948252472
  0
LWPOLYLINE
  5
433
330
1F
100
AcDbEntity
  8
RED
100
AcDbPolyline
 90
        2
 70
     0
 43
0.0
 10
117.2483096135367
 20
111.6354948252472
 10
117.7483086135367
 20
111.6354948252472
  0
LWPOLYLINE
  5
434
330
1F
100
AcDbEntity
  8
RED
100
AcDbPolyline
 90
        2
 70
     0
 43
0.0
 10
117.2483096135367
 20
110.9354992252412
 10
117.7483086135367
 20
110.9354992252412
  0
LWPOLYLINE
  5
435
330
1F
100
AcDbEntity
  8
RED
100
AcDbPolyline
 90
        2
 70
     0
 43
0.0
 10
120.8196224708967
 20
110.2918385125652
 10
120.8518484064447
 20
110.4271072420272
  0
LWPOLYLINE
  5
436
330
1F
100
AcDbEntity
  8
RED
100
AcDbPolyline
 90
        2
 70
     0
 43
0.0
 10
120.8518334064747
 20
111.4355052252273
 10
120.8920403260607
 20
111.5854839252692
  0
LWPOLYLINE
  5
437
330
1F
100
AcDbEntity
  8
RED
100
AcDbPolyline
 90
        2
 70
     0
 43
0.0
 10
119.9512762075927
 20
110.9283962394473
 10
120.2441686218067
 20
111.6354868252632
  0
LWPOLYLINE
  5
438
330
1F
100
AcDbEntity
  8
RED
100
AcDbPolyline
 90
        2
 70
     0
 43
0.0
 10
119.6542648016167
 20
111.2253846454692
 10
119.8241554618347
 20
111.6355018252332
  0
LWPOLYLINE
  5
439
330
1F
100
AcDbEntity
  8
RED
100
AcDbPolyline
 90
        2
 70
     0
 43
0.0
 10
120.7298246504927
 20
110.1856377249672
 10
120.8196064709287
 20
110.2918465125492
  0
LWPOLYLINE
  5
43A
330
1F
100
AcDbEntity
  8
RED
100
AcDbPolyline
 90
        2
 70
     0
 43
0.0
 10
120.8921163259087
 20
111.5854759252852
 10
121.0019181063047
 20
111.6952627057112
  0
LWPOLYLINE
  5
43B
330
1F
100
AcDbEntity
  8
RED
100
AcDbPolyline
 90
        2
 70
     0
 43
0.0
 10
120.4738431624567
 20
110.0769729422973
 10
120.7298696504027
 20
110.1856147250132
  0
LWPOLYLINE
  5
43C
330
1F
100
AcDbEntity
  8
RED
100
AcDbPolyline
 90
        2
 70
     0
 43
0.0
 10
121.0018271064867
 20
111.6953167056032
 10
121.1518358064687
 20
111.7355076252212
  0
LWPOLYLINE
  5
43D
330
1F
100
AcDbEntity
  8
RED
100
AcDbPolyline
 90
        2
 70
     0
 43
0.0
 10
121.7518106065167
 20
111.7355076252212
 10
122.2518396064567
 20
111.6015358931653
  0
LWPOLYLINE
  5
43E
330
1F
100
AcDbEntity
  8
RED
100
AcDbPolyline
 90
        2
 70
     0
 43
0.0
 10
119.9512312076827
 20
112.3426154110032
 10
120.2441376218687
 20
111.6355248251872
  0
LWPOLYLINE
  5
43F
330
1F
100
AcDbEntity
  8
RED
100
AcDbPolyline
 90
        2
 70
     0
 43
0.0
 10
119.6542498016467
 20
112.0456420049512
 10
119.8241254618947
 20
111.6355098252172
  0
LWPOLYLINE
  5
440
330
1F
100
AcDbEntity
  8
RED
100
AcDbPolyline
 90
        2
 70
     0
 43
0.0
 10
120.8518484064447
 20
110.4271072420272
 10
120.8518484064447
 20
111.4354982252412
  0
LWPOLYLINE
  5
441
330
1F
100
AcDbEntity
  8
RED
100
AcDbPolyline
 90
        2
 70
     0
 43
0.0
 10
121.1518508064387
 20
111.7354926252513
 10
121.7518406064567
 20
111.7354926252513
  0
LWPOLYLINE
  5
442
330
1F
100
AcDbEntity
  8
MAGNETA
100
AcDbPolyline
 90
        2
 70
     0
 43
0.0
 10
116.0941219219167
 20
114.9015092932053
 10
116.5941359218867
 20
115.0354810252612
  0
LWPOLYLINE
  5
443
330
1F
100
AcDbEntity
  8
MAGNETA
100
AcDbPolyline
 90
        2
 70
     0
 43
0.0
 10
115.7280946539727
 20
114.5354900252453
 10
116.0941219219167
 20
114.9015092932053
  0
LWPOLYLINE
  5
444
330
1F
100
AcDbEntity
  8
AXE
100
AcDbPolyline
 90
        2
 70
     0
 43
0.0
 10
136.5940959218867
 20
101.0355400251992
 10
136.5940959218867
 20
116.0354490253212
  0
LWPOLYLINE
  5
445
330
1F
100
AcDbEntity
  8
MAGNETA
100
AcDbPolyline
 90
        2
 70
     0
 43
0.0
 10
139.5639539821587
 20
105.5656519649573
 10
140.7941155218307
 20
108.5354940252612
  0
LWPOLYLINE
  5
446
330
1F
100
AcDbEntity
  8
MAGNETA
100
AcDbPolyline
 90
        2
 70
     0
 43
0.0
 10
132.3940463220027
 20
108.5355170252152
 10
133.6242688615527
 20
105.5656519649573
  0
LWPOLYLINE
  5
447
330
1F
100
AcDbEntity
  8
MAGNETA
100
AcDbPolyline
 90
        2
 70
     0
 43
0.0
 10
141.8939973220627
 20
102.8355314252092
 10
141.8939973220627
 20
114.0354830252612
  0
LINE
  5
448
330
1F
100
AcDbEntity
  8
MAGNETA
100
AcDbLine
 10
145.0787103524682
 20
98.09350122256727
 30
0.0
 11
151.1106444862661
 21
106.5935286523812
 31
0.0
  0
LWPOLYLINE
  5
449
330
1F
100
AcDbEntity
  8
MAGNETA
100
AcDbPolyline
 90
        2
 70
     0
 43
0.0
 10
142.8940103220327
 20
101.8355114252532
 10
147.7341793208896
 20
101.8355114252532
  0
LINE
  5
44A
330
1F
100
AcDbEntity
  8
MAGNETA
100
AcDbLine
 10
146.6253603025255
 20
92.52984676388377
 30
0.0
 11
145.0787103524682
 21
98.09350122256727
 31
0.0
  0
LINE
  5
44B
330
1F
100
AcDbEntity
  8
MAGNETA
100
AcDbLine
 10
141.3667497049879
 20
88.82074397605403
 30
0.0
 11
146.6253603025255
 21
92.52984676388377
 31
0.0
  0
LINE
  5
44C
330
1F
100
AcDbEntity
  8
LT
 62
     4
100
AcDbLine
 10
122.7301256498827
 20
73.80166468129445
 30
0.0
 11
122.7301256498827
 21
90.0355370252493
 31
0.0
  0
LWPOLYLINE
  5
44D
330
1F
100
AcDbEntity
  8
MAGNETA
100
AcDbPolyline
 90
        2
 70
     0
 43
0.0
 10
122.7301256498827
 20
85.03561802510727
 10
122.7301256498827
 20
90.03553102526124
  0
LINE
  5
44E
330
1F
100
AcDbEntity
  8
MAGNETA
100
AcDbLine
 10
141.3667497049879
 20
84.02981933406985
 30
0.0
 11
141.3667497049879
 21
88.82074397605403
 31
0.0
  0
LINE
  5
44F
330
1F
100
AcDbEntity
  8
MAGNETA
100
AcDbLine
 10
127.2922354472213
 20
76.92070579586566
 30
0.0
 11
136.1081400666294
 21
78.15707339180884
 31
0.0
  0
LWPOLYLINE
  5
450
330
1F
100
AcDbEntity
  8
BLUE
100
AcDbPolyline
 90
        2
 70
     0
 43
0.0
 10
130.7301396498227
 20
77.40284728191304
 10
130.7301396498227
 20
79.03555302526125
  0
LWPOLYLINE
  5
451
330
1F
100
AcDbEntity
  8
BLUE
100
AcDbPolyline
 90
        2
 70
     0
 43
0.0
 10
127.7301306498527
 20
76.98211746742124
 10
127.7301306498527
 20
79.03555302526125
  0
LWPOLYLINE
  5
452
330
1F
100
AcDbEntity
  8
BLUE
100
AcDbPolyline
 90
        2
 70
     0
 43
0.0
 10
127.7301306498527
 20
79.03555302526125
 10
130.7301396498227
 20
79.03555302526125
  0
LINE
  5
453
330
1F
100
AcDbEntity
  8
LT
 62
     4
100
AcDbLine
 10
126.7301176498827
 20
82.8355514252493
 30
0.0
 11
126.5551179998827
 21
83.41055027524928
 31
0.0
  0
LINE
  5
454
330
1F
100
AcDbEntity
  8
LT
 62
     4
100
AcDbLine
 10
124.9301212498827
 20
83.41055027524928
 30
0.0
 11
124.7301216498827
 21
82.8355514252493
 31
0.0
  0
LINE
  5
455
330
1F
100
AcDbEntity
  8
LT
 62
     4
100
AcDbLine
 10
125.4301202498827
 20
81.46055417524932
 30
0.0
 11
126.0551189998827
 21
81.46055417524932
 31
0.0
  0
LINE
  5
456
330
1F
100
AcDbEntity
  8
LT
 62
     5
100
AcDbLine
 10
123.6551237998827
 20
82.43555222524932
 30
0.0
 11
127.8051154998827
 21
82.43555222524932
 31
0.0
  0
LINE
  5
457
330
1F
100
AcDbEntity
  8
LT
 62
     5
100
AcDbLine
 10
123.6551237998827
 20
82.8355514252493
 30
0.0
 11
127.8051154998827
 21
82.8355514252493
 31
0.0
  0
LINE
  5
458
330
1F
100
AcDbEntity
  8
LT
 62
     4
100
AcDbLine
 10
124.9301212498827
 20
81.83555342524931
 30
0.0
 11
125.4301202498827
 21
81.46055417524932
 31
0.0
  0
LINE
  5
459
330
1F
100
AcDbEntity
  8
LT
 62
     4
100
AcDbLine
 10
124.7301216498827
 20
82.43555222524932
 30
0.0
 11
124.7301216498827
 21
82.8355514252493
 31
0.0
  0
LINE
  5
45A
330
1F
100
AcDbEntity
  8
LT
 62
     4
100
AcDbLine
 10
124.7301216498827
 20
82.43555222524932
 30
0.0
 11
124.9301212498827
 21
81.83555342524931
 31
0.0
  0
POINT
  5
45B
330
1F
100
AcDbEntity
  8
LT
 62
     5
100
AcDbPoint
 10
127.8051154998827
 20
82.8355514252493
 30
0.0
  0
POINT
  5
45C
330
1F
100
AcDbEntity
  8
LT
 62
     5
100
AcDbPoint
 10
127.8051154998827
 20
82.8355514252493
 30
0.0
  0
POINT
  5
45D
330
1F
100
AcDbEntity
  8
LT
 62
     5
100
AcDbPoint
 10
127.8051154998827
 20
82.8355514252493
 30
0.0
  0
POINT
  5
45E
330
1F
100
AcDbEntity
  8
LT
 62
     5
100
AcDbPoint
 10
127.8051154998827
 20
82.8355514252493
 30
0.0
  0
POINT
  5
45F
330
1F
100
AcDbEntity
  8
LT
 62
     5
100
AcDbPoint
 10
127.8051154998827
 20
82.8355514252493
 30
0.0
  0
POINT
  5
460
330
1F
100
AcDbEntity
  8
LT
 62
     5
100
AcDbPoint
 10
127.8051154998827
 20
82.8355514252493
 30
0.0
  0
POINT
  5
461
330
1F
100
AcDbEntity
  8
LT
 62
     5
100
AcDbPoint
 10
127.8051154998827
 20
82.8355514252493
 30
0.0
  0
POINT
  5
462
330
1F
100
AcDbEntity
  8
LT
 62
     5
100
AcDbPoint
 10
127.8051154998827
 20
82.8355514252493
 30
0.0
  0
POINT
  5
463
330
1F
100
AcDbEntity
  8
LT
 62
     5
100
AcDbPoint
 10
127.8051154998827
 20
82.8355514252493
 30
0.0
  0
POINT
  5
464
330
1F
100
AcDbEntity
  8
LT
 62
     5
100
AcDbPoint
 10
127.8051154998827
 20
82.8355514252493
 30
0.0
  0
POINT
  5
465
330
1F
100
AcDbEntity
  8
LT
 62
     5
100
AcDbPoint
 10
127.8051154998827
 20
82.8355514252493
 30
0.0
  0
POINT
  5
466
330
1F
100
AcDbEntity
  8
LT
 62
     5
100
AcDbPoint
 10
127.8051154998827
 20
82.8355514252493
 30
0.0
  0
POINT
  5
467
330
1F
100
AcDbEntity
  8
LT
 62
     5
100
AcDbPoint
 10
127.8051154998827
 20
82.8355514252493
 30
0.0
  0
POINT
  5
468
330
1F
100
AcDbEntity
  8
LT
 62
     5
100
AcDbPoint
 10
127.8051154998827
 20
82.8355514252493
 30
0.0
  0
POINT
  5
469
330
1F
100
AcDbEntity
  8
LT
 62
     5
100
AcDbPoint
 10
127.8051154998827
 20
82.8355514252493
 30
0.0
  0
POINT
  5
46A
330
1F
100
AcDbEntity
  8
LT
 62
     5
100
AcDbPoint
 10
127.8051154998827
 20
82.8355514252493
 30
0.0
  0
POINT
  5
46B
330
1F
100
AcDbEntity
  8
LT
 62
     5
100
AcDbPoint
 10
127.8051154998827
 20
82.8355514252493
 30
0.0
  0
POINT
  5
46C
330
1F
100
AcDbEntity
  8
LT
 62
     5
100
AcDbPoint
 10
127.8051154998827
 20
82.8355514252493
 30
0.0
  0
POINT
  5
46D
330
1F
100
AcDbEntity
  8
LT
 62
     5
100
AcDbPoint
 10
127.8051154998827
 20
82.8355514252493
 30
0.0
  0
POINT
  5
46E
330
1F
100
AcDbEntity
  8
LT
 62
     5
100
AcDbPoint
 10
127.8051154998827
 20
82.8355514252493
 30
0.0
  0
POINT
  5
46F
330
1F
100
AcDbEntity
  8
LT
 62
     5
100
AcDbPoint
 10
127.8051154998827
 20
82.8355514252493
 30
0.0
  0
POINT
  5
470
330
1F
100
AcDbEntity
  8
LT
 62
     5
100
AcDbPoint
 10
127.8051154998827
 20
82.8355514252493
 30
0.0
  0
POINT
  5
471
330
1F
100
AcDbEntity
  8
LT
 62
     5
100
AcDbPoint
 10
127.8051154998827
 20
82.8355514252493
 30
0.0
  0
POINT
  5
472
330
1F
100
AcDbEntity
  8
LT
 62
     5
100
AcDbPoint
 10
127.8051154998827
 20
82.8355514252493
 30
0.0
  0
POINT
  5
473
330
1F
100
AcDbEntity
  8
LT
 62
     5
100
AcDbPoint
 10
127.8051154998827
 20
82.8355514252493
 30
0.0
  0
POINT
  5
474
330
1F
100
AcDbEntity
  8
LT
 62
     5
100
AcDbPoint
 10
127.8051154998827
 20
82.8355514252493
 30
0.0
  0
POINT
  5
475
330
1F
100
AcDbEntity
  8
LT
 62
     5
100
AcDbPoint
 10
127.8051154998827
 20
82.8355514252493
 30
0.0
  0
POINT
  5
476
330
1F
100
AcDbEntity
  8
LT
 62
     5
100
AcDbPoint
 10
127.8051154998827
 20
82.8355514252493
 30
0.0
  0
POINT
  5
477
330
1F
100
AcDbEntity
  8
LT
 62
     5
100
AcDbPoint
 10
127.8051154998827
 20
82.8355514252493
 30
0.0
  0
POINT
  5
478
330
1F
100
AcDbEntity
  8
LT
 62
     5
100
AcDbPoint
 10
127.8051154998827
 20
82.8355514252493
 30
0.0
  0
POINT
  5
479
330
1F
100
AcDbEntity
  8
LT
 62
     5
100
AcDbPoint
 10
127.8051154998827
 20
82.8355514252493
 30
0.0
  0
POINT
  5
47A
330
1F
100
AcDbEntity
  8
LT
 62
     5
100
AcDbPoint
 10
127.8051154998827
 20
82.8355514252493
 30
0.0
  0
POINT
  5
47B
330
1F
100
AcDbEntity
  8
LT
 62
     5
100
AcDbPoint
 10
127.8051154998827
 20
82.8355514252493
 30
0.0
  0
POINT
  5
47C
330
1F
100
AcDbEntity
  8
LT
 62
     5
100
AcDbPoint
 10
127.8051154998827
 20
82.8355514252493
 30
0.0
  0
POINT
  5
47D
330
1F
100
AcDbEntity
  8
LT
 62
     5
100
AcDbPoint
 10
127.8051154998827
 20
82.8355514252493
 30
0.0
  0
POINT
  5
47E
330
1F
100
AcDbEntity
  8
LT
 62
     5
100
AcDbPoint
 10
127.8051154998827
 20
82.8355514252493
 30
0.0
  0
POINT
  5
47F
330
1F
100
AcDbEntity
  8
LT
 62
     2
100
AcDbPoint
 10
127.8051154998827
 20
82.8355514252493
 30
0.0
  0
POINT
  5
480
330
1F
100
AcDbEntity
  8
LT
 62
     2
100
AcDbPoint
 10
127.8051154998827
 20
82.8355514252493
 30
0.0
  0
LINE
  5
481
330
1F
100
AcDbEntity
  8
LT
 62
     4
100
AcDbLine
 10
126.0551189998827
 20
81.46055417524932
 30
0.0
 11
126.5551179998827
 21
81.83555342524931
 31
0.0
  0
LINE
  5
482
330
1F
100
AcDbEntity
  8
LT
 62
     4
100
AcDbLine
 10
126.5551179998827
 20
81.83555342524931
 30
0.0
 11
126.7301176498827
 21
82.43555222524932
 31
0.0
  0
LINE
  5
483
330
1F
100
AcDbEntity
  8
LT
 62
     4
100
AcDbLine
 10
126.7301176498827
 20
82.43555222524932
 30
0.0
 11
126.7301176498827
 21
82.8355514252493
 31
0.0
  0
LINE
  5
484
330
1F
100
AcDbEntity
  8
LT
 62
     5
100
AcDbLine
 10
125.7301196498827
 20
82.28555252524929
 30
0.0
 11
125.7301196498827
 21
82.96055117524931
 31
0.0
  0
LINE
  5
485
330
1F
100
AcDbEntity
  8
LT
 62
     5
100
AcDbLine
 10
125.7301196498827
 20
79.63555782524931
 30
0.0
 11
125.7301196498827
 21
81.63555382524931
 31
0.0
  0
LINE
  5
486
330
1F
100
AcDbEntity
  8
LT
 62
     4
100
AcDbLine
 10
126.0551189998827
 20
83.78554952524929
 30
0.0
 11
125.4301202498827
 21
83.78554952524929
 31
0.0
  0
LINE
  5
487
330
1F
100
AcDbEntity
  8
LT
 62
     4
100
AcDbLine
 10
125.4301202498827
 20
83.78554952524929
 30
0.0
 11
124.9301212498827
 21
83.41055027524928
 31
0.0
  0
LINE
  5
488
330
1F
100
AcDbEntity
  8
LT
 62
     4
100
AcDbLine
 10
126.5551179998827
 20
83.41055027524928
 30
0.0
 11
126.0551189998827
 21
83.78554952524929
 31
0.0
  0
LINE
  5
489
330
1F
100
AcDbEntity
  8
LT
 62
     5
100
AcDbLine
 10
125.7301196498827
 20
83.63554982524933
 30
0.0
 11
125.7301196498827
 21
85.63554582524933
 31
0.0
  0
POINT
  5
48A
330
1F
100
AcDbEntity
  8
LT
 62
     5
100
AcDbPoint
 10
125.7301196498827
 20
85.63554582524933
 30
0.0
  0
POINT
  5
48B
330
1F
100
AcDbEntity
  8
LT
 62
     5
100
AcDbPoint
 10
125.7301196498827
 20
85.63554582524933
 30
0.0
  0
POINT
  5
48C
330
1F
100
AcDbEntity
  8
LT
 62
     5
100
AcDbPoint
 10
125.7301196498827
 20
85.63554582524933
 30
0.0
  0
POINT
  5
48D
330
1F
100
AcDbEntity
  8
LT
 62
     5
100
AcDbPoint
 10
125.7301196498827
 20
85.63554582524933
 30
0.0
  0
POINT
  5
48E
330
1F
100
AcDbEntity
  8
LT
 62
     5
100
AcDbPoint
 10
125.7301196498827
 20
85.63554582524933
 30
0.0
  0
POINT
  5
48F
330
1F
100
AcDbEntity
  8
LT
 62
     5
100
AcDbPoint
 10
125.7301196498827
 20
85.63554582524933
 30
0.0
  0
POINT
  5
490
330
1F
100
AcDbEntity
  8
LT
 62
     5
100
AcDbPoint
 10
125.7301196498827
 20
85.63554582524933
 30
0.0
  0
POINT
  5
491
330
1F
100
AcDbEntity
  8
LT
 62
     5
100
AcDbPoint
 10
125.7301196498827
 20
85.63554582524933
 30
0.0
  0
POINT
  5
492
330
1F
100
AcDbEntity
  8
LT
 62
     5
100
AcDbPoint
 10
125.7301196498827
 20
85.63554582524933
 30
0.0
  0
POINT
  5
493
330
1F
100
AcDbEntity
  8
LT
 62
     5
100
AcDbPoint
 10
125.7301196498827
 20
85.63554582524933
 30
0.0
  0
POINT
  5
494
330
1F
100
AcDbEntity
  8
LT
 62
     5
100
AcDbPoint
 10
125.7301196498827
 20
85.63554582524933
 30
0.0
  0
POINT
  5
495
330
1F
100
AcDbEntity
  8
LT
 62
     5
100
AcDbPoint
 10
125.7301196498827
 20
85.63554582524933
 30
0.0
  0
POINT
  5
496
330
1F
100
AcDbEntity
  8
LT
 62
     5
100
AcDbPoint
 10
125.7301196498827
 20
85.63554582524933
 30
0.0
  0
POINT
  5
497
330
1F
100
AcDbEntity
  8
LT
 62
     5
100
AcDbPoint
 10
125.7301196498827
 20
85.63554582524933
 30
0.0
  0
POINT
  5
498
330
1F
100
AcDbEntity
  8
LT
 62
     5
100
AcDbPoint
 10
125.7301196498827
 20
85.63554582524933
 30
0.0
  0
POINT
  5
499
330
1F
100
AcDbEntity
  8
LT
 62
     5
100
AcDbPoint
 10
125.7301196498827
 20
85.63554582524933
 30
0.0
  0
POINT
  5
49A
330
1F
100
AcDbEntity
  8
LT
 62
     5
100
AcDbPoint
 10
125.7301196498827
 20
85.63554582524933
 30
0.0
  0
POINT
  5
49B
330
1F
100
AcDbEntity
  8
LT
 62
     5
100
AcDbPoint
 10
125.7301196498827
 20
85.63554582524933
 30
0.0
  0
POINT
  5
49C
330
1F
100
AcDbEntity
  8
LT
 62
     5
100
AcDbPoint
 10
125.7301196498827
 20
85.63554582524933
 30
0.0
  0
POINT
  5
49D
330
1F
100
AcDbEntity
  8
LT
 62
     5
100
AcDbPoint
 10
125.7301196498827
 20
85.63554582524933
 30
0.0
  0
POINT
  5
49E
330
1F
100
AcDbEntity
  8
LT
 62
     5
100
AcDbPoint
 10
125.7301196498827
 20
85.63554582524933
 30
0.0
  0
POINT
  5
49F
330
1F
100
AcDbEntity
  8
LT
 62
     5
100
AcDbPoint
 10
125.7301196498827
 20
85.63554582524933
 30
0.0
  0
POINT
  5
4A0
330
1F
100
AcDbEntity
  8
LT
 62
     5
100
AcDbPoint
 10
125.7301196498827
 20
85.63554582524933
 30
0.0
  0
POINT
  5
4A1
330
1F
100
AcDbEntity
  8
LT
 62
     5
100
AcDbPoint
 10
125.7301196498827
 20
85.63554582524933
 30
0.0
  0
POINT
  5
4A2
330
1F
100
AcDbEntity
  8
LT
 62
     5
100
AcDbPoint
 10
125.7301196498827
 20
85.63554582524933
 30
0.0
  0
POINT
  5
4A3
330
1F
100
AcDbEntity
  8
LT
 62
     5
100
AcDbPoint
 10
125.7301196498827
 20
85.63554582524933
 30
0.0
  0
POINT
  5
4A4
330
1F
100
AcDbEntity
  8
LT
 62
     5
100
AcDbPoint
 10
125.7301196498827
 20
85.63554582524933
 30
0.0
  0
POINT
  5
4A5
330
1F
100
AcDbEntity
  8
LT
 62
     5
100
AcDbPoint
 10
125.7301196498827
 20
85.63554582524933
 30
0.0
  0
POINT
  5
4A6
330
1F
100
AcDbEntity
  8
LT
 62
     5
100
AcDbPoint
 10
125.7301196498827
 20
85.63554582524933
 30
0.0
  0
POINT
  5
4A7
330
1F
100
AcDbEntity
  8
LT
 62
     5
100
AcDbPoint
 10
125.7301196498827
 20
85.63554582524933
 30
0.0
  0
POINT
  5
4A8
330
1F
100
AcDbEntity
  8
LT
 62
     5
100
AcDbPoint
 10
125.7301196498827
 20
85.63554582524933
 30
0.0
  0
POINT
  5
4A9
330
1F
100
AcDbEntity
  8
LT
 62
     5
100
AcDbPoint
 10
125.7301196498827
 20
85.63554582524933
 30
0.0
  0
POINT
  5
4AA
330
1F
100
AcDbEntity
  8
LT
 62
     5
100
AcDbPoint
 10
125.7301196498827
 20
85.63554582524933
 30
0.0
  0
POINT
  5
4AB
330
1F
100
AcDbEntity
  8
LT
 62
     5
100
AcDbPoint
 10
125.7301196498827
 20
85.63554582524933
 30
0.0
  0
POINT
  5
4AC
330
1F
100
AcDbEntity
  8
LT
 62
     5
100
AcDbPoint
 10
125.7301196498827
 20
85.63554582524933
 30
0.0
  0
POINT
  5
4AD
330
1F
100
AcDbEntity
  8
LT
 62
     5
100
AcDbPoint
 10
125.7301196498827
 20
85.63554582524933
 30
0.0
  0
POINT
  5
4AE
330
1F
100
AcDbEntity
  8
LT
 62
     2
100
AcDbPoint
 10
125.7301196498827
 20
85.63554582524933
 30
0.0
  0
POINT
  5
4AF
330
1F
100
AcDbEntity
  8
LT
 62
     2
100
AcDbPoint
 10
125.7301196498827
 20
85.63554582524933
 30
0.0
  0
LINE
  5
4B0
330
1F
100
AcDbEntity
  8
MAGNETA
100
AcDbLine
 10
136.1081400666294
 20
78.15707339180884
 30
0.0
 11
141.3667497049879
 21
84.02981933406985
 31
0.0
  0
LINE
  5
4B1
330
1F
100
AcDbEntity
  8
LT
 62
     4
100
AcDbLine
 10
123.7301236498827
 20
91.03553502524929
 30
0.0
 11
144.5067877003879
 21
91.03553502524929
 31
0.0
  0
LWPOLYLINE
  5
4B2
330
1F
100
AcDbEntity
  8
MAGNETA
100
AcDbPolyline
 90
        2
 70
     0
 43
0.0
 10
133.6242538615827
 20
105.5656519649573
 10
136.5940659219467
 20
104.3355064252532
  0
LINE
  5
4B3
330
1F
100
AcDbEntity
  8
LT
 62
     4
100
AcDbLine
 10
123.7301236498827
 20
91.03553502524929
 30
0.0
 11
123.2301246498827
 21
90.88553532524931
 31
0.0
  0
LINE
  5
4B4
330
1F
100
AcDbEntity
  8
LT
 62
     4
100
AcDbLine
 10
123.2301246498827
 20
90.88553532524931
 30
0.0
 11
122.8801253498827
 21
90.5355360252493
 31
0.0
  0
LINE
  5
4B5
330
1F
100
AcDbEntity
  8
LT
 62
     4
100
AcDbLine
 10
122.8801253498827
 20
90.5355360252493
 30
0.0
 11
122.7301256498827
 21
90.0355370252493
 31
0.0
  0
LWPOLYLINE
  5
4B6
330
1F
100
AcDbEntity
  8
MAGNETA
100
AcDbPolyline
 90
        2
 70
     0
 43
0.0
 10
122.7301256498827
 20
90.03553102526124
 10
122.8640973819387
 20
90.53553002526125
  0
LWPOLYLINE
  5
4B7
330
1F
100
AcDbEntity
  8
MAGNETA
100
AcDbPolyline
 90
        2
 70
     0
 43
0.0
 10
122.8641283818767
 20
90.53552302527528
 10
123.2302156497007
 20
90.90151929328127
  0
LWPOLYLINE
  5
4B8
330
1F
100
AcDbEntity
  8
MAGNETA
100
AcDbPolyline
 90
        2
 70
     0
 43
0.0
 10
123.2300786499747
 20
90.9015732931733
 10
123.7300626500047
 20
91.0355370252453
  0
LWPOLYLINE
  5
4B9
330
1F
100
AcDbEntity
  8
MAGNETA
100
AcDbPolyline
 90
        2
 70
     0
 43
0.0
 10
136.5940959218867
 20
104.3355214252232
 10
139.5639389821887
 20
105.5656519649573
  0
LWPOLYLINE
  5
4BA
330
1F
100
AcDbEntity
  8
MAGNETA
100
AcDbPolyline
 90
        2
 70
     0
 43
0.0
 10
142.3940113220327
 20
101.9694831573092
 10
142.8940413219707
 20
101.8355114252532
  0
LWPOLYLINE
  5
4BB
330
1F
100
AcDbEntity
  8
MAGNETA
100
AcDbPolyline
 90
        2
 70
     0
 43
0.0
 10
142.0279690541187
 20
102.3355104252532
 10
142.3940113220327
 20
101.9694671573412
  0
LWPOLYLINE
  5
4BC
330
1F
100
AcDbEntity
  8
MAGNETA
100
AcDbPolyline
 90
        2
 70
     0
 43
0.0
 10
141.8939973220627
 20
102.8355314252092
 10
142.0279690541187
 20
102.3355104252532
  0
LWPOLYLINE
  5
4BD
330
1F
100
AcDbEntity
  8
MAGNETA
100
AcDbPolyline
 90
        2
 70
     0
 43
0.0
 10
133.6242538615827
 20
111.5053300855773
 10
136.5940959218867
 20
112.7354756252812
  0
LWPOLYLINE
  5
4BE
330
1F
100
AcDbEntity
  8
RED
100
AcDbPolyline
 90
        2
 70
     0
 43
0.0
 10
123.7518366064567
 20
107.8855023252472
 10
123.7518366064567
 20
112.1354938252472
  0
LWPOLYLINE
  5
4BF
330
1F
100
AcDbEntity
  8
RED
100
AcDbPolyline
 90
        2
 70
     0
 43
0.0
 10
122.7518386064567
 20
107.8855023252472
 10
122.7518386064567
 20
110.7354946252512
  0
LWPOLYLINE
  5
4C0
330
1F
100
AcDbEntity
  8
RED
100
AcDbPolyline
 90
        2
 70
     0
 43
0.0
 10
123.7183586734127
 20
107.7605025752472
 10
123.7518516064267
 20
107.8855023252472
  0
LWPOLYLINE
  5
4C1
330
1F
100
AcDbEntity
  8
MAGNETA
100
AcDbPolyline
 90
        2
 70
     0
 43
0.0
 10
122.8315194470947
 20
107.2980775000992
 10
122.9743421614487
 20
107.6428798104932
  0
LWPOLYLINE
  5
4C2
330
1F
100
AcDbEntity
  8
RED
100
AcDbPolyline
 90
        2
 70
     0
 43
0.0
 10
123.6269128563047
 20
107.6689727583072
 10
123.7184196732907
 20
107.7604865752792
  0
LWPOLYLINE
  5
4C3
330
1F
100
AcDbEntity
  8
RED
100
AcDbPolyline
 90
        2
 70
     0
 43
0.0
 10
123.5018221064867
 20
107.6355028252472
 10
123.6268068565167
 20
107.6689957582612
  0
LWPOLYLINE
  5
4C4
330
1F
100
AcDbEntity
  8
RED
100
AcDbPolyline
 90
        2
 70
     0
 43
0.0
 10
122.8768233564867
 20
107.6690107582312
 10
123.0018531064267
 20
107.6355178252172
  0
LWPOLYLINE
  5
4C5
330
1F
100
AcDbEntity
  8
RED
100
AcDbPolyline
 90
        2
 70
     0
 43
0.0
 10
122.7853625394087
 20
107.7604865752792
 10
122.8768383564567
 20
107.6689957582612
  0
LWPOLYLINE
  5
4C6
330
1F
100
AcDbEntity
  8
RED
100
AcDbPolyline
 90
        2
 70
     0
 43
0.0
 10
122.7518236064867
 20
107.8855093252332
 10
122.7853315394707
 20
107.7605095752332
  0
LWPOLYLINE
  5
4C7
330
1F
100
AcDbEntity
  8
RED
100
AcDbPolyline
 90
        2
 70
     0
 43
0.0
 10
123.0018381064567
 20
107.6355028252472
 10
123.5018371064567
 20
107.6355028252472
  0
LWPOLYLINE
  5
4C8
330
1F
100
AcDbEntity
  8
RED
100
AcDbPolyline
 90
        2
 70
     0
 43
0.0
 10
122.7518536064267
 20
113.1354988252333
 10
123.2518226064867
 20
113.0015350931612
  0
LWPOLYLINE
  5
4C9
330
1F
100
AcDbEntity
  8
RED
100
AcDbPolyline
 90
        2
 70
     0
 43
0.0
 10
123.2518226064867
 20
113.0015270931772
 10
123.6178498744307
 20
112.6354928252472
  0
LWPOLYLINE
  5
4CA
330
1F
100
AcDbEntity
  8
RED
100
AcDbPolyline
 90
        2
 70
     0
 43
0.0
 10
122.6178518744307
 20
111.2355166252052
 10
122.7518236064867
 20
110.7355096252212
  0
LWPOLYLINE
  5
4CB
330
1F
100
AcDbEntity
  8
RED
100
AcDbPolyline
 90
        2
 70
     0
 43
0.0
 10
123.6178188744927
 20
112.6354848252632
 10
123.7518366064567
 20
112.1355158252032
  0
LWPOLYLINE
  5
4CC
330
1F
100
AcDbEntity
  8
MAGNETA
100
AcDbPolyline
 90
        2
 70
     0
 43
0.0
 10
132.3941233218487
 20
108.5354940252612
 10
133.6242378616147
 20
111.5053520855332
  0
LWPOLYLINE
  5
4CD
330
1F
100
AcDbEntity
  8
MAGNETA
100
AcDbPolyline
 90
        2
 70
     0
 43
0.0
 10
141.8940273220027
 20
114.0354830252612
 10
142.0279690541187
 20
114.5354900252453
  0
LWPOLYLINE
  5
4CE
330
1F
100
AcDbEntity
  8
MAGNETA
100
AcDbPolyline
 90
        2
 70
     0
 43
0.0
 10
139.5639389821887
 20
111.5053370855632
 10
140.7940695219227
 20
108.5355170252152
  0
LWPOLYLINE
  5
4CF
330
1F
100
AcDbEntity
  8
RED
100
AcDbPolyline
 90
        2
 70
     0
 43
0.0
 10
137.3011715077327
 20
107.8284114394292
 10
137.5941249218247
 20
108.5354940252612
  0
LWPOLYLINE
  5
4D0
330
1F
100
AcDbEntity
  8
RED
100
AcDbPolyline
 90
        2
 70
     0
 43
0.0
 10
137.3012485075787
 20
109.2425926110612
 10
137.5940789219167
 20
108.5354790252913
  0
LWPOLYLINE
  5
4D1
330
1F
100
AcDbEntity
  8
RED
100
AcDbPolyline
 90
        2
 70
     0
 43
0.0
 10
135.5940829219167
 20
108.5355170252152
 10
135.8869903361007
 20
109.2426156110152
  0
LWPOLYLINE
  5
4D2
330
1F
100
AcDbEntity
  8
RED
100
AcDbPolyline
 90
        2
 70
     0
 43
0.0
 10
135.8869903361007
 20
109.2425926110612
 10
136.5940959218867
 20
109.5355000252452
  0
LWPOLYLINE
  5
4D3
330
1F
100
AcDbEntity
  8
RED
100
AcDbPolyline
 90
        2
 70
     0
 43
0.0
 10
136.5941419217947
 20
107.5355040252452
 10
137.3011875077007
 20
107.8283734395052
  0
LWPOLYLINE
  5
4D4
330
1F
100
AcDbEntity
  8
RED
100
AcDbPolyline
 90
        2
 70
     0
 43
0.0
 10
136.5941269218247
 20
109.5355080252292
 10
137.3011875077007
 20
109.2426156110152
  0
LWPOLYLINE
  5
4D5
330
1F
100
AcDbEntity
  8
RED
100
AcDbPolyline
 90
        2
 70
     0
 43
0.0
 10
135.8870353360107
 20
107.8283884394753
 10
136.5940809219168
 20
107.5354960252612
  0
LWPOLYLINE
  5
4D6
330
1F
100
AcDbEntity
  8
RED
100
AcDbPolyline
 90
        2
 70
     0
 43
0.0
 10
135.5941129218567
 20
108.5354870252752
 10
135.8870053360707
 20
107.8283884394753
  0
LWPOLYLINE
  5
4D7
330
1F
100
AcDbEntity
  8
MAGNETA
100
AcDbPolyline
 90
        2
 70
     0
 43
0.0
 10
136.5940499219787
 20
112.7354986252352
 10
139.5639079822507
 20
111.5053520855332
  0
LWPOLYLINE
  5
4D8
330
1F
100
AcDbEntity
  8
MAGNETA
100
AcDbPolyline
 90
        2
 70
     0
 43
0.0
 10
142.0279690541187
 20
114.5354980252292
 10
142.3940263220027
 20
114.9014862932512
  0
LWPOLYLINE
  5
4D9
330
1F
100
AcDbEntity
  8
MAGNETA
100
AcDbPolyline
 90
        2
 70
     0
 43
0.0
 10
142.3940113220327
 20
114.9015092932053
 10
142.8939793220947
 20
115.0354810252612
  0
LINE
  5
4DA
330
1F
100
AcDbEntity
  8
MAGNETA
100
AcDbLine
 10
149.4093298289569
 20
111.0753612569101
 30
0.0
 11
152.6351784380546
 21
115.0354965401361
 31
0.0
  0
LINE
  5
4DB
330
1F
100
AcDbEntity
  8
MAGNETA
100
AcDbLine
 10
151.1106444862661
 20
106.5935286523812
 30
0.0
 11
149.4093298289569
 21
111.0753612569101
 31
0.0
  0
INSERT
  5
547
330
1F
100
AcDbEntity
  8
0
100
AcDbBlockReference
 66
     1
  2
a-border
 10
0.0
 20
0.0
 30
0.0
 41
25.4
 42
25.4
 43
25.4
  0
ATTRIB
  5
548
330
547
100
AcDbEntity
  8
TEXT
100
AcDbText
 10
225.9671479360584
 20
5.87502
 30
0.0
 40
1.523999999999999
  1
hv-tail-glue-02
100
AcDbAttribute
  2
FILE
 70
     0
  0
ATTRIB
  5
549
330
547
100
AcDbEntity
  8
TEXT
100
AcDbText
 10
200.0707199999999
 20
10.35049999999999
 30
0.0
 40
0.762
  1
01-27-04
100
AcDbAttribute
  2
DATE
 70
     0
  0
ATTRIB
  5
54A
330
547
100
AcDbEntity
  8
TEXT
100
AcDbText
 10
187.5028
 20
10.63752
 30
0.0
 40
1.523999999999999
  1
S. KYRE
100
AcDbAttribute
  2
NAME
 70
     0
  0
ATTRIB
  5
54B
330
547
100
AcDbEntity
  8
TEXT
100
AcDbText
 10
212.0595199999999
 20
2.263139999999999
 30
0.0
 40
1.523999999999999
  1
1=1
100
AcDbAttribute
  2
SCALE
 70
     0
  0
ATTRIB
  5
54C
330
547
100
AcDbEntity
  8
TEXT
100
AcDbText
 10
212.34908
 20
5.730239999999999
 30
0.0
 40
1.523999999999999
  1
rod
100
AcDbAttribute
  2
DIRECTORY
 70
     0
  0
SEQEND
  5
54D
330
547
100
AcDbEntity
  8
0
  0
MTEXT
  5
581
330
1F
100
AcDbEntity
  8
TEXT
100
AcDbMText
 10
233.2350230074542
 20
13.86206201550395
 30
0.0
 40
1.5
 41
54.25180000000001
 71
     5
 72
     5
  1
glue for high voltage tail
 73
     1
 44
1.0
  0
ENDSEC
  0
SECTION
  2
OBJECTS
  0
DICTIONARY
  5
C
330
0
100
AcDbDictionary
281
     1
  3
ACAD_GROUP
350
D
  3
ACAD_LAYOUT
350
1A
  3
ACAD_MLINESTYLE
350
17
  3
ACAD_PLOTSETTINGS
350
19
  3
ACAD_PLOTSTYLENAME
350
E
  3
AcadDim
350
EE
  0
DICTIONARY
  5
D
102
{ACAD_REACTORS
330
C
102
}
330
C
100
AcDbDictionary
281
     1
  0
DICTIONARY
  5
1A
102
{ACAD_REACTORS
330
C
102
}
330
C
100
AcDbDictionary
281
     1
  3
Layout1
350
1E
  3
Layout2
350
26
  3
Model
350
22
  0
DICTIONARY
  5
17
102
{ACAD_REACTORS
330
C
102
}
330
C
100
AcDbDictionary
281
     1
  3
Standard
350
18
  0
DICTIONARY
  5
19
102
{ACAD_REACTORS
330
C
102
}
330
C
100
AcDbDictionary
281
     1
  0
ACDBDICTIONARYWDFLT
  5
E
102
{ACAD_REACTORS
330
C
102
}
330
C
100
AcDbDictionary
281
     1
  3
Normal
350
F
100
AcDbDictionaryWithDefault
340
F
  0
XRECORD
  5
EE
102
{ACAD_REACTORS
330
C
102
}
330
C
100
AcDbXrecord
280
     1
 90
   990106
  3

 60
     0
 61
     0
 62
     2
 63
     2
 64
     0
 65
     0
 66
     0
 67
     3
 68
     1
 69
     0
 70
     0
 71
     0
 72
     0
 40
0.0
170
     2
340
0
  0
LAYOUT
  5
1E
102
{ACAD_REACTORS
330
1A
102
}
330
1A
100
AcDbPlotSettings
  1

  2

  4

  6

 40
0.0
 41
0.0
 42
0.0
 43
0.0
 44
0.0
 45
0.0
 46
0.0
 47
0.0
 48
0.0
 49
0.0
140
0.0
141
0.0
142
1.0
143
1.0
 70
   688
 72
     0
 73
     0
 74
     5
  7
style-1.ctb
 75
    16
147
1.0
148
0.0
149
0.0
100
AcDbLayout
  1
Layout1
 70
     1
 71
     1
 10
0.0
 20
0.0
 11
12.0
 21
9.0
 12
0.0
 22
0.0
 32
0.0
 14
1.000000000000000E+20
 24
1.000000000000000E+20
 34
1.000000000000000E+20
 15
-1.000000000000000E+20
 25
-1.000000000000000E+20
 35
-1.000000000000000E+20
146
0.0
 13
0.0
 23
0.0
 33
0.0
 16
1.0
 26
0.0
 36
0.0
 17
0.0
 27
1.0
 37
0.0
 76
     0
330
1B
  0
LAYOUT
  5
26
102
{ACAD_REACTORS
330
1A
102
}
330
1A
100
AcDbPlotSettings
  1

  2

  4

  6

 40
0.0
 41
0.0
 42
0.0
 43
0.0
 44
0.0
 45
0.0
 46
0.0
 47
0.0
 48
0.0
 49
0.0
140
0.0
141
0.0
142
1.0
143
1.0
 70
   688
 72
     0
 73
     0
 74
     5
  7
style-1.ctb
 75
    16
147
1.0
148
0.0
149
0.0
100
AcDbLayout
  1
Layout2
 70
     1
 71
     2
 10
0.0
 20
0.0
 11
12.0
 21
9.0
 12
0.0
 22
0.0
 32
0.0
 14
0.0
 24
0.0
 34
0.0
 15
0.0
 25
0.0
 35
0.0
146
0.0
 13
0.0
 23
0.0
 33
0.0
 16
1.0
 26
0.0
 36
0.0
 17
0.0
 27
1.0
 37
0.0
 76
     0
330
23
  0
LAYOUT
  5
22
102
{ACAD_REACTORS
330
1A
102
}
330
1A
100
AcDbPlotSettings
  1

  2
Acrobat Distiller
  4
Letter
  6

 40
3.174999952316284
 41
3.174999952316284
 42
3.175003051757812
 43
3.17498779296875
 44
215.8999938964843
 45
279.3999938964843
 46
12.82
 47
9.509999999999999
 48
0.0
 49
0.0
140
0.0
141
0.0
142
1.0
143
1.0
 70
 11956
 72
     1
 73
     1
 74
     1
  7
style-1.ctb
 75
    16
147
1.0
148
-6.348601884594245
149
-1.579304702438207
100
AcDbLayout
  1
Model
 70
     1
 71
     0
 10
0.0
 20
0.0
 11
12.0
 21
9.0
 12
0.0
 22
0.0
 32
0.0
 14
0.0
 24
0.0
 34
0.0
 15
0.0
 25
0.0
 35
0.0
146
0.0
 13
0.0
 23
0.0
 33
0.0
 16
1.0
 26
0.0
 36
0.0
 17
0.0
 27
1.0
 37
0.0
 76
     0
330
1F
  0
MLINESTYLE
  5
18
102
{ACAD_REACTORS
330
17
102
}
330
17
100
AcDbMlineStyle
  2
STANDARD
 70
     0
  3

 62
   256
 51
90.0
 52
90.0
 71
     2
 49
0.5
 62
   256
  6
BYLAYER
 49
-0.5
 62
   256
  6
BYLAYER
  0
ACDBPLACEHOLDER
  5
F
102
{ACAD_REACTORS
330
E
102
}
330
E
  0
ENDSEC
  0
EOF
