  0
SECTION
  2
HEADER
  9
$ACADVER
  1
AC1018
  9
$ACADMAINTVER
 70
     0
  9
$DWGCODEPAGE
  3
ANSI_1252
  9
$INSBASE
 10
0.0
 20
0.0
 30
0.0
  9
$EXTMIN
 10
0.25
 20
0.0625
 30
0.0
  9
$EXTMAX
 10
10.25043121410005
 20
7.3025
 30
0.0
  9
$LIMMIN
 10
0.0
 20
0.0
  9
$LIMMAX
 10
12.0
 20
9.0
  9
$ORTHOMODE
 70
     1
  9
$REGENMODE
 70
     1
  9
$FILLMODE
 70
     1
  9
$QTEXTMODE
 70
     0
  9
$MIRRTEXT
 70
     1
  9
$LTSCALE
 40
1.0
  9
$ATTMODE
 70
     1
  9
$TEXTSIZE
 40
0.2
  9
$TRACEWID
 40
0.05
  9
$TEXTSTYLE
  7
Standard
  9
$CLAYER
  8
DIM
  9
$CELTYPE
  6
ByLayer
  9
$CECOLOR
 62
   256
  9
$CELTSCALE
 40
1.0
  9
$DISPSILH
 70
     0
  9
$DIMSCALE
 40
0.5
  9
$DIMASZ
 40
0.18
  9
$DIMEXO
 40
0.0625
  9
$DIMDLI
 40
0.38
  9
$DIMRND
 40
0.0
  9
$DIMDLE
 40
0.0
  9
$DIMEXE
 40
0.18
  9
$DIMTP
 40
0.001
  9
$DIMTM
 40
0.001
  9
$DIMTXT
 40
0.18
  9
$DIMCEN
 40
0.09
  9
$DIMTSZ
 40
0.0
  9
$DIMTOL
 70
     0
  9
$DIMLIM
 70
     0
  9
$DIMTIH
 70
     1
  9
$DIMTOH
 70
     1
  9
$DIMSE1
 70
     0
  9
$DIMSE2
 70
     0
  9
$DIMTAD
 70
     0
  9
$DIMZIN
 70
     0
  9
$DIMBLK
  1

  9
$DIMASO
 70
     1
  9
$DIMSHO
 70
     1
  9
$DIMPOST
  1

  9
$DIMAPOST
  1
mm
  9
$DIMALT
 70
     0
  9
$DIMALTD
 70
     2
  9
$DIMALTF
 40
25.4
  9
$DIMLFAC
 40
1.0
  9
$DIMTOFL
 70
     0
  9
$DIMTVP
 40
0.0
  9
$DIMTIX
 70
     0
  9
$DIMSOXD
 70
     0
  9
$DIMSAH
 70
     0
  9
$DIMBLK1
  1

  9
$DIMBLK2
  1

  9
$DIMSTYLE
  2
SU1
  9
$DIMCLRD
 70
     0
  9
$DIMCLRE
 70
     0
  9
$DIMCLRT
 70
     0
  9
$DIMTFAC
 40
1.0
  9
$DIMGAP
 40
0.09
  9
$DIMJUST
 70
     0
  9
$DIMSD1
 70
     0
  9
$DIMSD2
 70
     0
  9
$DIMTOLJ
 70
     1
  9
$DIMTZIN
 70
     0
  9
$DIMALTZ
 70
     0
  9
$DIMALTTZ
 70
     0
  9
$DIMUPT
 70
     0
  9
$DIMDEC
 70
     3
  9
$DIMTDEC
 70
     3
  9
$DIMALTU
 70
     2
  9
$DIMALTTD
 70
     2
  9
$DIMTXSTY
  7
Standard
  9
$DIMAUNIT
 70
     0
  9
$DIMADEC
 70
     0
  9
$DIMALTRND
 40
0.0
  9
$DIMAZIN
 70
     0
  9
$DIMDSEP
 70
    46
  9
$DIMATFIT
 70
     0
  9
$DIMFRAC
 70
     0
  9
$DIMLDRBLK
  1

  9
$DIMLUNIT
 70
     2
  9
$DIMLWD
 70
    -2
  9
$DIMLWE
 70
    -2
  9
$DIMTMOVE
 70
     0
  9
$LUNITS
 70
     2
  9
$LUPREC
 70
     4
  9
$SKETCHINC
 40
0.1
  9
$FILLETRAD
 40
0.5
  9
$AUNITS
 70
     0
  9
$AUPREC
 70
     0
  9
$MENU
  1
.
  9
$ELEVATION
 40
0.0
  9
$PELEVATION
 40
0.0
  9
$THICKNESS
 40
0.0
  9
$LIMCHECK
 70
     0
  9
$CHAMFERA
 40
0.5
  9
$CHAMFERB
 40
0.5
  9
$CHAMFERC
 40
1.0
  9
$CHAMFERD
 40
0.0
  9
$SKPOLY
 70
     0
  9
$TDCREATE
 40
2453614.700682500
  9
$TDUCREATE
 40
2453614.992349167
  9
$TDUPDATE
 40
2453664.443941875
  9
$TDUUPDATE
 40
2453664.735608542
  9
$TDINDWG
 40
0.1228390856
  9
$TDUSRTIMER
 40
0.1228390856
  9
$USRTIMER
 70
     1
  9
$ANGBASE
 50
0.0
  9
$ANGDIR
 70
     0
  9
$PDMODE
 70
     0
  9
$PDSIZE
 40
0.0
  9
$PLINEWID
 40
0.0
  9
$SPLFRAME
 70
     0
  9
$SPLINETYPE
 70
     6
  9
$SPLINESEGS
 70
     8
  9
$HANDSEED
  5
2D5
  9
$SURFTAB1
 70
     6
  9
$SURFTAB2
 70
     6
  9
$SURFTYPE
 70
     6
  9
$SURFU
 70
     6
  9
$SURFV
 70
     6
  9
$UCSBASE
  2

  9
$UCSNAME
  2

  9
$UCSORG
 10
0.0
 20
0.0
 30
0.0
  9
$UCSXDIR
 10
1.0
 20
0.0
 30
0.0
  9
$UCSYDIR
 10
0.0
 20
1.0
 30
0.0
  9
$UCSORTHOREF
  2

  9
$UCSORTHOVIEW
 70
     0
  9
$UCSORGTOP
 10
0.0
 20
0.0
 30
0.0
  9
$UCSORGBOTTOM
 10
0.0
 20
0.0
 30
0.0
  9
$UCSORGLEFT
 10
0.0
 20
0.0
 30
0.0
  9
$UCSORGRIGHT
 10
0.0
 20
0.0
 30
0.0
  9
$UCSORGFRONT
 10
0.0
 20
0.0
 30
0.0
  9
$UCSORGBACK
 10
0.0
 20
0.0
 30
0.0
  9
$PUCSBASE
  2

  9
$PUCSNAME
  2

  9
$PUCSORG
 10
0.0
 20
0.0
 30
0.0
  9
$PUCSXDIR
 10
1.0
 20
0.0
 30
0.0
  9
$PUCSYDIR
 10
0.0
 20
1.0
 30
0.0
  9
$PUCSORTHOREF
  2

  9
$PUCSORTHOVIEW
 70
     0
  9
$PUCSORGTOP
 10
0.0
 20
0.0
 30
0.0
  9
$PUCSORGBOTTOM
 10
0.0
 20
0.0
 30
0.0
  9
$PUCSORGLEFT
 10
0.0
 20
0.0
 30
0.0
  9
$PUCSORGRIGHT
 10
0.0
 20
0.0
 30
0.0
  9
$PUCSORGFRONT
 10
0.0
 20
0.0
 30
0.0
  9
$PUCSORGBACK
 10
0.0
 20
0.0
 30
0.0
  9
$USERI1
 70
     0
  9
$USERI2
 70
     0
  9
$USERI3
 70
     0
  9
$USERI4
 70
     0
  9
$USERI5
 70
     0
  9
$USERR1
 40
0.0
  9
$USERR2
 40
0.0
  9
$USERR3
 40
0.0
  9
$USERR4
 40
0.0
  9
$USERR5
 40
0.0
  9
$WORLDVIEW
 70
     1
  9
$SHADEDGE
 70
     3
  9
$SHADEDIF
 70
    70
  9
$TILEMODE
 70
     1
  9
$MAXACTVP
 70
    64
  9
$PINSBASE
 10
0.0
 20
0.0
 30
0.0
  9
$PLIMCHECK
 70
     0
  9
$PEXTMIN
 10
1.000000000000000E+20
 20
1.000000000000000E+20
 30
1.000000000000000E+20
  9
$PEXTMAX
 10
-1.000000000000000E+20
 20
-1.000000000000000E+20
 30
-1.000000000000000E+20
  9
$PLIMMIN
 10
0.0
 20
0.0
  9
$PLIMMAX
 10
12.0
 20
9.0
  9
$UNITMODE
 70
     0
  9
$VISRETAIN
 70
     1
  9
$PLINEGEN
 70
     0
  9
$PSLTSCALE
 70
     1
  9
$TREEDEPTH
 70
  3020
  9
$CMLSTYLE
  2
Standard
  9
$CMLJUST
 70
     0
  9
$CMLSCALE
 40
1.0
  9
$PROXYGRAPHICS
 70
     1
  9
$MEASUREMENT
 70
     0
  9
$CELWEIGHT
370
    -1
  9
$ENDCAPS
280
     0
  9
$JOINSTYLE
280
     0
  9
$LWDISPLAY
290
     0
  9
$INSUNITS
 70
     1
  9
$HYPERLINKBASE
  1

  9
$STYLESHEET
  1
style-1.ctb
  9
$XEDIT
290
     1
  9
$CEPSNTYPE
380
     0
  9
$PSTYLEMODE
290
     1
  9
$FINGERPRINTGUID
  2
{FDEAD576-A652-11D2-9A35-0060089B3A3F}
  9
$VERSIONGUID
  2
{0534FE99-CE4C-4D9D-8083-F913F9C5FFC5}
  9
$EXTNAMES
290
     1
  9
$PSVPSCALE
 40
0.0
  9
$OLESTARTUP
290
     0
  9
$SORTENTS
280
   127
  9
$INDEXCTL
280
     0
  9
$HIDETEXT
280
     0
  9
$XCLIPFRAME
290
     0
  9
$HALOGAP
280
     0
  9
$OBSCOLOR
 70
   257
  9
$OBSLTYPE
280
     0
  9
$INTERSECTIONDISPLAY
280
     0
  9
$INTERSECTIONCOLOR
 70
   257
  9
$DIMASSOC
280
     1
  9
$PROJECTNAME
  1

  0
ENDSEC
  0
SECTION
  2
CLASSES
  0
CLASS
  1
ACDBDICTIONARYWDFLT
  2
AcDbDictionaryWithDefault
  3
ObjectDBX Classes
 90
        0
 91
        1
280
     0
281
     0
  0
ENDSEC
  0
SECTION
  2
TABLES
  0
TABLE
  2
VPORT
  5
8
330
0
100
AcDbSymbolTable
 70
     2
  0
VPORT
  5
2D4
330
8
100
AcDbSymbolTableRecord
100
AcDbViewportTableRecord
  2
*Active
 70
     0
 10
0.0
 20
0.0
 11
1.0
 21
1.0
 12
5.250183132535523
 22
3.804316410774736
 13
0.0
 23
0.0
 14
0.125
 24
0.125
 15
1.0
 25
1.0
 16
0.0
 26
0.0
 36
1.0
 17
0.0
 27
0.0
 37
0.0
 40
7.213679375348228
 41
1.693922651933701
 42
50.0
 43
0.0
 44
0.0
 50
0.0
 51
0.0
 71
     0
 72
   100
 73
     1
 74
     3
 75
     0
 76
     1
 77
     0
 78
     0
281
     0
 65
     1
110
0.0
120
0.0
130
0.0
111
1.0
121
0.0
131
0.0
112
0.0
122
1.0
132
0.0
 79
     0
146
0.0
  0
ENDTAB
  0
TABLE
  2
LTYPE
  5
5
330
0
100
AcDbSymbolTable
 70
     3
  0
LTYPE
  5
14
330
5
100
AcDbSymbolTableRecord
100
AcDbLinetypeTableRecord
  2
ByBlock
 70
     0
  3

 72
    65
 73
     0
 40
0.0
  0
LTYPE
  5
15
330
5
100
AcDbSymbolTableRecord
100
AcDbLinetypeTableRecord
  2
ByLayer
 70
     0
  3

 72
    65
 73
     0
 40
0.0
  0
LTYPE
  5
16
330
5
100
AcDbSymbolTableRecord
100
AcDbLinetypeTableRecord
  2
Continuous
 70
     0
  3
Solid line
 72
    65
 73
     0
 40
0.0
  0
LTYPE
  5
48
330
5
100
AcDbSymbolTableRecord
100
AcDbLinetypeTableRecord
  2
CENTER
 70
     0
  3
____ _ ____ _ ____ _ ____ _ ____ _ ____ _ ____ 
 72
    65
 73
     4
 40
2.0
 49
1.25
 74
     0
 49
-0.25
 74
     0
 49
0.25
 74
     0
 49
-0.25
 74
     0
  0
LTYPE
  5
F9
330
5
100
AcDbSymbolTableRecord
100
AcDbLinetypeTableRecord
  2
HIDDEN
 70
     0
  3
Hidden __ __ __ __ __ __ __ __ __ __ __ __ __ _
 72
    65
 73
     2
 40
0.375
 49
0.25
 74
     0
 49
-0.125
 74
     0
  0
ENDTAB
  0
TABLE
  2
LAYER
  5
2
330
0
100
AcDbSymbolTable
 70
     7
  0
LAYER
  5
10
330
2
100
AcDbSymbolTableRecord
100
AcDbLayerTableRecord
  2
0
 70
     0
 62
     7
  6
Continuous
370
    -3
390
F
  0
LAYER
  5
49
330
2
100
AcDbSymbolTableRecord
100
AcDbLayerTableRecord
  2
TEXT
 70
     0
 62
     7
  6
Continuous
370
    -3
390
F
  0
LAYER
  5
4A
330
2
100
AcDbSymbolTableRecord
100
AcDbLayerTableRecord
  2
BORDER
 70
     0
 62
     8
  6
Continuous
370
    -3
390
F
  0
LAYER
  5
A1
330
2
100
AcDbSymbolTableRecord
100
AcDbLayerTableRecord
  2
Defpoints
 70
     0
 62
     7
  6
Continuous
290
     0
370
    -3
390
F
  0
LAYER
  5
D8
330
2
100
AcDbSymbolTableRecord
100
AcDbLayerTableRecord
  2
DIM
 70
     0
 62
     3
  6
Continuous
370
    -3
390
F
  0
LAYER
  5
D9
330
2
100
AcDbSymbolTableRecord
100
AcDbLayerTableRecord
  2
CENTER
 70
     0
 62
     1
  6
CENTER
370
    -3
390
F
  0
LAYER
  5
167
330
2
100
AcDbSymbolTableRecord
100
AcDbLayerTableRecord
  2
TROWEL
 70
     0
 62
     7
  6
Continuous
370
    -3
390
F
  0
ENDTAB
  0
TABLE
  2
STYLE
  5
3
330
0
100
AcDbSymbolTable
 70
     3
  0
STYLE
  5
11
330
3
100
AcDbSymbolTableRecord
100
AcDbTextStyleTableRecord
  2
Standard
 70
     0
 40
0.0
 41
1.0
 50
0.0
 71
     0
 42
0.2
  3
txt
  4

  0
STYLE
  5
4B
330
3
100
AcDbSymbolTableRecord
100
AcDbTextStyleTableRecord
  2
ADESK2
 70
     0
 40
0.0
 41
1.0
 50
0.0
 71
     0
 42
0.065
  3
romans
  4

  0
STYLE
  5
F8
330
3
100
AcDbSymbolTableRecord
100
AcDbTextStyleTableRecord
  2

 70
     1
 40
0.0
 41
1.0
 50
0.0
 71
     0
 42
0.2
  3
ltypeshp.shx
  4

  0
ENDTAB
  0
TABLE
  2
VIEW
  5
6
330
0
100
AcDbSymbolTable
 70
     0
  0
ENDTAB
  0
TABLE
  2
UCS
  5
7
330
0
100
AcDbSymbolTable
 70
     0
  0
ENDTAB
  0
TABLE
  2
APPID
  5
9
330
0
100
AcDbSymbolTable
 70
     1
  0
APPID
  5
12
330
9
100
AcDbSymbolTableRecord
100
AcDbRegAppTableRecord
  2
ACAD
 70
     0
  0
ENDTAB
  0
TABLE
  2
DIMSTYLE
  5
A
330
0
100
AcDbSymbolTable
 70
     4
100
AcDbDimStyleTable
 71
     4
340
4C
340
DF
340
E0
340
27
  0
DIMSTYLE
105
27
330
A
100
AcDbSymbolTableRecord
100
AcDbDimStyleTableRecord
  2
Standard
 70
     0
340
11
  0
DIMSTYLE
105
4C
102
{ACAD_REACTORS
330
179
330
191
330
19F
330
1BB
330
23B
330
258
330
267
330
275
330
283
330
2AE
330
2BD
102
}
330
A
100
AcDbSymbolTableRecord
100
AcDbDimStyleTableRecord
  2
SU1
 70
     0
  4
mm
 40
0.5
 47
0.001
 48
0.001
271
     3
272
     3
289
     0
340
11
  0
DIMSTYLE
105
DF
330
A
100
AcDbSymbolTableRecord
100
AcDbDimStyleTableRecord
  2
SU1$4
 70
     0
  4
mm
 40
0.5
 47
0.001
 48
0.001
271
     3
272
     3
288
     1
289
     0
340
11
  0
DIMSTYLE
105
E0
330
A
100
AcDbSymbolTableRecord
100
AcDbDimStyleTableRecord
  2
SU1$3
 70
     0
  4
mm
 40
0.5
 47
0.001
 48
0.001
271
     3
272
     3
288
     1
289
     0
340
11
  0
ENDTAB
  0
TABLE
  2
BLOCK_RECORD
  5
1
330
0
100
AcDbSymbolTable
 70
    14
  0
BLOCK_RECORD
  5
1F
330
1
100
AcDbSymbolTableRecord
100
AcDbBlockTableRecord
  2
*Model_Space
340
22
  0
BLOCK_RECORD
  5
1B
330
1
100
AcDbSymbolTableRecord
100
AcDbBlockTableRecord
  2
*Paper_Space
340
1E
  0
BLOCK_RECORD
  5
23
330
1
100
AcDbSymbolTableRecord
100
AcDbBlockTableRecord
  2
*Paper_Space0
340
26
  0
BLOCK_RECORD
  5
10B
330
1
100
AcDbSymbolTableRecord
100
AcDbBlockTableRecord
  2
a-border
340
0
102
{BLKREFS
331
160
102
}
  0
BLOCK_RECORD
  5
17A
330
1
100
AcDbSymbolTableRecord
100
AcDbBlockTableRecord
  2
*D2
340
0
  0
BLOCK_RECORD
  5
192
330
1
100
AcDbSymbolTableRecord
100
AcDbBlockTableRecord
  2
*D3
340
0
  0
BLOCK_RECORD
  5
1A0
330
1
100
AcDbSymbolTableRecord
100
AcDbBlockTableRecord
  2
*D4
340
0
  0
BLOCK_RECORD
  5
1BC
330
1
100
AcDbSymbolTableRecord
100
AcDbBlockTableRecord
  2
*D6
340
0
  0
BLOCK_RECORD
  5
23C
330
1
100
AcDbSymbolTableRecord
100
AcDbBlockTableRecord
  2
*D7
340
0
  0
BLOCK_RECORD
  5
259
330
1
100
AcDbSymbolTableRecord
100
AcDbBlockTableRecord
  2
*D8
340
0
  0
BLOCK_RECORD
  5
268
330
1
100
AcDbSymbolTableRecord
100
AcDbBlockTableRecord
  2
*D9
340
0
  0
BLOCK_RECORD
  5
276
330
1
100
AcDbSymbolTableRecord
100
AcDbBlockTableRecord
  2
*D10
340
0
  0
BLOCK_RECORD
  5
284
330
1
100
AcDbSymbolTableRecord
100
AcDbBlockTableRecord
  2
*D11
340
0
  0
BLOCK_RECORD
  5
2AF
330
1
100
AcDbSymbolTableRecord
100
AcDbBlockTableRecord
  2
*D12
340
0
  0
BLOCK_RECORD
  5
2BE
330
1
100
AcDbSymbolTableRecord
100
AcDbBlockTableRecord
  2
*D13
340
0
  0
ENDTAB
  0
ENDSEC
  0
SECTION
  2
BLOCKS
  0
BLOCK
  5
20
330
1F
100
AcDbEntity
  8
0
100
AcDbBlockBegin
  2
*Model_Space
 70
     0
 10
0.0
 20
0.0
 30
0.0
  3
*Model_Space
  1

  0
ENDBLK
  5
21
330
1F
100
AcDbEntity
  8
0
100
AcDbBlockEnd
  0
BLOCK
  5
1C
330
1B
100
AcDbEntity
 67
     1
  8
0
100
AcDbBlockBegin
  2
*Paper_Space
 70
     0
 10
0.0
 20
0.0
 30
0.0
  3
*Paper_Space
  1

  0
ENDBLK
  5
1D
330
1B
100
AcDbEntity
 67
     1
  8
0
100
AcDbBlockEnd
  0
BLOCK
  5
24
330
23
100
AcDbEntity
  8
0
100
AcDbBlockBegin
  2
*Paper_Space0
 70
     0
 10
0.0
 20
0.0
 30
0.0
  3
*Paper_Space0
  1

  0
ENDBLK
  5
25
330
23
100
AcDbEntity
  8
0
100
AcDbBlockEnd
  0
BLOCK
  5
10C
330
10B
100
AcDbEntity
  8
0
100
AcDbBlockBegin
  2
a-border
 70
     2
 10
0.0
 20
0.0
 30
0.0
  3
a-border
  1

  0
ATTDEF
  5
10D
330
10B
100
AcDbEntity
  8
TEXT
100
AcDbText
 10
8.896344406931433
 20
0.2313
 30
0.0
 40
0.06
  1

100
AcDbAttributeDefinition
  3
Enter File Name
  2
FILE
 70
     0
  0
ATTDEF
  5
10E
330
10B
100
AcDbEntity
  8
TEXT
100
AcDbText
 10
7.8768
 20
0.4075
 30
0.0
 40
0.03
  1

100
AcDbAttributeDefinition
  3
Enter the Date
  2
DATE
 70
     0
  0
ATTDEF
  5
10F
330
10B
100
AcDbEntity
  8
TEXT
100
AcDbText
 10
7.381999999999999
 20
0.4188
 30
0.0
 40
0.06
  1
S. KYRE
100
AcDbAttributeDefinition
  3
Enter Your Name
  2
NAME
 70
     0
  0
ATTDEF
  5
110
330
10B
100
AcDbEntity
  8
TEXT
100
AcDbText
 10
8.3488
 20
0.0891
 30
0.0
 40
0.06
  1

100
AcDbAttributeDefinition
  3
Enter Drawing Scale
  2
SCALE
 70
     0
  0
ATTDEF
  5
111
330
10B
100
AcDbEntity
  8
TEXT
100
AcDbText
 10
8.3602
 20
0.2256
 30
0.0
 40
0.06
  1

100
AcDbAttributeDefinition
  3
Enter Drawing Directory
  2
DIRECTORY
 70
     0
  0
TEXT
  5
112
330
10B
100
AcDbEntity
  8
TEXT
100
AcDbText
 10
9.806017901868278
 20
0.1221884730513363
 30
0.0
 40
0.0325
  1
OF
  7
ADESK2
100
AcDbText
  0
TEXT
  5
113
330
10B
100
AcDbEntity
  8
TEXT
100
AcDbText
 10
7.926233901868277
 20
0.4874754730513367
 30
0.0
 40
0.0325
  1
DATE
  7
ADESK2
100
AcDbText
  0
LINE
  5
114
330
10B
100
AcDbEntity
  8
TEXT
100
AcDbLine
 10
7.864524401868278
 20
0.5457504730513368
 30
0.0
 11
7.864524401868278
 21
0.0625
 31
0.0
  0
TEXT
  5
115
330
10B
100
AcDbEntity
  8
TEXT
100
AcDbText
 10
7.154532401868278
 20
0.1782504730513361
 30
0.0
 40
0.0325
  1
DESIGN
  7
ADESK2
100
AcDbText
  0
TEXT
  5
116
330
10B
100
AcDbEntity
  8
TEXT
100
AcDbText
 10
7.154532401868278
 20
0.3357504730513368
 30
0.0
 40
0.0325
  1
CHECKED
  7
ADESK2
100
AcDbText
  0
LINE
  5
117
330
10B
100
AcDbEntity
  8
TEXT
100
AcDbLine
 10
7.114532401868278
 20
0.5457504730513368
 30
0.0
 11
8.114532401868279
 21
0.5457504730513368
 31
0.0
  0
TEXT
  5
118
330
10B
100
AcDbEntity
  8
TEXT
100
AcDbText
 10
9.848673055561846
 20
7.044547729948104
 30
0.0
 40
0.0325
  1
APPROVED
  7
ADESK2
100
AcDbText
  0
TEXT
  5
119
330
10B
100
AcDbEntity
  8
TEXT
100
AcDbText
 10
9.451823055561847
 20
7.044547729948104
 30
0.0
 40
0.0325
  1
DATE
  7
ADESK2
100
AcDbText
  0
TEXT
  5
11A
330
10B
100
AcDbEntity
  8
TEXT
100
AcDbText
 10
8.418973055561847
 20
7.044547729948104
 30
0.0
 40
0.0325
  1
DESCRIPTION
  7
ADESK2
100
AcDbText
  0
TEXT
  5
11B
330
10B
100
AcDbEntity
  8
TEXT
100
AcDbText
 10
7.768023055561846
 20
7.044547729948104
 30
0.0
 40
0.0325
  1
REV
  7
ADESK2
100
AcDbText
  0
TEXT
  5
11C
330
10B
100
AcDbEntity
  8
TEXT
100
AcDbText
 10
8.833073055561845
 20
7.165647729948104
 30
0.0
 40
0.0325
  1
REVISIONS
  7
ADESK2
100
AcDbText
  0
LINE
  5
11D
330
10B
100
AcDbEntity
  8
TEXT
100
AcDbLine
 10
9.727973055561847
 20
6.999397729948103
 30
0.0
 11
9.727973055561847
 21
7.124397729948103
 31
0.0
  0
LINE
  5
11E
330
10B
100
AcDbEntity
  8
TEXT
100
AcDbLine
 10
9.287973055561847
 20
6.999397729948103
 30
0.0
 11
9.287973055561847
 21
7.124397729948103
 31
0.0
  0
LINE
  5
11F
330
10B
100
AcDbEntity
  8
TEXT
100
AcDbLine
 10
7.917973055561846
 20
6.999397729948103
 30
0.0
 11
7.917973055561846
 21
7.124397729948103
 31
0.0
  0
LINE
  5
120
330
10B
100
AcDbEntity
  8
TEXT
100
AcDbLine
 10
7.722846844446165
 20
7.279429703003084
 30
0.0
 11
7.722846844446165
 21
6.999397729948103
 31
0.0
  0
LINE
  5
121
330
10B
100
AcDbEntity
  8
TEXT
100
AcDbLine
 10
7.722846844446165
 20
6.999397729948103
 30
0.0
 11
10.25
 21
6.999397729948104
 31
0.0
  0
LINE
  5
122
330
10B
100
AcDbEntity
  8
TEXT
100
AcDbLine
 10
7.722846844446165
 20
7.124397729948103
 30
0.0
 11
10.25
 21
7.124397729948104
 31
0.0
  0
TEXT
  5
123
330
10B
100
AcDbEntity
  8
TEXT
100
AcDbText
 10
10.08978240186828
 20
0.3337004730513362
 30
0.0
 40
0.0325
  1
REV
  7
ADESK2
100
AcDbText
  0
TEXT
  5
124
330
10B
100
AcDbEntity
  8
TEXT
100
AcDbText
 10
8.900032401868278
 20
0.3337004730513362
 30
0.0
 40
0.0325
  1
DWG NO.
  7
ADESK2
100
AcDbText
  0
TEXT
  5
125
330
10B
100
AcDbEntity
  8
TEXT
100
AcDbText
 10
8.158482401868278
 20
0.3337004730513362
 30
0.0
 40
0.0325
  1
SIZE
  7
ADESK2
100
AcDbText
  0
TEXT
  5
126
330
10B
100
AcDbEntity
  8
TEXT
100
AcDbText
 10
9.390932401868278
 20
0.1220004730513366
 30
0.0
 40
0.0325
  1
SHEET
  7
ADESK2
100
AcDbText
  0
TEXT
  5
127
330
10B
100
AcDbEntity
  8
TEXT
100
AcDbText
 10
8.140682401868277
 20
0.1220004730513366
 30
0.0
 40
0.0325
  1
SCALE
  7
ADESK2
100
AcDbText
  0
LINE
  5
128
330
10B
100
AcDbEntity
  8
TEXT
100
AcDbLine
 10
10.04953240186828
 20
0.200750473051337
 30
0.0
 11
10.04953240186828
 21
0.3907504730513365
 31
0.0
  0
LINE
  5
129
330
10B
100
AcDbEntity
  8
TEXT
100
AcDbLine
 10
8.864532401868279
 20
0.200750473051337
 30
0.0
 11
8.864532401868279
 21
0.3907504730513365
 31
0.0
  0
LINE
  5
12A
330
10B
100
AcDbEntity
  8
TEXT
100
AcDbLine
 10
8.304532401868277
 20
0.200750473051337
 30
0.0
 11
8.304532401868277
 21
0.3907504730513365
 31
0.0
  0
LINE
  5
12B
330
10B
100
AcDbEntity
  8
TEXT
100
AcDbLine
 10
9.364532401868279
 20
0.0625
 30
0.0
 11
9.364532401868279
 21
0.200750473051337
 31
0.0
  0
LINE
  5
12C
330
10B
100
AcDbEntity
  8
TEXT
100
AcDbLine
 10
8.614532401868279
 20
0.0625
 30
0.0
 11
8.614532401868279
 21
0.200750473051337
 31
0.0
  0
LINE
  5
12D
330
10B
100
AcDbEntity
  8
BORDER
100
AcDbLine
 10
8.114532401868279
 20
0.0625
 30
0.0
 11
8.114532401868279
 21
0.9507504730513369
 31
0.0
  0
LINE
  5
12E
330
10B
100
AcDbEntity
  8
BORDER
100
AcDbLine
 10
8.114532401868279
 20
0.700750473051337
 30
0.0
 11
10.25043121410005
 21
0.700750473051337
 31
0.0
  0
LINE
  5
12F
330
10B
100
AcDbEntity
  8
TEXT
100
AcDbLine
 10
8.114532401868279
 20
0.200750473051337
 30
0.0
 11
10.25043121410005
 21
0.200750473051337
 31
0.0
  0
LINE
  5
130
330
10B
100
AcDbEntity
  8
TEXT
100
AcDbLine
 10
7.114532401868278
 20
0.3907504730513365
 30
0.0
 11
10.25043121410005
 21
0.3907504730513365
 31
0.0
  0
LINE
  5
131
330
10B
100
AcDbEntity
  8
TEXT
100
AcDbLine
 10
7.114532401868278
 20
0.2332504730513367
 30
0.0
 11
8.114532401868279
 21
0.2332504730513367
 31
0.0
  0
LINE
  5
132
330
10B
100
AcDbEntity
  8
BORDER
100
AcDbLine
 10
7.114532401868278
 20
0.9507504730513369
 30
0.0
 11
10.25043121410005
 21
0.9507504730513369
 31
0.0
  0
LINE
  5
133
330
10B
100
AcDbEntity
  8
BORDER
100
AcDbLine
 10
7.114532401868278
 20
0.0625
 30
0.0
 11
7.114532401868278
 21
1.162073490813602
 31
0.0
  0
TEXT
  5
134
330
10B
100
AcDbEntity
  8
TEXT
100
AcDbText
 10
7.148687401868278
 20
0.4899819730513367
 30
0.0
 40
0.0325
  1
DRAWN
  7
ADESK2
100
AcDbText
  0
TEXT
  5
135
330
10B
100
AcDbEntity
  8
BORDER
100
AcDbText
 10
7.203514652868109
 20
1.024613929072771
 30
0.0
 40
0.075
  1
UNIVERSITY OF CALIFORNIA @ SANTA BARBARA
100
AcDbText
  0
LINE
  5
136
330
10B
100
AcDbEntity
  8
BORDER
100
AcDbLine
 10
7.114012285752607
 20
1.162073490813602
 30
0.0
 11
10.25043121410005
 21
1.162073490813602
 31
0.0
  0
LINE
  5
137
330
10B
100
AcDbEntity
  8
BORDER
100
AcDbLine
 10
10.25
 20
0.0625
 30
0.0
 11
10.25
 21
7.3025
 31
0.0
  0
LINE
  5
138
330
10B
100
AcDbEntity
  8
BORDER
100
AcDbLine
 10
0.25
 20
7.3025
 30
0.0
 11
0.25
 21
0.0625
 31
0.0
  0
LINE
  5
139
330
10B
100
AcDbEntity
  8
BORDER
100
AcDbLine
 10
0.25
 20
0.0625
 30
0.0
 11
10.25
 21
0.0625
 31
0.0
  0
TEXT
  5
13A
330
10B
100
AcDbEntity
  8
BORDER
100
AcDbText
 10
8.183852051433854
 20
0.2259812000243528
 30
0.0
 40
0.075
  1
A
100
AcDbText
  0
TEXT
  5
13B
330
10B
100
AcDbEntity
  8
TEXT
100
AcDbText
 10
8.340068360089324
 20
0.3326771653542698
 30
0.0
 40
0.0375
  1
DIRECTORY
100
AcDbText
  0
LINE
  5
13C
330
10B
100
AcDbEntity
  8
BORDER
100
AcDbLine
 10
0.25
 20
7.3025
 30
0.0
 11
10.25
 21
7.3025
 31
0.0
  0
TEXT
  5
13D
330
10B
100
AcDbEntity
  8
BORDER
100
AcDbText
 10
8.458303959452241
 20
0.7877830678141449
 30
0.0
 40
0.075
  1
HIGH ENERGY PHYSICS
100
AcDbText
  0
TEXT
  5
13E
330
10B
100
AcDbEntity
  8
TEXT
100
AcDbText
 10
7.229175259011135
 20
0.8925444730513369
 30
0.0
 40
0.0325
  1
UNLESS OTHERWISE SPECIFIED:
  7
ADESK2
 72
     1
 11
7.614532401868278
 21
0.8925444730513369
 31
0.0
100
AcDbText
  0
TEXT
  5
13F
330
10B
100
AcDbEntity
  8
TEXT
100
AcDbText
 10
7.266318116153993
 20
0.8399254730513369
 30
0.0
 40
0.0325
  1
DIMENSIONS ARE IN INCHES
  7
ADESK2
 72
     1
 11
7.614532401868278
 21
0.8399254730513369
 31
0.0
100
AcDbText
  0
TEXT
  5
140
330
10B
100
AcDbEntity
  8
TEXT
100
AcDbText
 10
7.46518716377304
 20
0.787306473051337
 30
0.0
 40
0.0325
  1
TOLERANCES
  7
ADESK2
 72
     1
 11
7.614532401868278
 21
0.787306473051337
 31
0.0
100
AcDbText
  0
TEXT
  5
141
330
10B
100
AcDbEntity
  8
TEXT
100
AcDbText
 10
7.272011401868279
 20
0.733371473051337
 30
0.0
 40
0.0325
  1
DECIMALS
  7
ADESK2
100
AcDbText
  0
TEXT
  5
142
330
10B
100
AcDbEntity
  8
TEXT
100
AcDbText
 10
7.272011401868279
 20
0.680752473051337
 30
0.0
 40
0.0325
  1
.XX  %%P .05
  7
ADESK2
100
AcDbText
  0
TEXT
  5
143
330
10B
100
AcDbEntity
  8
TEXT
100
AcDbText
 10
7.272011401868279
 20
0.628133473051337
 30
0.0
 40
0.0325
  1
.XXX %%P .005
  7
ADESK2
100
AcDbText
  0
TEXT
  5
144
330
10B
100
AcDbEntity
  8
TEXT
100
AcDbText
 10
7.307330020915897
 20
0.576871973051337
 30
0.0
 40
0.0325
  1
DO NOT SCALE DRAWING
  7
ADESK2
 72
     1
 11
7.614532401868278
 21
0.576871973051337
 31
0.0
100
AcDbText
  0
TEXT
  5
145
330
10B
100
AcDbEntity
  8
TEXT
100
AcDbText
 10
7.703959901868278
 20
0.733371473051337
 30
0.0
 40
0.0325
  1
ANGULAR
  7
ADESK2
100
AcDbText
  0
TEXT
  5
146
330
10B
100
AcDbEntity
  8
TEXT
100
AcDbText
 10
7.703959901868278
 20
0.680752473051337
 30
0.0
 40
0.0325
  1
  %%P 0.5%%D
  7
ADESK2
100
AcDbText
  0
LINE
  5
147
330
10B
100
AcDbEntity
  8
TEXT
100
AcDbLine
 10
1.53125
 20
6.9275
 30
0.0
 11
0.25
 21
6.9275
 31
0.0
  0
LINE
  5
148
330
10B
100
AcDbEntity
  8
TEXT
100
AcDbLine
 10
1.53125
 20
7.0525
 30
0.0
 11
1.53125
 21
6.9275
 31
0.0
  0
TEXT
  5
149
330
10B
100
AcDbEntity
  8
TEXT
100
AcDbText
 10
0.34375
 20
6.959913795125819
 30
0.0
 40
0.05
  1
THIRD ANGLE PROJECTION
100
AcDbText
  0
LINE
  5
14A
330
10B
100
AcDbEntity
  8
TEXT
100
AcDbLine
 10
1.065631518781287
 20
7.26448044872969
 30
0.0
 11
1.065631518781287
 21
7.07698044872969
 31
0.0
  0
LINE
  5
14B
330
10B
100
AcDbEntity
  8
TEXT
100
AcDbLine
 10
0.8233106911879986
 20
7.12385544872969
 30
0.0
 11
0.8233106911879986
 21
7.21760544872969
 31
0.0
  0
LINE
  5
14C
330
10B
100
AcDbEntity
  8
TEXT
100
AcDbLine
 10
0.8233106911879986
 20
7.12385544872969
 30
0.0
 11
1.065631518781287
 21
7.07698044872969
 31
0.0
  0
LINE
  5
14D
330
10B
100
AcDbEntity
  8
TEXT
100
AcDbLine
 10
0.8233106911879986
 20
7.21760544872969
 30
0.0
 11
1.065631518781287
 21
7.26448044872969
 31
0.0
  0
LINE
  5
14E
330
10B
100
AcDbEntity
  8
TEXT
  6
CENTER
100
AcDbLine
 10
0.5889356911879986
 20
7.056389515976311
 30
0.0
 11
0.5889356911879986
 21
7.290327922590398
 31
0.0
  0
LINE
  5
14F
330
10B
100
AcDbEntity
  8
TEXT
  6
CENTER
100
AcDbLine
 10
0.4719755965241177
 20
7.17073044872969
 30
0.0
 11
1.198310691187998
 21
7.17073044872969
 31
0.0
  0
CIRCLE
  5
150
330
10B
100
AcDbEntity
  8
TEXT
100
AcDbCircle
 10
0.5889356911879986
 20
7.17073044872969
 30
0.0
 40
0.046875
  0
CIRCLE
  5
151
330
10B
100
AcDbEntity
  8
TEXT
100
AcDbCircle
 10
0.5889356911879986
 20
7.17073044872969
 30
0.0
 40
0.09375
  0
LINE
  5
152
330
10B
100
AcDbEntity
  8
TEXT
100
AcDbLine
 10
1.53125
 20
7.0525
 30
0.0
 11
1.53125
 21
7.3025
 31
0.0
  0
LINE
  5
153
330
10B
100
AcDbEntity
  8
TEXT
100
AcDbLine
 10
0.25
 20
7.0525
 30
0.0
 11
1.53125
 21
7.0525
 31
0.0
  0
ENDBLK
  5
154
330
10B
100
AcDbEntity
  8
0
100
AcDbBlockEnd
  0
BLOCK
  5
185
330
17A
100
AcDbEntity
  8
0
100
AcDbBlockBegin
  2
*D2
 70
     1
 10
0.0
 20
0.0
 30
0.0
  3
*D2
  1

  0
LINE
  5
231
330
17A
100
AcDbEntity
  8
DIM
 62
     0
370
    -2
100
AcDbLine
 10
5.958959948671747
 20
3.93926978609263
 30
0.0
 11
5.958959948671747
 21
3.704235352034544
 31
0.0
  0
LINE
  5
232
330
17A
100
AcDbEntity
  8
DIM
 62
     0
370
    -2
100
AcDbLine
 10
5.833959948671747
 20
3.93926978609263
 30
0.0
 11
5.833959948671747
 21
3.704235352034544
 31
0.0
  0
LINE
  5
233
330
17A
100
AcDbEntity
  8
DIM
 62
     0
370
    -2
100
AcDbLine
 10
6.048959948671747
 20
3.794235352034544
 30
0.0
 11
6.138959948671747
 21
3.794235352034544
 31
0.0
  0
LINE
  5
234
330
17A
100
AcDbEntity
  8
DIM
 62
     0
370
    -2
100
AcDbLine
 10
5.743959948671747
 20
3.794235352034544
 30
0.0
 11
5.653959948671746
 21
3.794235352034544
 31
0.0
  0
SOLID
  5
235
330
17A
100
AcDbEntity
  8
DIM
 62
     0
100
AcDbTrace
 10
6.048959948671747
 20
3.809235352034544
 30
0.0
 11
6.048959948671747
 21
3.779235352034544
 31
0.0
 12
5.958959948671747
 22
3.794235352034544
 32
0.0
 13
5.958959948671747
 23
3.794235352034544
 33
0.0
  0
SOLID
  5
236
330
17A
100
AcDbEntity
  8
DIM
 62
     0
100
AcDbTrace
 10
5.743959948671747
 20
3.809235352034544
 30
0.0
 11
5.743959948671747
 21
3.779235352034544
 31
0.0
 12
5.833959948671747
 22
3.794235352034544
 32
0.0
 13
5.833959948671747
 23
3.794235352034544
 33
0.0
  0
MTEXT
  5
237
330
17A
100
AcDbEntity
  8
DIM
 62
     0
100
AcDbMText
 10
5.451459948671747
 20
3.794235352034544
 30
0.0
 40
0.09
 41
0.0
 71
     5
 72
     1
  1
\A1;0.125
 73
     1
 44
1.0
  0
POINT
  5
238
330
17A
100
AcDbEntity
  8
Defpoints
 62
     0
100
AcDbPoint
 10
5.958959948671747
 20
3.97051978609263
 30
0.0
  0
POINT
  5
239
330
17A
100
AcDbEntity
  8
Defpoints
 62
     0
100
AcDbPoint
 10
5.833959948671747
 20
3.97051978609263
 30
0.0
  0
POINT
  5
23A
330
17A
100
AcDbEntity
  8
Defpoints
 62
     0
100
AcDbPoint
 10
5.833959948671747
 20
3.794235352034544
 30
0.0
  0
ENDBLK
  5
186
330
17A
100
AcDbEntity
  8
0
100
AcDbBlockEnd
  0
BLOCK
  5
19D
330
192
100
AcDbEntity
  8
0
100
AcDbBlockBegin
  2
*D3
 70
     1
 10
0.0
 20
0.0
 30
0.0
  3
*D3
  1

  0
LINE
  5
2A4
330
192
100
AcDbEntity
  8
DIM
 62
     0
370
    -2
100
AcDbLine
 10
6.58395994867175
 20
3.944269786092629
 30
0.0
 11
6.58395994867175
 21
3.442349060549229
 31
0.0
  0
LINE
  5
2A5
330
192
100
AcDbEntity
  8
DIM
 62
     0
370
    -2
100
AcDbLine
 10
5.833959948671747
 20
3.93926978609263
 30
0.0
 11
5.833959948671747
 21
3.442349060549229
 31
0.0
  0
LINE
  5
2A6
330
192
100
AcDbEntity
  8
DIM
 62
     0
370
    -2
100
AcDbLine
 10
6.49395994867175
 20
3.532349060549229
 30
0.0
 11
6.418959948671749
 21
3.532349060549229
 31
0.0
  0
LINE
  5
2A7
330
192
100
AcDbEntity
  8
DIM
 62
     0
370
    -2
100
AcDbLine
 10
5.923959948671747
 20
3.532349060549229
 30
0.0
 11
5.998959948671749
 21
3.532349060549229
 31
0.0
  0
SOLID
  5
2A8
330
192
100
AcDbEntity
  8
DIM
 62
     0
100
AcDbTrace
 10
6.49395994867175
 20
3.547349060549229
 30
0.0
 11
6.49395994867175
 21
3.517349060549229
 31
0.0
 12
6.58395994867175
 22
3.532349060549229
 32
0.0
 13
6.58395994867175
 23
3.532349060549229
 33
0.0
  0
SOLID
  5
2A9
330
192
100
AcDbEntity
  8
DIM
 62
     0
100
AcDbTrace
 10
5.923959948671747
 20
3.547349060549229
 30
0.0
 11
5.923959948671747
 21
3.517349060549229
 31
0.0
 12
5.833959948671747
 22
3.532349060549229
 32
0.0
 13
5.833959948671747
 23
3.532349060549229
 33
0.0
  0
MTEXT
  5
2AA
330
192
100
AcDbEntity
  8
DIM
 62
     0
100
AcDbMText
 10
6.208959948671749
 20
3.532349060549229
 30
0.0
 40
0.09
 41
0.0
 71
     5
 72
     1
  1
\A1;0.750
 73
     1
 44
1.0
  0
POINT
  5
2AB
330
192
100
AcDbEntity
  8
Defpoints
 62
     0
100
AcDbPoint
 10
6.58395994867175
 20
3.975519786092629
 30
0.0
  0
POINT
  5
2AC
330
192
100
AcDbEntity
  8
Defpoints
 62
     0
100
AcDbPoint
 10
5.833959948671747
 20
3.97051978609263
 30
0.0
  0
POINT
  5
2AD
330
192
100
AcDbEntity
  8
Defpoints
 62
     0
100
AcDbPoint
 10
5.833959948671747
 20
3.532349060549229
 30
0.0
  0
ENDBLK
  5
19E
330
192
100
AcDbEntity
  8
0
100
AcDbBlockEnd
  0
BLOCK
  5
1AB
330
1A0
100
AcDbEntity
  8
0
100
AcDbBlockBegin
  2
*D4
 70
     1
 10
0.0
 20
0.0
 30
0.0
  3
*D4
  1

  0
LINE
  5
29A
330
1A0
100
AcDbEntity
  8
DIM
 62
     0
370
    -2
100
AcDbLine
 10
6.70895994867175
 20
3.944269786092629
 30
0.0
 11
6.70895994867175
 21
3.180462792838945
 31
0.0
  0
LINE
  5
29B
330
1A0
100
AcDbEntity
  8
DIM
 62
     0
370
    -2
100
AcDbLine
 10
5.833959948671747
 20
3.93926978609263
 30
0.0
 11
5.833959948671747
 21
3.180462792838945
 31
0.0
  0
LINE
  5
29C
330
1A0
100
AcDbEntity
  8
DIM
 62
     0
370
    -2
100
AcDbLine
 10
6.61895994867175
 20
3.270462792838944
 30
0.0
 11
6.488959948671749
 21
3.270462792838944
 31
0.0
  0
LINE
  5
29D
330
1A0
100
AcDbEntity
  8
DIM
 62
     0
370
    -2
100
AcDbLine
 10
5.923959948671747
 20
3.270462792838944
 30
0.0
 11
6.053959948671749
 21
3.270462792838944
 31
0.0
  0
SOLID
  5
29E
330
1A0
100
AcDbEntity
  8
DIM
 62
     0
100
AcDbTrace
 10
6.61895994867175
 20
3.285462792838945
 30
0.0
 11
6.61895994867175
 21
3.255462792838944
 31
0.0
 12
6.70895994867175
 22
3.270462792838944
 32
0.0
 13
6.70895994867175
 23
3.270462792838944
 33
0.0
  0
SOLID
  5
29F
330
1A0
100
AcDbEntity
  8
DIM
 62
     0
100
AcDbTrace
 10
5.923959948671747
 20
3.285462792838945
 30
0.0
 11
5.923959948671747
 21
3.255462792838944
 31
0.0
 12
5.833959948671747
 22
3.270462792838944
 32
0.0
 13
5.833959948671747
 23
3.270462792838944
 33
0.0
  0
MTEXT
  5
2A0
330
1A0
100
AcDbEntity
  8
DIM
 62
     0
100
AcDbMText
 10
6.271459948671749
 20
3.270462792838944
 30
0.0
 40
0.09
 41
0.0
 71
     5
 72
     1
  1
\A1;0.875
 73
     1
 44
1.0
  0
POINT
  5
2A1
330
1A0
100
AcDbEntity
  8
Defpoints
 62
     0
100
AcDbPoint
 10
6.70895994867175
 20
3.975519786092629
 30
0.0
  0
POINT
  5
2A2
330
1A0
100
AcDbEntity
  8
Defpoints
 62
     0
100
AcDbPoint
 10
5.833959948671747
 20
3.97051978609263
 30
0.0
  0
POINT
  5
2A3
330
1A0
100
AcDbEntity
  8
Defpoints
 62
     0
100
AcDbPoint
 10
5.833959948671747
 20
3.270462792838944
 30
0.0
  0
ENDBLK
  5
1AC
330
1A0
100
AcDbEntity
  8
0
100
AcDbBlockEnd
  0
BLOCK
  5
1C8
330
1BC
100
AcDbEntity
  8
0
100
AcDbBlockBegin
  2
*D6
 70
     1
 10
0.0
 20
0.0
 30
0.0
  3
*D6
  1

  0
LINE
  5
208
330
1BC
100
AcDbEntity
  8
DIM
 62
     0
370
    -2
100
AcDbLine
 10
5.927709948671747
 20
3.99551978609263
 30
0.0
 11
5.071567415377511
 21
3.99551978609263
 31
0.0
  0
LINE
  5
209
330
1BC
100
AcDbEntity
  8
DIM
 62
     0
370
    -2
100
AcDbLine
 10
5.802709948671747
 20
3.97051978609263
 30
0.0
 11
5.071567415377511
 21
3.97051978609263
 31
0.0
  0
LINE
  5
20A
330
1BC
100
AcDbEntity
  8
DIM
 62
     0
370
    -2
100
AcDbLine
 10
5.161567415377511
 20
4.08551978609263
 30
0.0
 11
5.161567415377511
 21
4.17551978609263
 31
0.0
  0
LINE
  5
20B
330
1BC
100
AcDbEntity
  8
DIM
 62
     0
370
    -2
100
AcDbLine
 10
5.161567415377511
 20
3.88051978609263
 30
0.0
 11
5.161567415377511
 21
3.79051978609263
 31
0.0
  0
LINE
  5
20C
330
1BC
100
AcDbEntity
  8
DIM
 62
     0
370
    -2
100
AcDbLine
 10
5.161567415377511
 20
3.79051978609263
 30
0.0
 11
5.071567415377511
 21
3.79051978609263
 31
0.0
  0
SOLID
  5
20D
330
1BC
100
AcDbEntity
  8
DIM
 62
     0
100
AcDbTrace
 10
5.146567415377512
 20
4.08551978609263
 30
0.0
 11
5.176567415377511
 21
4.08551978609263
 31
0.0
 12
5.161567415377511
 22
3.99551978609263
 32
0.0
 13
5.161567415377511
 23
3.99551978609263
 33
0.0
  0
SOLID
  5
20E
330
1BC
100
AcDbEntity
  8
DIM
 62
     0
100
AcDbTrace
 10
5.146567415377512
 20
3.88051978609263
 30
0.0
 11
5.176567415377511
 21
3.88051978609263
 31
0.0
 12
5.161567415377511
 22
3.97051978609263
 32
0.0
 13
5.161567415377511
 23
3.97051978609263
 33
0.0
  0
MTEXT
  5
20F
330
1BC
100
AcDbEntity
  8
DIM
 62
     0
100
AcDbMText
 10
4.65906741537751
 20
3.790519786092631
 30
0.0
 40
0.09
 41
0.0
 71
     5
 72
     1
  1
\A1;0.025±0.001
 73
     1
 44
1.0
  0
POINT
  5
210
330
1BC
100
AcDbEntity
  8
Defpoints
 62
     0
100
AcDbPoint
 10
5.958959948671747
 20
3.99551978609263
 30
0.0
  0
POINT
  5
211
330
1BC
100
AcDbEntity
  8
Defpoints
 62
     0
100
AcDbPoint
 10
5.833959948671747
 20
3.97051978609263
 30
0.0
  0
POINT
  5
212
330
1BC
100
AcDbEntity
  8
Defpoints
 62
     0
100
AcDbPoint
 10
5.161567415377511
 20
3.97051978609263
 30
0.0
  0
ENDBLK
  5
1C9
330
1BC
100
AcDbEntity
  8
0
100
AcDbBlockEnd
  0
BLOCK
  5
248
330
23C
100
AcDbEntity
  8
0
100
AcDbBlockBegin
  2
*D7
 70
     1
 10
0.0
 20
0.0
 30
0.0
  3
*D7
  1

  0
LINE
  5
23D
330
23C
100
AcDbEntity
  8
DIM
 62
     0
370
    -2
100
AcDbLine
 10
6.67770994867175
 20
4.22051978609263
 30
0.0
 11
4.074139778212046
 21
4.220519786092631
 31
0.0
  0
LINE
  5
23E
330
23C
100
AcDbEntity
  8
DIM
 62
     0
370
    -2
100
AcDbLine
 10
5.802709948671747
 20
3.97051978609263
 30
0.0
 11
4.074139778212046
 21
3.97051978609263
 31
0.0
  0
LINE
  5
23F
330
23C
100
AcDbEntity
  8
DIM
 62
     0
370
    -2
100
AcDbLine
 10
4.164139778212046
 20
4.310519786092631
 30
0.0
 11
4.164139778212046
 21
4.400519786092631
 31
0.0
  0
LINE
  5
240
330
23C
100
AcDbEntity
  8
DIM
 62
     0
370
    -2
100
AcDbLine
 10
4.164139778212046
 20
3.88051978609263
 30
0.0
 11
4.164139778212046
 21
3.79051978609263
 31
0.0
  0
LINE
  5
241
330
23C
100
AcDbEntity
  8
DIM
 62
     0
370
    -2
100
AcDbLine
 10
4.164139778212046
 20
3.79051978609263
 30
0.0
 11
4.074139778212046
 21
3.79051978609263
 31
0.0
  0
SOLID
  5
242
330
23C
100
AcDbEntity
  8
DIM
 62
     0
100
AcDbTrace
 10
4.149139778212046
 20
4.310519786092631
 30
0.0
 11
4.179139778212046
 21
4.310519786092631
 31
0.0
 12
4.164139778212046
 22
4.220519786092631
 32
0.0
 13
4.164139778212046
 23
4.220519786092631
 33
0.0
  0
SOLID
  5
243
330
23C
100
AcDbEntity
  8
DIM
 62
     0
100
AcDbTrace
 10
4.149139778212046
 20
3.88051978609263
 30
0.0
 11
4.179139778212046
 21
3.88051978609263
 31
0.0
 12
4.164139778212046
 22
3.97051978609263
 32
0.0
 13
4.164139778212046
 23
3.97051978609263
 33
0.0
  0
MTEXT
  5
244
330
23C
100
AcDbEntity
  8
DIM
 62
     0
100
AcDbMText
 10
3.864139778212046
 20
3.790519786092631
 30
0.0
 40
0.09
 41
0.0
 71
     5
 72
     1
  1
\A1;0.250
 73
     1
 44
1.0
  0
POINT
  5
245
330
23C
100
AcDbEntity
  8
Defpoints
 62
     0
100
AcDbPoint
 10
6.70895994867175
 20
4.22051978609263
 30
0.0
  0
POINT
  5
246
330
23C
100
AcDbEntity
  8
Defpoints
 62
     0
100
AcDbPoint
 10
5.833959948671747
 20
3.97051978609263
 30
0.0
  0
POINT
  5
247
330
23C
100
AcDbEntity
  8
Defpoints
 62
     0
100
AcDbPoint
 10
4.164139778212046
 20
3.97051978609263
 30
0.0
  0
ENDBLK
  5
249
330
23C
100
AcDbEntity
  8
0
100
AcDbBlockEnd
  0
BLOCK
  5
265
330
259
100
AcDbEntity
  8
0
100
AcDbBlockBegin
  2
*D8
 70
     1
 10
0.0
 20
0.0
 30
0.0
  3
*D8
  1

  0
LINE
  5
25A
330
259
100
AcDbEntity
  8
DIM
 62
     0
370
    -2
100
AcDbLine
 10
1.85967468071589
 20
4.22051978609263
 30
0.0
 11
1.542350387669241
 21
4.22051978609263
 31
0.0
  0
LINE
  5
25B
330
259
100
AcDbEntity
  8
DIM
 62
     0
370
    -2
100
AcDbLine
 10
2.07842468071589
 20
3.97051978609263
 30
0.0
 11
1.542350387669241
 21
3.97051978609263
 31
0.0
  0
LINE
  5
25C
330
259
100
AcDbEntity
  8
DIM
 62
     0
370
    -2
100
AcDbLine
 10
1.632350387669241
 20
4.31051978609263
 30
0.0
 11
1.632350387669241
 21
4.40051978609263
 31
0.0
  0
LINE
  5
25D
330
259
100
AcDbEntity
  8
DIM
 62
     0
370
    -2
100
AcDbLine
 10
1.632350387669241
 20
3.88051978609263
 30
0.0
 11
1.632350387669241
 21
3.790519786092629
 31
0.0
  0
LINE
  5
25E
330
259
100
AcDbEntity
  8
DIM
 62
     0
370
    -2
100
AcDbLine
 10
1.632350387669241
 20
3.790519786092629
 30
0.0
 11
1.542350387669241
 21
3.790519786092629
 31
0.0
  0
SOLID
  5
25F
330
259
100
AcDbEntity
  8
DIM
 62
     0
100
AcDbTrace
 10
1.617350387669241
 20
4.31051978609263
 30
0.0
 11
1.647350387669241
 21
4.31051978609263
 31
0.0
 12
1.632350387669241
 22
4.22051978609263
 32
0.0
 13
1.632350387669241
 23
4.22051978609263
 33
0.0
  0
SOLID
  5
260
330
259
100
AcDbEntity
  8
DIM
 62
     0
100
AcDbTrace
 10
1.617350387669241
 20
3.88051978609263
 30
0.0
 11
1.647350387669241
 21
3.88051978609263
 31
0.0
 12
1.632350387669241
 22
3.97051978609263
 32
0.0
 13
1.632350387669241
 23
3.97051978609263
 33
0.0
  0
MTEXT
  5
261
330
259
100
AcDbEntity
  8
DIM
 62
     0
100
AcDbMText
 10
1.33235038766924
 20
3.79051978609263
 30
0.0
 40
0.09
 41
0.0
 71
     5
 72
     1
  1
\A1;0.250
 73
     1
 44
1.0
  0
POINT
  5
262
330
259
100
AcDbEntity
  8
Defpoints
 62
     0
100
AcDbPoint
 10
1.89092468071589
 20
4.22051978609263
 30
0.0
  0
POINT
  5
263
330
259
100
AcDbEntity
  8
Defpoints
 62
     0
100
AcDbPoint
 10
2.10967468071589
 20
3.97051978609263
 30
0.0
  0
POINT
  5
264
330
259
100
AcDbEntity
  8
Defpoints
 62
     0
100
AcDbPoint
 10
1.632350387669241
 20
3.97051978609263
 30
0.0
  0
ENDBLK
  5
266
330
259
100
AcDbEntity
  8
0
100
AcDbBlockEnd
  0
BLOCK
  5
273
330
268
100
AcDbEntity
  8
0
100
AcDbBlockBegin
  2
*D9
 70
     1
 10
0.0
 20
0.0
 30
0.0
  3
*D9
  1

  0
LINE
  5
269
330
268
100
AcDbEntity
  8
DIM
 62
     0
370
    -2
100
AcDbLine
 10
1.859674680715891
 20
4.97051978609263
 30
0.0
 11
0.9875389480992604
 21
4.97051978609263
 31
0.0
  0
LINE
  5
26A
330
268
100
AcDbEntity
  8
DIM
 62
     0
370
    -2
100
AcDbLine
 10
2.07842468071589
 20
3.97051978609263
 30
0.0
 11
0.98753894809926
 21
3.97051978609263
 31
0.0
  0
LINE
  5
26B
330
268
100
AcDbEntity
  8
DIM
 62
     0
370
    -2
100
AcDbLine
 10
1.07753894809926
 20
4.88051978609263
 30
0.0
 11
1.07753894809926
 21
4.56051978609263
 31
0.0
  0
LINE
  5
26C
330
268
100
AcDbEntity
  8
DIM
 62
     0
370
    -2
100
AcDbLine
 10
1.07753894809926
 20
4.06051978609263
 30
0.0
 11
1.07753894809926
 21
4.38051978609263
 31
0.0
  0
SOLID
  5
26D
330
268
100
AcDbEntity
  8
DIM
 62
     0
100
AcDbTrace
 10
1.06253894809926
 20
4.88051978609263
 30
0.0
 11
1.09253894809926
 21
4.88051978609263
 31
0.0
 12
1.07753894809926
 22
4.97051978609263
 32
0.0
 13
1.07753894809926
 23
4.97051978609263
 33
0.0
  0
SOLID
  5
26E
330
268
100
AcDbEntity
  8
DIM
 62
     0
100
AcDbTrace
 10
1.06253894809926
 20
4.06051978609263
 30
0.0
 11
1.092538948099259
 21
4.06051978609263
 31
0.0
 12
1.07753894809926
 22
3.97051978609263
 32
0.0
 13
1.07753894809926
 23
3.97051978609263
 33
0.0
  0
MTEXT
  5
26F
330
268
100
AcDbEntity
  8
DIM
 62
     0
100
AcDbMText
 10
1.077538948099259
 20
4.47051978609263
 30
0.0
 40
0.09
 41
0.0
 71
     5
 72
     1
  1
\A1;1.000
 73
     1
 44
1.0
  0
POINT
  5
270
330
268
100
AcDbEntity
  8
Defpoints
 62
     0
100
AcDbPoint
 10
1.890924680715891
 20
4.97051978609263
 30
0.0
  0
POINT
  5
271
330
268
100
AcDbEntity
  8
Defpoints
 62
     0
100
AcDbPoint
 10
2.10967468071589
 20
3.97051978609263
 30
0.0
  0
POINT
  5
272
330
268
100
AcDbEntity
  8
Defpoints
 62
     0
100
AcDbPoint
 10
1.07753894809926
 20
3.97051978609263
 30
0.0
  0
ENDBLK
  5
274
330
268
100
AcDbEntity
  8
0
100
AcDbBlockEnd
  0
BLOCK
  5
281
330
276
100
AcDbEntity
  8
0
100
AcDbBlockBegin
  2
*D10
 70
     1
 10
0.0
 20
0.0
 30
0.0
  3
*D10
  1

  0
LINE
  5
277
330
276
100
AcDbEntity
  8
DIM
 62
     0
370
    -2
100
AcDbLine
 10
2.10967468071589
 20
3.93926978609263
 30
0.0
 11
2.10967468071589
 21
3.550184592337298
 31
0.0
  0
LINE
  5
278
330
276
100
AcDbEntity
  8
DIM
 62
     0
370
    -2
100
AcDbLine
 10
2.140927511380198
 20
3.93926978609263
 30
0.0
 11
2.140927511380198
 21
3.550184592337298
 31
0.0
  0
LINE
  5
279
330
276
100
AcDbEntity
  8
DIM
 62
     0
370
    -2
100
AcDbLine
 10
2.01967468071589
 20
3.640184592337298
 30
0.0
 11
1.92967468071589
 21
3.640184592337298
 31
0.0
  0
LINE
  5
27A
330
276
100
AcDbEntity
  8
DIM
 62
     0
370
    -2
100
AcDbLine
 10
2.230927511380198
 20
3.640184592337298
 30
0.0
 11
2.320927511380198
 21
3.640184592337298
 31
0.0
  0
SOLID
  5
27B
330
276
100
AcDbEntity
  8
DIM
 62
     0
100
AcDbTrace
 10
2.01967468071589
 20
3.655184592337298
 30
0.0
 11
2.01967468071589
 21
3.625184592337298
 31
0.0
 12
2.10967468071589
 22
3.640184592337298
 32
0.0
 13
2.10967468071589
 23
3.640184592337298
 33
0.0
  0
SOLID
  5
27C
330
276
100
AcDbEntity
  8
DIM
 62
     0
100
AcDbTrace
 10
2.230927511380198
 20
3.655184592337298
 30
0.0
 11
2.230927511380198
 21
3.625184592337298
 31
0.0
 12
2.140927511380198
 22
3.640184592337298
 32
0.0
 13
2.140927511380198
 23
3.640184592337298
 33
0.0
  0
MTEXT
  5
27D
330
276
100
AcDbEntity
  8
DIM
 62
     0
100
AcDbMText
 10
2.515927511380198
 20
3.640184592337298
 30
0.0
 40
0.09
 41
0.0
 71
     5
 72
     1
  1
\A1;0.031
 73
     1
 44
1.0
  0
POINT
  5
27E
330
276
100
AcDbEntity
  8
Defpoints
 62
     0
100
AcDbPoint
 10
2.10967468071589
 20
3.97051978609263
 30
0.0
  0
POINT
  5
27F
330
276
100
AcDbEntity
  8
Defpoints
 62
     0
100
AcDbPoint
 10
2.140927511380198
 20
3.97051978609263
 30
0.0
  0
POINT
  5
280
330
276
100
AcDbEntity
  8
Defpoints
 62
     0
100
AcDbPoint
 10
2.140927511380198
 20
3.640184592337298
 30
0.0
  0
ENDBLK
  5
282
330
276
100
AcDbEntity
  8
0
100
AcDbBlockEnd
  0
BLOCK
  5
28F
330
284
100
AcDbEntity
  8
0
100
AcDbBlockBegin
  2
*D11
 70
     1
 10
0.0
 20
0.0
 30
0.0
  3
*D11
  1

  0
LINE
  5
285
330
284
100
AcDbEntity
  8
DIM
 62
     0
370
    -2
100
AcDbLine
 10
1.89092468071589
 20
4.18926978609263
 30
0.0
 11
1.89092468071589
 21
3.249785610927677
 31
0.0
  0
LINE
  5
286
330
284
100
AcDbEntity
  8
DIM
 62
     0
370
    -2
100
AcDbLine
 10
2.140927511380198
 20
3.93926978609263
 30
0.0
 11
2.140927511380198
 21
3.249785610927677
 31
0.0
  0
LINE
  5
287
330
284
100
AcDbEntity
  8
DIM
 62
     0
370
    -2
100
AcDbLine
 10
1.80092468071589
 20
3.339785610927677
 30
0.0
 11
1.71092468071589
 21
3.339785610927677
 31
0.0
  0
LINE
  5
288
330
284
100
AcDbEntity
  8
DIM
 62
     0
370
    -2
100
AcDbLine
 10
2.230927511380198
 20
3.339785610927677
 30
0.0
 11
2.320927511380197
 21
3.339785610927677
 31
0.0
  0
SOLID
  5
289
330
284
100
AcDbEntity
  8
DIM
 62
     0
100
AcDbTrace
 10
1.80092468071589
 20
3.354785610927677
 30
0.0
 11
1.80092468071589
 21
3.324785610927677
 31
0.0
 12
1.89092468071589
 22
3.339785610927677
 32
0.0
 13
1.89092468071589
 23
3.339785610927677
 33
0.0
  0
SOLID
  5
28A
330
284
100
AcDbEntity
  8
DIM
 62
     0
100
AcDbTrace
 10
2.230927511380198
 20
3.354785610927677
 30
0.0
 11
2.230927511380198
 21
3.324785610927677
 31
0.0
 12
2.140927511380198
 22
3.339785610927677
 32
0.0
 13
2.140927511380198
 23
3.339785610927677
 33
0.0
  0
MTEXT
  5
28B
330
284
100
AcDbEntity
  8
DIM
 62
     0
100
AcDbMText
 10
2.530927511380197
 20
3.339785610927677
 30
0.0
 40
0.09
 41
0.0
 71
     5
 72
     1
  1
\A1;0.250
 73
     1
 44
1.0
  0
POINT
  5
28C
330
284
100
AcDbEntity
  8
Defpoints
 62
     0
100
AcDbPoint
 10
1.89092468071589
 20
4.22051978609263
 30
0.0
  0
POINT
  5
28D
330
284
100
AcDbEntity
  8
Defpoints
 62
     0
100
AcDbPoint
 10
2.140927511380198
 20
3.97051978609263
 30
0.0
  0
POINT
  5
28E
330
284
100
AcDbEntity
  8
Defpoints
 62
     0
100
AcDbPoint
 10
2.140927511380198
 20
3.339785610927677
 30
0.0
  0
ENDBLK
  5
290
330
284
100
AcDbEntity
  8
0
100
AcDbBlockEnd
  0
BLOCK
  5
2BB
330
2AF
100
AcDbEntity
  8
0
100
AcDbBlockBegin
  2
*D12
 70
     1
 10
0.0
 20
0.0
 30
0.0
  3
*D12
  1

  0
LINE
  5
2B0
330
2AF
100
AcDbEntity
  8
DIM
 62
     0
370
    -2
100
AcDbLine
 10
6.74020994867175
 20
3.975519786092629
 30
0.0
 11
8.315719677448853
 21
3.975519786092629
 31
0.0
  0
LINE
  5
2B1
330
2AF
100
AcDbEntity
  8
DIM
 62
     0
370
    -2
100
AcDbLine
 10
5.990209948671747
 20
3.97051978609263
 30
0.0
 11
8.315719677448853
 21
3.97051978609263
 31
0.0
  0
LINE
  5
2B2
330
2AF
100
AcDbEntity
  8
DIM
 62
     0
370
    -2
100
AcDbLine
 10
8.225719677448855
 20
4.065519786092629
 30
0.0
 11
8.225719677448855
 21
4.155519786092629
 31
0.0
  0
LINE
  5
2B3
330
2AF
100
AcDbEntity
  8
DIM
 62
     0
370
    -2
100
AcDbLine
 10
8.225719677448854
 20
3.88051978609263
 30
0.0
 11
8.225719677448854
 21
3.790519786092629
 31
0.0
  0
LINE
  5
2B4
330
2AF
100
AcDbEntity
  8
DIM
 62
     0
370
    -2
100
AcDbLine
 10
8.225719677448854
 20
3.790519786092629
 30
0.0
 11
8.135719677448854
 21
3.790519786092629
 31
0.0
  0
SOLID
  5
2B5
330
2AF
100
AcDbEntity
  8
DIM
 62
     0
100
AcDbTrace
 10
8.210719677448855
 20
4.065519786092629
 30
0.0
 11
8.240719677448856
 21
4.065519786092629
 31
0.0
 12
8.225719677448854
 22
3.975519786092629
 32
0.0
 13
8.225719677448854
 23
3.975519786092629
 33
0.0
  0
SOLID
  5
2B6
330
2AF
100
AcDbEntity
  8
DIM
 62
     0
100
AcDbTrace
 10
8.210719677448853
 20
3.88051978609263
 30
0.0
 11
8.240719677448854
 21
3.88051978609263
 31
0.0
 12
8.225719677448854
 22
3.97051978609263
 32
0.0
 13
8.225719677448854
 23
3.97051978609263
 33
0.0
  0
MTEXT
  5
2B7
330
2AF
100
AcDbEntity
  8
DIM
 62
     0
100
AcDbMText
 10
7.933219677448853
 20
3.790519786092631
 30
0.0
 40
0.09
 41
0.0
 71
     5
 72
     1
  1
\A1;0.005
 73
     1
 44
1.0
  0
POINT
  5
2B8
330
2AF
100
AcDbEntity
  8
Defpoints
 62
     0
100
AcDbPoint
 10
6.70895994867175
 20
3.975519786092629
 30
0.0
  0
POINT
  5
2B9
330
2AF
100
AcDbEntity
  8
Defpoints
 62
     0
100
AcDbPoint
 10
5.958959948671747
 20
3.97051978609263
 30
0.0
  0
POINT
  5
2BA
330
2AF
100
AcDbEntity
  8
Defpoints
 62
     0
100
AcDbPoint
 10
8.225719677448854
 20
3.97051978609263
 30
0.0
  0
ENDBLK
  5
2BC
330
2AF
100
AcDbEntity
  8
0
100
AcDbBlockEnd
  0
BLOCK
  5
2C9
330
2BE
100
AcDbEntity
  8
0
100
AcDbBlockBegin
  2
*D13
 70
     1
 10
0.0
 20
0.0
 30
0.0
  3
*D13
  1

  0
LINE
  5
2BF
330
2BE
100
AcDbEntity
  8
DIM
 62
     0
370
    -2
100
AcDbLine
 10
7.70895994867175
 20
5.00176978609263
 30
0.0
 11
7.70895994867175
 21
5.274808185318626
 31
0.0
  0
LINE
  5
2C0
330
2BE
100
AcDbEntity
  8
DIM
 62
     0
370
    -2
100
AcDbLine
 10
5.833959948671747
 20
5.00176978609263
 30
0.0
 11
5.833959948671747
 21
5.274808185318626
 31
0.0
  0
LINE
  5
2C1
330
2BE
100
AcDbEntity
  8
DIM
 62
     0
370
    -2
100
AcDbLine
 10
7.61895994867175
 20
5.184808185318626
 30
0.0
 11
6.981459948671749
 21
5.184808185318626
 31
0.0
  0
LINE
  5
2C2
330
2BE
100
AcDbEntity
  8
DIM
 62
     0
370
    -2
100
AcDbLine
 10
5.923959948671747
 20
5.184808185318626
 30
0.0
 11
6.561459948671749
 21
5.184808185318626
 31
0.0
  0
SOLID
  5
2C3
330
2BE
100
AcDbEntity
  8
DIM
 62
     0
100
AcDbTrace
 10
7.61895994867175
 20
5.199808185318626
 30
0.0
 11
7.61895994867175
 21
5.169808185318626
 31
0.0
 12
7.70895994867175
 22
5.184808185318626
 32
0.0
 13
7.70895994867175
 23
5.184808185318626
 33
0.0
  0
SOLID
  5
2C4
330
2BE
100
AcDbEntity
  8
DIM
 62
     0
100
AcDbTrace
 10
5.923959948671747
 20
5.199808185318626
 30
0.0
 11
5.923959948671747
 21
5.169808185318626
 31
0.0
 12
5.833959948671747
 22
5.184808185318626
 32
0.0
 13
5.833959948671747
 23
5.184808185318626
 33
0.0
  0
MTEXT
  5
2C5
330
2BE
100
AcDbEntity
  8
DIM
 62
     0
100
AcDbMText
 10
6.771459948671749
 20
5.184808185318626
 30
0.0
 40
0.09
 41
0.0
 71
     5
 72
     1
  1
\A1;1.875
 73
     1
 44
1.0
  0
POINT
  5
2C6
330
2BE
100
AcDbEntity
  8
Defpoints
 62
     0
100
AcDbPoint
 10
7.70895994867175
 20
4.97051978609263
 30
0.0
  0
POINT
  5
2C7
330
2BE
100
AcDbEntity
  8
Defpoints
 62
     0
100
AcDbPoint
 10
5.833959948671747
 20
4.97051978609263
 30
0.0
  0
POINT
  5
2C8
330
2BE
100
AcDbEntity
  8
Defpoints
 62
     0
100
AcDbPoint
 10
5.833959948671747
 20
5.184808185318626
 30
0.0
  0
ENDBLK
  5
2CA
330
2BE
100
AcDbEntity
  8
0
100
AcDbBlockEnd
  0
ENDSEC
  0
SECTION
  2
ENTITIES
  0
INSERT
  5
160
330
1F
100
AcDbEntity
  8
0
100
AcDbBlockReference
 66
     1
  2
a-border
 10
0.0
 20
0.0
 30
0.0
  0
ATTRIB
  5
161
330
160
100
AcDbEntity
  8
TEXT
100
AcDbText
 10
8.896344406931433
 20
0.2313
 30
0.0
 40
0.06
  1
ENCAPS-01
100
AcDbAttribute
  2
FILE
 70
     0
  0
ATTRIB
  5
162
330
160
100
AcDbEntity
  8
TEXT
100
AcDbText
 10
7.8768
 20
0.4075
 30
0.0
 40
0.03
  1
08-31-05
100
AcDbAttribute
  2
DATE
 70
     0
  0
ATTRIB
  5
163
330
160
100
AcDbEntity
  8
TEXT
100
AcDbText
 10
7.381999999999999
 20
0.4188
 30
0.0
 40
0.06
  1
S. KYRE
100
AcDbAttribute
  2
NAME
 70
     0
  0
ATTRIB
  5
164
330
160
100
AcDbEntity
  8
TEXT
100
AcDbText
 10
8.3488
 20
0.0891
 30
0.0
 40
0.06
  1
1=1
100
AcDbAttribute
  2
SCALE
 70
     0
  0
ATTRIB
  5
165
330
160
100
AcDbEntity
  8
TEXT
100
AcDbText
 10
8.3602
 20
0.2256
 30
0.0
 40
0.06
  1
TEC
100
AcDbAttribute
  2
DIRECTORY
 70
     0
  0
SEQEND
  5
166
330
160
100
AcDbEntity
  8
0
  0
LINE
  5
168
330
1F
100
AcDbEntity
  8
TROWEL
100
AcDbLine
 10
5.833959948671747
 20
3.97051978609263
 30
0.0
 11
5.958959948671747
 21
3.97051978609263
 31
0.0
  0
LINE
  5
169
330
1F
100
AcDbEntity
  8
TROWEL
100
AcDbLine
 10
5.958959948671747
 20
3.97051978609263
 30
0.0
 11
5.958959948671747
 21
3.99551978609263
 31
0.0
  0
LINE
  5
16A
330
1F
100
AcDbEntity
  8
TROWEL
100
AcDbLine
 10
5.958959948671747
 20
3.99551978609263
 30
0.0
 11
6.583959948671747
 21
3.99551978609263
 31
0.0
  0
LINE
  5
16B
330
1F
100
AcDbEntity
  8
TROWEL
100
AcDbLine
 10
6.583959948671747
 20
3.99551978609263
 30
0.0
 11
6.58395994867175
 21
3.975519786092629
 31
0.0
  0
LINE
  5
16C
330
1F
100
AcDbEntity
  8
TROWEL
100
AcDbLine
 10
6.58395994867175
 20
3.975519786092629
 30
0.0
 11
6.70895994867175
 21
3.975519786092629
 31
0.0
  0
LINE
  5
16D
330
1F
100
AcDbEntity
  8
TROWEL
100
AcDbLine
 10
6.70895994867175
 20
3.975519786092629
 30
0.0
 11
6.70895994867175
 21
4.22051978609263
 31
0.0
  0
LINE
  5
16E
330
1F
100
AcDbEntity
  8
TROWEL
100
AcDbLine
 10
6.70895994867175
 20
4.22051978609263
 30
0.0
 11
7.70895994867175
 21
4.22051978609263
 31
0.0
  0
LINE
  5
16F
330
1F
100
AcDbEntity
  8
TROWEL
100
AcDbLine
 10
7.70895994867175
 20
4.22051978609263
 30
0.0
 11
7.70895994867175
 21
4.97051978609263
 31
0.0
  0
LINE
  5
170
330
1F
100
AcDbEntity
  8
TROWEL
100
AcDbLine
 10
7.70895994867175
 20
4.97051978609263
 30
0.0
 11
5.833959948671747
 21
4.97051978609263
 31
0.0
  0
LINE
  5
171
330
1F
100
AcDbEntity
  8
TROWEL
100
AcDbLine
 10
5.833959948671747
 20
4.97051978609263
 30
0.0
 11
5.833959948671747
 21
3.97051978609263
 31
0.0
  0
LINE
  5
173
330
1F
100
AcDbEntity
  8
TROWEL
100
AcDbLine
 10
2.10967468071589
 20
4.22051978609263
 30
0.0
 11
1.89092468071589
 21
4.22051978609263
 31
0.0
  0
LINE
  5
174
330
1F
100
AcDbEntity
  8
TROWEL
100
AcDbLine
 10
1.89092468071589
 20
4.22051978609263
 30
0.0
 11
1.890924680715891
 21
4.97051978609263
 31
0.0
  0
LINE
  5
175
330
1F
100
AcDbEntity
  8
TROWEL
100
AcDbLine
 10
2.140927511380198
 20
4.97051978609263
 30
0.0
 11
1.890924680715891
 21
4.97051978609263
 31
0.0
  0
LINE
  5
176
330
1F
100
AcDbEntity
  8
TROWEL
100
AcDbLine
 10
2.10967468071589
 20
4.22051978609263
 30
0.0
 11
2.10967468071589
 21
3.97051978609263
 31
0.0
  0
LINE
  5
177
330
1F
100
AcDbEntity
  8
TROWEL
100
AcDbLine
 10
2.10967468071589
 20
3.97051978609263
 30
0.0
 11
2.140927511380198
 21
3.97051978609263
 31
0.0
  0
LINE
  5
178
330
1F
100
AcDbEntity
  8
TROWEL
100
AcDbLine
 10
2.140927511380198
 20
3.97051978609263
 30
0.0
 11
2.140927511380198
 21
4.97051978609263
 31
0.0
  0
DIMENSION
  5
179
330
1F
100
AcDbEntity
  8
DIM
100
AcDbDimension
  2
*D2
 10
5.833959948671747
 20
3.794235352034544
 30
0.0
 11
5.451459948671747
 21
3.794235352034544
 31
0.0
 70
    32
 71
     5
 42
0.125
  3
SU1
100
AcDbAlignedDimension
 13
5.958959948671747
 23
3.97051978609263
 33
0.0
 14
5.833959948671747
 24
3.97051978609263
 34
0.0
100
AcDbRotatedDimension
  0
DIMENSION
  5
191
330
1F
100
AcDbEntity
  8
DIM
100
AcDbDimension
  2
*D3
 10
5.833959948671747
 20
3.532349060549229
 30
0.0
 11
6.208959948671749
 21
3.532349060549229
 31
0.0
 70
    32
 71
     5
 42
0.7500000000000027
  3
SU1
100
AcDbAlignedDimension
 13
6.58395994867175
 23
3.975519786092629
 33
0.0
 14
5.833959948671747
 24
3.97051978609263
 34
0.0
100
AcDbRotatedDimension
  0
DIMENSION
  5
19F
330
1F
100
AcDbEntity
  8
DIM
100
AcDbDimension
  2
*D4
 10
5.833959948671747
 20
3.270462792838944
 30
0.0
 11
6.271459948671749
 21
3.270462792838944
 31
0.0
 70
    32
 71
     5
 42
0.8750000000000026
  3
SU1
100
AcDbAlignedDimension
 13
6.70895994867175
 23
3.975519786092629
 33
0.0
 14
5.833959948671747
 24
3.97051978609263
 34
0.0
100
AcDbRotatedDimension
  0
DIMENSION
  5
1BB
330
1F
100
AcDbEntity
  8
DIM
100
AcDbDimension
  2
*D6
 10
5.161567415377511
 20
3.97051978609263
 30
0.0
 11
4.65906741537751
 21
3.790519786092631
 31
0.0
 70
    32
 71
     5
 42
0.0249999999999999
  3
SU1
100
AcDbAlignedDimension
 13
5.958959948671747
 23
3.99551978609263
 33
0.0
 14
5.833959948671747
 24
3.97051978609263
 34
0.0
 50
90.0
100
AcDbRotatedDimension
1001
ACAD
1000
DSTYLE
1002
{
1070
   147
1040
0.09
1070
    48
1040
0.001
1070
    72
1070
     0
1070
    71
1070
     1
1002
}
  0
DIMENSION
  5
23B
330
1F
100
AcDbEntity
  8
DIM
100
AcDbDimension
  2
*D7
 10
4.164139778212046
 20
3.97051978609263
 30
0.0
 11
3.864139778212046
 21
3.790519786092631
 31
0.0
 70
    32
 71
     5
 42
0.2500000000000004
  3
SU1
100
AcDbAlignedDimension
 13
6.70895994867175
 23
4.22051978609263
 33
0.0
 14
5.833959948671747
 24
3.97051978609263
 34
0.0
 50
90.0
100
AcDbRotatedDimension
  0
DIMENSION
  5
258
330
1F
100
AcDbEntity
  8
DIM
100
AcDbDimension
  2
*D8
 10
1.632350387669241
 20
3.97051978609263
 30
0.0
 11
1.33235038766924
 21
3.79051978609263
 31
0.0
 70
    32
 71
     5
 42
0.25
  3
SU1
100
AcDbAlignedDimension
 13
1.89092468071589
 23
4.22051978609263
 33
0.0
 14
2.10967468071589
 24
3.97051978609263
 34
0.0
 50
90.0
100
AcDbRotatedDimension
  0
DIMENSION
  5
267
330
1F
100
AcDbEntity
  8
DIM
100
AcDbDimension
  2
*D9
 10
1.07753894809926
 20
3.97051978609263
 30
0.0
 11
1.077538948099259
 21
4.47051978609263
 31
0.0
 70
    32
 71
     5
  3
SU1
100
AcDbAlignedDimension
 13
1.890924680715891
 23
4.97051978609263
 33
0.0
 14
2.10967468071589
 24
3.97051978609263
 34
0.0
 50
90.0
100
AcDbRotatedDimension
  0
DIMENSION
  5
275
330
1F
100
AcDbEntity
  8
DIM
100
AcDbDimension
  2
*D10
 10
2.140927511380198
 20
3.640184592337298
 30
0.0
 11
2.515927511380198
 21
3.640184592337298
 31
0.0
 70
    32
 71
     5
 42
0.0312528306643074
  3
SU1
100
AcDbAlignedDimension
 13
2.10967468071589
 23
3.97051978609263
 33
0.0
 14
2.140927511380198
 24
3.97051978609263
 34
0.0
100
AcDbRotatedDimension
  0
DIMENSION
  5
283
330
1F
100
AcDbEntity
  8
DIM
100
AcDbDimension
  2
*D11
 10
2.140927511380198
 20
3.339785610927677
 30
0.0
 11
2.530927511380197
 21
3.339785610927677
 31
0.0
 70
    32
 71
     5
 42
0.2500028306643074
  3
SU1
100
AcDbAlignedDimension
 13
1.89092468071589
 23
4.22051978609263
 33
0.0
 14
2.140927511380198
 24
3.97051978609263
 34
0.0
100
AcDbRotatedDimension
  0
MTEXT
  5
291
330
1F
100
AcDbEntity
  8
TEXT
100
AcDbMText
 10
9.18226620093414
 20
0.5457504730513368
 30
0.0
 40
0.06
 41
2.13546759813172
 71
     5
 72
     5
  1
TROWEL FOR BACKSIDE BIAS BONDS ENCAPSULATION
 73
     1
 44
1.0
  0
MTEXT
  5
292
330
1F
100
AcDbEntity
  8
TEXT
100
AcDbMText
 10
1.362650367708624
 20
1.984138949366965
 30
0.0
 40
0.2
 41
4.600311310299055
 71
     1
 72
     5
  1
MATERIAL: DELRIN
 73
     1
 44
1.0
  0
DIMENSION
  5
2AE
330
1F
100
AcDbEntity
  8
DIM
100
AcDbDimension
  2
*D12
 10
8.225719677448854
 20
3.97051978609263
 30
0.0
 11
7.933219677448853
 21
3.790519786092631
 31
0.0
 70
    32
 71
     5
 42
0.0049999999999995
  3
SU1
100
AcDbAlignedDimension
 13
6.70895994867175
 23
3.975519786092629
 33
0.0
 14
5.958959948671747
 24
3.97051978609263
 34
0.0
 50
90.0
100
AcDbRotatedDimension
  0
DIMENSION
  5
2BD
330
1F
100
AcDbEntity
  8
DIM
100
AcDbDimension
  2
*D13
 10
5.833959948671747
 20
5.184808185318626
 30
0.0
 11
6.771459948671749
 21
5.184808185318626
 31
0.0
 70
    32
 71
     5
 42
1.875000000000002
  3
SU1
100
AcDbAlignedDimension
 13
7.70895994867175
 23
4.97051978609263
 33
0.0
 14
5.833959948671747
 24
4.97051978609263
 34
0.0
100
AcDbRotatedDimension
  0
ENDSEC
  0
SECTION
  2
OBJECTS
  0
DICTIONARY
  5
C
330
0
100
AcDbDictionary
281
     1
  3
ACAD_COLOR
350
105
  3
ACAD_GROUP
350
D
  3
ACAD_LAYOUT
350
1A
  3
ACAD_MATERIAL
350
104
  3
ACAD_MLINESTYLE
350
17
  3
ACAD_PLOTSETTINGS
350
19
  3
ACAD_PLOTSTYLENAME
350
E
  3
AcadDim
350
EE
  0
DICTIONARY
  5
105
102
{ACAD_REACTORS
330
C
102
}
330
C
100
AcDbDictionary
281
     1
  0
DICTIONARY
  5
D
102
{ACAD_REACTORS
330
C
102
}
330
C
100
AcDbDictionary
281
     1
  0
DICTIONARY
  5
1A
102
{ACAD_REACTORS
330
C
102
}
330
C
100
AcDbDictionary
281
     1
  3
Layout1
350
1E
  3
Layout2
350
26
  3
Model
350
22
  0
DICTIONARY
  5
104
102
{ACAD_REACTORS
330
C
102
}
330
C
100
AcDbDictionary
281
     1
  0
DICTIONARY
  5
17
102
{ACAD_REACTORS
330
C
102
}
330
C
100
AcDbDictionary
281
     1
  3
Standard
350
18
  0
DICTIONARY
  5
19
102
{ACAD_REACTORS
330
C
102
}
330
C
100
AcDbDictionary
281
     1
  0
ACDBDICTIONARYWDFLT
  5
E
102
{ACAD_REACTORS
330
C
102
}
330
C
100
AcDbDictionary
281
     1
  3
Normal
350
F
100
AcDbDictionaryWithDefault
340
F
  0
XRECORD
  5
EE
102
{ACAD_REACTORS
330
C
102
}
330
C
100
AcDbXrecord
280
     1
 90
   990106
  3

 60
     0
 61
     0
 62
     2
 63
     2
 64
     0
 65
     0
 66
     0
 67
     3
 68
     1
 69
     0
 70
     0
 71
     0
 72
     0
 40
0.0
170
     2
340
0
  0
LAYOUT
  5
1E
102
{ACAD_REACTORS
330
1A
102
}
330
1A
100
AcDbPlotSettings
  1

  2

  4

  6

 40
0.0
 41
0.0
 42
0.0
 43
0.0
 44
0.0
 45
0.0
 46
0.0
 47
0.0
 48
0.0
 49
0.0
140
0.0
141
0.0
142
1.0
143
1.0
 70
   688
 72
     0
 73
     0
 74
     5
  7
style-1.ctb
 75
    16
147
1.0
 76
     0
 77
     2
 78
   300
148
0.0
149
0.0
100
AcDbLayout
  1
Layout1
 70
     1
 71
     1
 10
0.0
 20
0.0
 11
12.0
 21
9.0
 12
0.0
 22
0.0
 32
0.0
 14
1.000000000000000E+20
 24
1.000000000000000E+20
 34
1.000000000000000E+20
 15
-1.000000000000000E+20
 25
-1.000000000000000E+20
 35
-1.000000000000000E+20
146
0.0
 13
0.0
 23
0.0
 33
0.0
 16
1.0
 26
0.0
 36
0.0
 17
0.0
 27
1.0
 37
0.0
 76
     0
330
1B
  0
LAYOUT
  5
26
102
{ACAD_REACTORS
330
1A
102
}
330
1A
100
AcDbPlotSettings
  1

  2

  4

  6

 40
0.0
 41
0.0
 42
0.0
 43
0.0
 44
0.0
 45
0.0
 46
0.0
 47
0.0
 48
0.0
 49
0.0
140
0.0
141
0.0
142
1.0
143
1.0
 70
   688
 72
     0
 73
     0
 74
     5
  7
style-1.ctb
 75
    16
147
1.0
 76
     0
 77
     2
 78
   300
148
0.0
149
0.0
100
AcDbLayout
  1
Layout2
 70
     1
 71
     2
 10
0.0
 20
0.0
 11
12.0
 21
9.0
 12
0.0
 22
0.0
 32
0.0
 14
0.0
 24
0.0
 34
0.0
 15
0.0
 25
0.0
 35
0.0
146
0.0
 13
0.0
 23
0.0
 33
0.0
 16
1.0
 26
0.0
 36
0.0
 17
0.0
 27
1.0
 37
0.0
 76
     0
330
23
  0
LAYOUT
  5
22
102
{ACAD_REACTORS
330
1A
102
}
330
1A
100
AcDbPlotSettings
  1

  2
HP OfficeJet G Series
  4
Letter
  6

 40
7.143749713897705
 41
12.47774982452392
 42
7.14373779296875
 43
3.17498779296875
 44
215.8999938964844
 45
279.3999938964844
 46
8.889999999999998
 47
4.825999999999999
 48
4.465456044674908
 49
2.391351133865374
140
6.163685944212158
141
3.026893790374579
142
1.0
143
1.0
 70
 11956
 72
     0
 73
     1
 74
     1
  7
style-1.ctb
 75
    16
147
1.0
 76
     0
 77
     2
 78
   150
148
-6.33914866626629
149
-1.580136642488809
100
AcDbLayout
  1
Model
 70
     1
 71
     0
 10
0.0
 20
0.0
 11
12.0
 21
9.0
 12
0.0
 22
0.0
 32
0.0
 14
0.0
 24
0.0
 34
0.0
 15
0.0
 25
0.0
 35
0.0
146
0.0
 13
0.0
 23
0.0
 33
0.0
 16
1.0
 26
0.0
 36
0.0
 17
0.0
 27
1.0
 37
0.0
 76
     0
330
1F
  0
MLINESTYLE
  5
18
102
{ACAD_REACTORS
330
17
102
}
330
17
100
AcDbMlineStyle
  2
STANDARD
 70
     0
  3

 62
   256
 51
90.0
 52
90.0
 71
     2
 49
0.5
 62
   256
  6
BYLAYER
 49
-0.5
 62
   256
  6
BYLAYER
  0
ACDBPLACEHOLDER
  5
F
102
{ACAD_REACTORS
330
E
102
}
330
E
  0
ENDSEC
  0
EOF
